osu file format v5

[General]
AudioFilename: Mortal Kombat-Theme Song.mp3
AudioLeadIn: 0
PreviewTime: -1
Countdown: 1
SampleSet: Soft
StackLeniency: 0.7
Mode: 0
LetterboxInBreaks: 0
SkinPreference:Default
EditorBookmarks: 16456,18249,66643,68435,96667,132963,134307,136547,137892

[Metadata]
Title:Techno Syndrome
Artist:The Immortals
Creator:beatmastermap
Version:Insane
Source:Mortal Kombat
Tags:Mortal Kombat

[Difficulty]
HPDrainRate:6
CircleSize:6
OverallDifficulty:6
SliderMultiplier:1.9
SliderTickRate:2

[Events]
//Background and Video events
0,0,"mortalkombat.jpg"
//Break Periods
2,46680,58575
2,89698,101592
2,131141,131908
2,134507,135703
2,138091,151779
//Storyboard Layer 0 (Background)
//Storyboard Layer 1 (Failing)
//Storyboard Layer 2 (Passing)
//Storyboard Layer 3 (Foreground)
//Storyboard Sound Samples
//Background Colour Transformations
3,100,163,162,255

[TimingPoints]
3904,448.16253361219,4,2,0,41,1,0
17346,-100,4,2,0,0,0,0
18243,-100,4,1,0,59,0,0
61260,-100,4,2,0,59,0,0
68429,-100,4,1,0,59,0,0
75604,-100,4,1,0,41,0,1
102041,-100,4,2,0,0,0,0
104277,-100,4,2,0,60,0,0
111446,-100,4,1,0,60,0,0
118621,-100,4,1,0,41,0,1
131167,-100,4,1,0,41,0,0
152671,-100,4,1,0,0,0,0
154463,-100,4,2,0,60,0,0
161633,-100,4,1,0,60,0,0
183146,-100,4,2,0,41,0,0
197037,-100,4,1,0,41,0,0

[Colours]
Combo1 : 0,255,128
Combo2 : 255,0,0
Combo3 : 255,255,0
Combo4 : 255,128,0

[HitObjects]
408,288,3904,1,0
408,288,4128,1,0
328,288,4352,1,0
328,288,4576,1,0
248,288,4800,1,0
248,288,5024,1,0
168,288,5248,6,2,B|72:288,2,95
168,208,5920,5,0
168,208,6144,1,0
168,128,6368,1,0
168,128,6592,1,0
168,48,6817,1,0
168,48,7041,1,0
240,48,7265,6,2,B|296:48|296:48|296:104,1,95
296,160,7713,5,0
392,160,7937,1,0
352,240,8161,1,0
448,240,8385,1,0
400,320,8609,1,0
304,320,8833,1,0
256,240,9057,1,0
256,160,9281,5,2
256,160,9506,1,2
176,160,9730,1,0
176,160,9954,1,0
176,232,10178,1,0
176,232,10402,1,0
96,232,10626,1,2
96,232,10850,1,2
96,304,11074,5,0
96,304,11298,1,2
16,304,11522,1,0
16,304,11746,1,2
16,224,11970,6,0,B|16:120,1,95
16,56,12419,1,0
88,56,12643,1,0
160,56,12867,1,0
232,56,13091,1,0
232,128,13315,5,0
232,128,13427,1,0
232,128,13539,1,0
304,128,13763,5,2
304,128,13875,1,2
304,128,13987,1,2
304,200,14211,5,0
304,200,14435,1,0
304,200,14659,1,0
376,200,14883,5,0
304,200,15108,5,0
304,200,15332,1,0
304,200,15556,2,0,B|192:200,2,95
304,272,16228,5,4
256,192,16452,12,2,17797
48,232,18245,5,0
48,152,18581,1,0
152,192,18917,1,0
152,192,19253,1,0
264,192,19589,5,0
264,192,19813,1,0
264,192,20037,1,0
264,304,20373,5,0
376,304,20710,5,0
488,304,21046,5,0
480,192,21382,5,0
480,192,21606,1,0
480,192,21830,1,0
368,192,22166,5,0
368,192,22502,1,0
368,192,22838,1,0
256,192,23174,5,0
256,192,23399,1,0
256,192,23623,1,0
176,192,23959,2,0,B|32:192,1,142.5
32,112,24519,2,0,B|32:64,1,47.5
104,64,24855,2,0,B|168:64,1,47.5
376,72,25639,5,0
376,72,25863,1,0
376,224,26312,2,0,B|216:224,1,142.5
136,224,26984,1,0
136,224,27096,1,0
136,144,27432,6,0,B|136:48,1,95
288,48,28104,1,0
288,160,28440,2,0,B|288:96,1,47.5
360,112,28777,5,0
360,264,29225,5,0
360,264,29449,1,0
208,264,29897,1,0
208,264,30233,1,0
128,264,30569,1,0
256,192,30793,12,0,32138
304,56,32586,6,0,B|360:56,1,47.5
208,56,32922,2,0,B|160:56,1,47.5
256,56,33258,6,0,B|256:104,1,47.5
256,176,33594,5,0
256,176,33706,1,0
256,248,33930,2,0,B|256:296,2,47.5
176,248,34379,5,0
176,248,34491,1,0
96,248,34715,1,0
96,248,34827,1,0
96,168,35051,1,0
96,168,35163,1,0
96,88,35387,2,0,B|96:40,1,47.5
168,40,35723,2,0,B|208:40|208:80,2,47.5
168,112,36171,6,0,B|168:160,1,47.5
168,232,36507,2,0,B|168:280,1,47.5
240,280,36843,2,0,B|288:280,1,47.5
368,280,37180,6,0,B|368:216,1,47.5
424,176,37516,1,0
384,176,37628,1,0
344,176,37740,1,0
264,176,37964,6,0,B|264:128,1,47.5
264,48,38300,1,0
264,48,38412,1,0
184,48,38636,1,0
104,48,38860,1,0
104,120,39084,1,0
104,192,39308,1,4
200,312,39757,6,0,B|264:312,1,47.5
320,312,40093,6,0,B|272:312,1,47.5
320,256,40429,2,0,B|320:200,1,47.5
376,256,40765,2,0,B|376:208,1,47.5
432,256,41101,1,0
432,216,41213,1,0
432,176,41325,1,0
432,96,41549,5,0
432,96,41661,1,0
352,96,41885,1,0
352,96,41997,1,0
272,96,42221,1,0
272,96,42333,1,0
192,96,42558,1,0
192,96,42670,1,0
112,96,42894,5,0
72,96,43006,1,0
72,136,43118,1,0
72,208,43342,5,0
72,208,43454,2,0,B|72:304,1,95
72,303,43790,2,0,B|176:304,1,95
166,303,44126,2,0,B|168:200,1,95
167,208,44462,1,0
240,208,44686,2,0,B|240:152,2,47.5
256,344,45134,5,4
448,192,45583,1,4
256,40,46031,1,4
256,192,46479,1,4
256,192,59476,12,0,60820
56,40,61268,5,0
152,40,61492,1,0
112,128,61716,1,0
208,128,61941,1,0
168,216,62165,1,0
264,216,62389,1,0
264,312,62613,5,0
264,216,62837,1,0
264,120,63061,1,0
264,24,63285,1,0
360,24,63509,2,0,B|440:48|440:72,2,95
360,120,64181,5,0
360,216,64405,1,0
360,312,64630,1,0
264,312,64854,1,0
360,312,65078,1,0
456,312,65302,1,0
456,216,65526,5,0
360,216,65750,1,0
264,216,65974,5,0
264,216,66198,1,0
264,216,66422,1,0
168,216,66646,5,0
168,216,66870,1,0
168,216,67094,1,0
72,216,67318,5,0
72,120,67543,1,0
168,120,67767,1,0
264,120,67991,2,0,B|464:120,1,190
456,192,68663,6,0,B|344:192,1,95
208,192,69335,5,0
208,192,69671,1,0
208,80,70007,5,0
208,80,70120,1,0
208,80,70232,1,0
280,80,70456,2,0,B|376:80,1,95
376,232,71128,2,0,B|232:232,2,142.5
376,152,72024,5,0
376,80,72248,5,0
376,80,72472,1,0
224,80,72921,2,0,B|224:224,2,142.5
256,192,73817,12,0,75161
80,192,75610,5,0
80,192,75722,2,0,B|160:120,1,95
150,128,76058,2,0,B|216:200,1,95
214,198,76394,2,0,B|144:264,1,95
144,263,76730,2,0,B|216:328,1,95
214,326,77066,1,0
214,326,77178,1,0
288,328,77402,6,0,B|336:328,1,47.5
336,248,77738,2,0,B|392:248,1,47.5
384,168,78074,2,0,B|432:168,1,47.5
432,88,78411,2,0,B|376:88,1,47.5
304,88,78747,2,0,B|304:152,2,47.5
224,88,79195,5,0
184,88,79307,1,0
184,160,79531,5,0
144,160,79643,1,0
112,232,79867,5,0
72,232,79979,1,0
72,304,80203,5,0
112,304,80315,1,0
176,272,80539,6,0,B|232:272,2,47.5
248,272,80987,5,0
248,272,81099,1,0
296,208,81324,5,0
296,208,81436,1,0
344,144,81660,6,0,B|384:88,1,47.5
392,72,81884,5,0
312,72,82108,1,0
232,72,82332,1,4
80,72,82780,5,0
120,72,82892,1,0
80,136,83116,5,0
120,136,83228,1,0
80,200,83452,5,0
120,200,83564,1,0
120,272,83788,5,0
120,312,83901,1,0
192,312,84125,5,0
192,312,84237,1,0
192,312,84349,1,0
264,312,84573,5,0
264,312,84685,2,0,B|320:312|352:312|352:264,1,95
348,285,85021,6,0,B|312:240|336:208|368:192,1,95
352,201,85357,6,0,B|296:216|280:168|288:152,1,95
286,156,85693,6,0,B|352:136|312:80,1,95
344,64,86029,1,0
384,56,86141,1,0
440,104,86365,5,0
440,104,86477,2,0,B|376:176,1,95
376,175,86814,2,0,B|288:104,1,95
302,115,87150,2,0,B|264:208,1,95
266,202,87486,2,0,B|328:296,1,95
280,280,87822,1,0
240,280,87934,1,0
160,280,88158,6,0,B|112:280,1,47.5
160,224,88494,2,0,B|104:224,1,47.5
160,168,88830,2,0,B|104:168,2,47.5
160,88,89278,1,0
232,88,89503,1,4
256,192,102499,12,0,103844
320,336,104292,5,0
224,336,104516,1,0
320,336,104740,1,0
224,336,104964,1,0
128,336,105188,1,0
128,240,105412,1,0
128,144,105636,6,0,B|144:72|200:88,1,95
240,160,106085,2,0,B|312:136|288:88,1,95
328,8,106533,2,0,B|384:8|408:40|376:72,1,95
384,152,106981,5,0
384,248,107205,1,0
384,344,107429,1,0
288,344,107653,5,0
288,248,107877,5,0
200,280,108101,1,0
112,248,108325,1,0
200,224,108549,1,0
288,248,108774,5,0
288,152,108998,1,0
288,56,109222,1,0
288,56,109446,1,0
192,56,109670,5,0
192,56,109894,1,0
96,56,110118,1,0
96,56,110342,1,0
96,152,110566,5,0
96,152,110790,1,0
96,152,111014,1,0
256,72,111463,5,4
256,304,111687,1,4
256,192,112023,12,4,112807
432,192,113255,5,4
80,192,113479,1,4
256,192,113815,12,4,114600
128,96,115048,5,4
392,288,115272,1,4
256,192,115608,12,4,116392
392,88,116840,5,4
128,288,117065,1,4
256,192,117401,12,4,118185
64,192,118633,5,0
64,192,118745,1,0
160,192,118969,1,0
160,192,119081,1,0
256,192,119305,5,0
256,192,119417,1,0
352,192,119641,1,0
352,192,119754,1,0
448,192,119978,6,0,B|448:248,2,47.5
352,192,120426,5,0
352,192,120538,1,0
256,192,120762,1,0
256,192,120874,1,0
160,192,121098,5,0
160,192,121210,1,0
64,192,121434,5,0
64,192,121546,1,0
64,96,121770,5,0
112,96,121882,1,0
160,96,121994,1,0
256,96,122218,6,0,B|320:96,1,47.5
400,104,122555,2,0,B|400:160,1,47.5
400,248,122891,2,0,B|344:248,1,47.5
256,248,123227,2,0,B|256:192,1,47.5
304,120,123563,5,0
256,120,123675,1,0
208,120,123787,1,0
112,120,124011,5,0
112,120,124123,2,0,B|112:232,1,95
112,215,124459,2,0,B|112:312,1,95
112,310,124795,2,0,B|224:312,1,95
206,311,125131,2,0,B|320:312,1,95,0|4
488,280,125804,5,0
440,280,125916,1,0
440,184,126140,5,0
392,184,126252,1,0
392,88,126476,5,0
344,88,126588,1,0
344,184,126812,5,0
296,184,126924,1,0
296,280,127148,5,0
248,280,127260,1,0
200,280,127372,1,0
104,280,127596,5,0
104,280,127708,2,0,B|104:168,1,95
104,185,128045,2,0,B|104:80,1,95
104,90,128381,2,0,B|200:88,1,95
198,88,128717,2,0,B|200:184,1,95
199,182,129053,2,0,B|256:184,1,47.5
370,214,129389,5,0
370,214,129501,1,0
370,214,129725,5,0
370,214,129837,1,0
370,214,130061,5,0
370,214,130173,1,0
370,214,130397,5,0
370,214,130509,1,0
370,214,130733,5,0
370,214,130846,1,0
370,214,130958,1,0
64,192,132974,6,4,B|64:120|64:120|120:120|120:120|120:232|120:232|200:232|200:232|200:296|200:296|368:296|368:296|368:264,1,570
416,64,136560,6,4,B|344:64|344:64|344:136|344:136|408:136|408:136|408:232|408:232|376:232|376:232|376:296|376:296|240:296|240:296|240:256,1,570
256,192,152693,12,4,154038
416,296,154486,5,0
320,296,154710,1,0
320,200,154934,1,0
224,200,155158,1,0
224,296,155382,5,0
320,296,155607,1,0
416,296,155831,1,0
416,200,156055,1,0
416,104,156279,5,0
320,104,156503,1,0
224,104,156727,5,0
224,104,156951,1,0
128,104,157175,2,0,B|24:104,2,95
128,200,157847,6,0,B|232:200,2,95
128,296,158520,5,0
224,296,158744,1,0
320,296,158968,5,0
320,296,159080,1,0
320,296,159192,1,0
416,296,159416,5,0
416,296,159528,1,0
416,296,159640,1,0
416,200,159864,5,0
320,200,160088,1,0
224,200,160312,1,0
128,200,160536,1,0
128,104,160760,5,0
224,104,160984,1,0
320,104,161209,2,0,B|440:104|440:104|440:176,1,190
440,264,161881,6,0,B|328:264,1,95
192,264,162553,2,0,B|48:264,2,142.5
192,184,163449,5,0
192,104,163673,1,0
192,104,163898,1,0
344,104,164346,6,0,B|400:104|400:104|400:192,2,142.5
192,104,165466,2,0,B|80:104,1,95
96,256,166138,5,0
208,256,166474,1,0
320,256,166811,1,0
256,192,167035,12,0,168379
56,312,168827,5,0
56,312,168939,2,0,B|160:312,1,95
151,312,169275,2,0,B|152:208,1,95
151,217,169612,2,0,B|248:216,1,95
245,216,169948,2,0,B|248:104,1,95
247,121,170284,2,0,B|176:120,1,47.5
120,120,170620,5,0
120,80,170732,1,0
184,32,170956,5,0
224,32,171068,1,0
296,32,171292,5,0
336,32,171404,1,0
336,104,171628,6,0,B|384:104,1,47.5
384,176,171964,2,0,B|328:176,2,47.5
384,248,172413,6,0,B|320:248,1,47.5
336,320,172749,2,0,B|280:320,1,47.5
208,320,173085,6,0,B|152:320,1,47.5
80,320,173421,2,0,B|80:256,1,47.5
80,192,173757,2,0,B|128:192,2,47.5
80,112,174205,5,0
80,112,174317,1,0
152,112,174541,1,0
152,112,174653,1,0
224,112,174878,5,0
224,112,174990,1,0
224,112,175102,1,0
224,184,175326,1,0
296,184,175550,1,4
432,120,175998,6,0,B|432:312,1,190
352,312,176670,5,0
272,312,176894,6,0,B|80:312,1,190
80,232,177566,5,0
80,152,177791,6,0,B|280:152,1,190
344,152,178463,5,0
416,152,178687,6,0,B|416:232|416:232|296:232,1,190
232,232,179359,5,0
152,232,179583,6,0,B|152:176|152:176|232:176|232:176|232:112,1,190
232,48,180255,5,0
304,48,180480,6,0,B|416:48|416:48|416:128,1,190
336,128,181152,1,0
256,192,181376,12,4,182720
256,192,183169,5,0
352,192,183393,1,0
256,192,183617,1,0
160,192,183841,1,0
160,96,184065,1,0
256,96,184289,6,0,B|256:40|256:40|304:40,1,95
328,128,184737,6,0,B|376:128|376:128|376:80,1,95
472,88,185185,6,0,B|472:40|472:40|424:40,1,95
432,136,185633,6,0,B|432:184|432:184|384:184,1,95
288,184,186082,6,0,B|336:184|336:184|336:248,1,95
336,328,186530,5,0
336,328,186754,1,0
240,328,186978,5,0
240,328,187202,1,0
144,328,187426,5,0
64,272,187650,1,0
144,224,187874,1,0
64,168,188098,1,0
144,112,188322,1,0
64,56,188546,1,0
64,56,188771,5,0
160,56,188995,1,0
160,56,189219,1,0
256,56,189443,1,0
256,56,189667,1,0
352,56,189891,2,0,B|456:56,2,95
352,152,190563,6,0,B|352:264,2,95
256,152,191235,6,0,B|152:152,1,95
224,224,191684,2,0,B|128:224,1,95
192,296,192132,2,0,B|80:296,2,95
288,296,192804,2,0,B|392:296,1,95
320,224,193252,2,0,B|416:224,1,95
352,152,193700,2,0,B|448:152,2,95
256,152,194373,5,0
184,96,194597,1,0
256,152,194821,1,0
256,56,195045,1,0
336,104,195269,1,0
256,152,195493,1,0
256,192,195717,12,4,197510
