osu file format v5

[General]
AudioFilename: Mortal Kombat-Theme Song.mp3
AudioLeadIn: 0
PreviewTime: -1
Countdown: 1
SampleSet: Normal
StackLeniency: 0.7
Mode: 0
LetterboxInBreaks: 0
SkinPreference:Default
EditorBookmarks: 16456,18249,66643,68435,96667,132963,134307,136547,137892

[Metadata]
Title:Techno Syndrome
Artist:The Immortals
Creator:beatmastermap
Version:Hard
Source:Mortal Kombat
Tags:Mortal Kombat

[Difficulty]
HPDrainRate:6
CircleSize:5
OverallDifficulty:7
SliderMultiplier:1.9
SliderTickRate:2

[Events]
//Background and Video events
0,0,"mortalkombat.jpg"
//Break Periods
2,46680,58575
2,89698,101592
2,134507,135703
2,138091,151779
//Storyboard Layer 0 (Background)
//Storyboard Layer 1 (Failing)
//Storyboard Layer 2 (Passing)
//Storyboard Layer 3 (Foreground)
//Storyboard Sound Samples
//Background Colour Transformations
3,100,163,162,255

[TimingPoints]
3904,448.16253361219,4,1,0,41,1,0
75604,-100,4,1,0,41,0,1
102041,-100,4,1,0,41,0,0
118621,-100,4,1,0,41,0,1
131167,-100,4,1,0,41,0,0
183146,-100,4,2,0,41,0,0
197037,-100,4,1,0,41,0,0

[Colours]
Combo1 : 0,255,128
Combo2 : 255,0,0
Combo3 : 255,255,0
Combo4 : 255,128,0

[HitObjects]
48,288,3904,1,4
336,288,5696,6,2,B|480:288,2,142.5
432,56,7489,5,4
192,56,9281,6,2,B|50:56,4,142.5
256,192,11074,5,4
256,192,12867,6,2,B|114:192,4,142.5
256,192,14659,5,4
256,192,16452,12,4,18245
88,176,18581,5,0
88,72,18917,1,0
184,72,19253,1,0
280,72,19589,2,2,B|384:72,2,95
280,168,20373,5,0
280,264,20710,1,0
176,264,21046,1,0
72,264,21382,2,2,B|72:168,1,95
72,104,21830,6,0,B|216:104,1,142.5
312,104,22502,2,0,B|456:104,1,142.5
456,200,23174,6,2,B|456:304,2,95
352,200,23959,5,0
248,200,24295,1,0
184,200,24519,1,8
184,200,24631,1,8
120,200,24855,1,8
120,200,24967,1,8
120,64,25415,5,0
184,64,25639,1,2
248,64,25863,1,0
312,64,26088,6,0,B|424:64,2,95,2|0|2
312,128,26760,1,0
312,192,26984,1,2
312,256,27208,6,0,B|424:256,2,95,0|2|0
248,256,27880,5,2
184,256,28104,1,0
120,256,28328,1,2
120,192,28552,1,0
184,192,28777,5,2
184,192,28889,1,0
184,192,29001,1,0
248,192,29225,2,0,B|248:88,1,95,2|0
312,96,29673,2,0,B|416:96,1,95,2|0
408,160,30121,2,0,B|464:160,2,47.5,2|0|0
408,224,30569,5,2
256,192,30793,12,0,32138
88,288,32586,5,8
88,224,32810,1,0
88,160,33034,1,8
88,96,33258,1,0
152,96,33482,2,0,B|248:96,1,95,8|0
248,160,33930,6,0,B|344:160,1,95,8|0
408,160,34379,2,0,B|440:160|440:160|440:232,1,95,8|0
440,288,34827,5,8
376,288,35051,1,0
312,288,35275,1,8
248,288,35499,2,0,B|144:288,1,95,0|8
88,288,35947,5,0
88,288,36059,1,0
88,288,36171,1,8
88,224,36395,6,0,B|192:224,1,95,0|8
248,224,36843,1,0
312,224,37068,1,8
312,160,37292,1,0
248,160,37516,6,0,B|136:160,2,95,8|0|8
256,192,38076,12,0,39308
424,288,39757,6,8,B|424:240,2,47.5
360,288,40205,1,0
296,288,40429,1,0
232,288,40653,1,0
168,288,40877,1,0
104,288,41101,6,8,B|104:344,2,47.5
104,224,41549,5,0
104,160,41773,1,0
104,96,41997,1,0
168,96,42221,1,0
168,160,42445,1,0
168,224,42670,1,0
232,224,42894,6,8,B|288:224,2,47.5,8|8|8
232,160,43342,5,0
232,96,43566,1,0
296,96,43790,1,0
296,160,44014,1,0
360,160,44238,1,0
360,96,44462,1,0
424,96,44686,6,8,B|424:48,2,47.5
424,160,45134,2,4,B|424:352,3,190
256,192,59476,12,0,60820
416,280,61268,5,8
416,280,61604,1,8
312,280,61941,5,8
312,280,62277,1,8
208,280,62613,2,2,B|232:320|232:320|288:352,2,95,2|2|8
104,280,63397,5,8
104,176,63733,1,8
104,72,64069,1,8
200,72,64405,1,2
200,72,64630,1,2
200,72,64854,1,8
200,168,65190,5,8
200,168,65526,1,8
200,264,65862,1,8
296,264,66198,6,2,B|400:264,1,95
256,192,66646,12,4,67991
384,264,68439,5,8
384,264,68775,1,8
280,264,69111,1,8
176,264,69447,1,8
72,264,69783,6,2,B|72:368,2,95,2|2|8
72,160,70568,5,8
168,160,70904,1,8
264,160,71240,1,8
360,160,71576,2,2,B|424:144|432:96,2,95,2|2|8
360,256,72360,5,8
256,256,72696,1,8
256,152,73033,1,8
256,48,73369,6,2,B|216:48|216:48|176:96,2,95,2|2|8
352,48,74153,5,0
352,144,74489,1,0
352,208,74713,5,8
352,208,74825,1,8
288,208,75049,1,8
288,208,75161,1,12
152,208,75610,5,0
152,208,75834,1,0
152,208,76058,2,0,B|152:104,1,95,8|0
152,48,76506,1,0
216,48,76730,1,0
280,48,76954,5,8
280,112,77178,1,0
280,176,77402,2,0,B|376:176,2,95,0|0|8
280,240,78074,6,0,B|344:240,2,47.5
280,240,78523,5,0
216,240,78747,1,8
152,240,78971,1,0
88,240,79195,6,0,B|40:184|32:112|112:56,1,190,0|8
160,72,79867,5,0
224,72,80091,6,0,B|432:72,1,190,0|8
416,136,80763,5,0
416,200,80987,2,0,B|424:288|384:320|296:336,1,190,0|8
248,336,81660,6,0,B|248:272,2,47.5
184,336,82108,6,0,B|88:336,1,95,0|8
424,160,82780,5,0
424,224,83004,1,0
424,288,83228,1,8
424,352,83452,1,0
360,352,83676,1,0
296,352,83901,2,8,B|96:352,1,190
104,288,84573,5,0
104,224,84797,1,0
104,160,85021,2,0,B|104:56,2,95,8|0|0
168,160,85693,5,0
168,224,85917,1,8
168,288,86141,1,0
232,288,86365,6,0,B|336:288,2,95,0|0|8
232,224,87038,2,0,B|328:224,1,95
328,160,87486,2,0,B|232:160,1,95,0|8
232,96,87934,6,0,B|128:96,2,95
296,96,88606,1,8
360,96,88830,1,0
424,96,89054,1,0
424,160,89278,1,0
424,224,89503,1,8
256,192,102499,12,0,103844
408,288,104292,5,8
304,288,104628,1,8
200,288,104964,1,8
96,288,105300,1,8
96,184,105636,2,2,B|96:80,2,95,2|2|8
192,184,106421,5,8
288,184,106757,1,8
384,184,107093,1,8
384,80,107429,2,2,B|272:80,2,95,2|2|8
480,80,108213,5,8
480,176,108549,1,8
480,272,108886,1,8
480,368,109222,2,2,B|280:368,1,190
288,264,110006,5,0
184,264,110342,1,0
120,264,110566,5,8
120,264,110678,1,8
56,264,110902,1,8
56,264,111014,1,12
56,128,111463,5,8
56,128,111799,1,8
56,128,112135,1,8
56,128,112471,1,8
152,128,112807,2,2,B|152:24,2,95,2|2|10
152,224,113591,5,8
152,320,113927,1,8
248,320,114264,1,8
344,320,114600,2,2,B|439:320,2,95,2|2|8
344,216,115384,5,8
344,112,115720,1,8
256,160,116056,1,8
256,256,116392,2,2,B|56:256,1,190
64,152,117177,5,0
64,48,117513,1,0
104,104,117737,5,8
104,104,117849,1,8
168,104,118073,1,8
168,104,118185,1,12
304,104,118633,6,8,B|352:104,2,47.5
240,104,119081,6,0,B|240:216,1,95
304,200,119529,2,0,B|304:296,1,95
240,296,119978,6,0,B|240:344,2,47.5,8|8|8
176,296,120426,6,0,B|80:296,1,95
80,232,120874,2,0,B|80:136,1,95
80,72,121322,2,0,B|176:72,1,95
240,72,121770,5,8
240,72,121882,1,8
240,72,121994,1,8
304,72,122218,5,0
368,72,122442,1,0
432,72,122667,1,0
432,136,122891,1,0
368,136,123115,1,0
304,136,123339,1,0
240,136,123563,6,8,B|240:192,2,47.5
176,136,124011,6,0,B|112:136|112:136|48:168|48:168|48:240,1,190
48,288,124683,5,0
48,352,124907,6,0,B|136:352|136:352|160:296|160:296|208:296,1,190
320,344,125804,6,8,B|424:344,1,95
376,288,126252,2,2,B|480:288,1,95
432,232,126700,2,8,B|432:136,1,95
376,176,127148,2,2,B|376:80,1,95
320,120,127596,2,8,B|320:24,1,95
256,32,128045,5,2
256,32,128157,1,8
256,32,128269,1,2
192,32,128493,5,2
192,32,128605,1,8
192,32,128717,1,2
128,32,128941,6,8,B|48:32|48:32|48:152,1,190
48,208,129613,5,2
48,272,129837,1,8
104,240,130061,1,2
104,240,130173,1,8
104,240,130285,1,2
168,240,130509,5,4
232,240,130733,5,2
232,240,130846,1,8
232,240,130958,1,2
256,192,131182,12,4,132526
112,56,132974,6,4,B|416:56|416:56|416:336,1,570
320,344,136560,6,4,B|64:344|64:344|64:24,1,570
256,192,152693,12,0,154038
112,256,154486,5,8
208,256,154822,1,8
304,256,155158,1,8
400,256,155494,1,8
400,152,155831,5,2
400,152,156055,1,2
400,152,156279,1,8
296,152,156615,6,8,B|152:152,3,142.5,8|8|8|10
88,152,157847,5,2
88,216,158071,5,8
88,312,158408,1,8
184,312,158744,1,8
280,312,159080,1,8
344,312,159304,5,2
344,312,159416,1,2
408,312,159640,1,2
408,248,159864,1,8
256,192,159976,12,4,161209
112,304,161657,5,0
112,168,162105,1,8
112,32,162553,2,0,B|312:32,1,190,0|8
368,32,163225,5,2
432,32,163449,6,0,B|432:224,1,190,0|8
432,288,164122,5,2
368,288,164346,6,0,B|168:288,1,190,0|8
176,224,165018,5,2
240,224,165242,2,8,B|312:224|312:224|312:104,1,190,0|8
248,104,165914,1,2
248,168,166138,6,0,B|176:168|176:168|176:72|176:72|144:72,1,190,0|8
88,72,166811,5,2
256,192,167035,12,0,168379
464,192,168827,6,8,B|264:192,1,190
272,56,169724,2,8,B|104:56|104:56|104:80,1,190
104,208,170620,2,8,B|304:208,1,190
296,336,171516,6,8,B|368:320|392:280|392:192,1,190
392,64,172413,6,8,B|296:56|240:136|248:184,1,190
248,296,173309,2,8,B|160:344|136:352|48:344,1,190
72,208,174205,6,8,B|72:72|72:72|144:72,1,190,8|8
192,72,174878,6,8,B|296:72,3,95
416,48,175998,6,8,B|416:144,1,95,8|2
368,96,176446,2,8,B|472:96,1,95,8|2
464,160,176894,2,8,B|352:160,1,95,8|2
368,256,177342,2,8,B|368:160,1,95,8|2
272,160,177791,6,8,B|80:159,1,190
88,64,178463,5,2
184,64,178687,6,8,B|272:64|272:64|272:184,1,190
176,168,179359,5,2
176,264,179583,6,8,B|368:264,1,190
456,264,180255,5,2
456,168,180480,6,8,B|456:64|456:64|360:64,1,190
256,192,181376,12,8,182720
448,320,183169,6,0,B|344:320,1,95,0|2
352,256,183617,2,0,B|248:256,1,95,0|2
256,192,184065,2,0,B|152:192,1,95,0|2
160,256,184513,6,0,B|256:256,1,95,0|2
256,320,184961,6,0,B|256:128,1,190
256,64,185633,6,0,B|360:64,1,95,2|0
416,64,186082,2,0,B|416:160,1,95,2|0
416,224,186530,2,0,B|320:224,2,95,2|0|2
416,288,187202,5,0
352,288,187426,1,2
288,288,187650,1,0
224,288,187874,1,2
160,288,188098,1,0
96,288,188322,1,2
256,192,188546,12,0,189891
72,192,190339,5,8
72,192,190563,1,2
72,128,190787,5,8
128,160,191011,5,2
128,160,191235,1,8
128,96,191460,6,0,B|232:96,1,95,2|8
224,160,191908,6,0,B|328:160,1,95,2|8
320,96,192356,6,0,B|416:96,1,95,2|8
416,32,192804,6,0,B|313:32,1,95,2|8
256,32,193252,5,2
256,96,193476,1,8
256,160,193700,1,2
256,224,193924,1,8
256,288,194148,2,2,B|448:288,1,190
448,224,194821,6,8,B|448:32,1,190
384,32,195493,5,2
256,192,195717,12,4,197510
