osu file format v8

[General]
AudioFilename: BED INTRUDER SONG!!!.mp3
AudioLeadIn: 0
PreviewTime: -1
Countdown: 0
SampleSet: Normal
StackLeniency: 0.7
Mode: 0
LetterboxInBreaks: 1

[Editor]
DistanceSpacing: 1
BeatDivisor: 4
GridSize: 8

[Metadata]
Title:Bed Intruder Song
Artist:The Gregory Brothers vs. Antoine Dodson
Creator:Decay
Version:Insane
Source:
Tags:Bed intruder song antoine dodson gregory brothers glass rapidlslayer

[Difficulty]
HPDrainRate:6
CircleSize:4
OverallDifficulty:6
ApproachRate:8
SliderMultiplier:2.4
SliderTickRate:2

[Events]
//Background and Video events
0,0,"Antoine-Dodson-300x231.jpg"
//Break Periods
//Storyboard Layer 0 (Background)
//Storyboard Layer 1 (Fail)
//Storyboard Layer 2 (Pass)
//Storyboard Layer 3 (Foreground)
//Storyboard Sound Samples
//Background Colour Transformations
3,100,163,162,255

[TimingPoints]
6005.06771788522,394.736842105263,4,1,0,100,1,0

[Colours]
Combo1 : 244,0,0
Combo2 : 5,240,5

[HitObjects]
112,88,6005,2,0,B|160:224|312:168,1,240
344,56,6597,2,2,B|416:56|432:144,1,120
428,127,6991,1,2
416,232,7189,1,0
296,280,7386,2,0,B|296:160,1,120
208,240,7781,2,0,B|128:144,1,120
56,176,8176,2,0,B|56:48,1,120,0|0
56,176,8570,1,2
176,176,8768,1,2
296,176,8965,1,2
416,128,9162,6,0,B|376:64|272:96,1,120
328,216,9557,1,0
240,296,9755,2,0,B|280:352|352:336,1,120
328,216,10149,1,2
416,296,10347,1,2
328,216,10544,1,2
248,128,10741,5,2
248,128,10840,1,0
248,128,10939,1,0
128,128,11136,1,2
128,248,11334,1,0
248,248,11531,1,2
248,248,11630,1,0
248,248,11728,1,0
368,248,11926,2,2,B|368:104,1,120
288,40,12320,5,2
176,88,12518,2,2,B|208:152|288:152,1,120
392,136,12912,1,0
392,256,13110,2,2,B|352:296|264:296,1,120
184,208,13505,1,2
176,88,13702,1,0
272,160,13899,2,2,B|304:104|272:32,1,120
368,128,14294,2,2,B|368:200|304:256,1,120
200,240,14689,2,2,B|248:304|296:352|424:312|456:304,1,240
416,192,15281,1,0
344,104,15478,5,0
224,104,15676,2,0,L|120:168,1,120
24,232,16070,1,0
24,232,16268,1,0
264,248,16662,5,0
328,144,16860,1,0
208,144,17057,1,0
264,296,17255,5,0
376,104,17452,1,0
160,104,17649,1,0
264,184,17847,1,0
264,184,18044,1,0
152,232,18241,5,0
152,232,18339,1,0
152,232,18438,1,0
256,96,18636,1,2
336,184,18834,1,0
256,96,19031,1,2
176,184,19228,1,0
256,96,19426,2,2,L|256:224,1,120
368,256,19820,5,0
328,144,20018,1,0
432,112,20215,2,2,B|480:176|424:240,1,120
336,288,20610,1,0
224,256,20807,2,2,B|224:184|296:176,1,120
336,288,21202,1,0
448,256,21399,2,0,B|448:176|368:176,1,120
336,288,21794,1,2
336,168,21991,1,0
336,48,22189,6,2,B|208:48,1,120
216,168,22584,2,2,B|96:208,1,120
184,296,22978,2,0,B|88:392,1,120
64,264,23373,1,2
64,264,23570,1,2
184,296,23768,6,2,B|336:240,1,120
200,184,24162,2,2,B|312:88,1,120
104,152,24557,2,0,B|176:32,1,120
280,32,24952,1,2
384,96,25149,1,0
280,160,25347,1,2
384,224,25544,1,2
280,160,25741,1,2
88,304,26136,5,8
312,224,26531,2,2,B|272:168|320:112,1,120
424,176,26926,2,2,B|472:232|424:304,1,120
312,224,27320,1,8
104,104,27715,6,2,B|48:176|112:256,1,120
160,312,28110,2,2,B|200:240|168:176,1,120
104,104,28505,1,8
48,176,28899,6,2,B|48:264|104:304,1,120
256,168,29294,2,2,B|224:128|216:56,1,120
416,168,29689,2,2,B|464:224|456:312,1,120
461,162,30084,1,0
344,144,30281,1,0
280,248,30478,2,2,B|232:208|232:120,1,120
233,142,30873,1,2
256,192,31465,6,0,B|256:320,1,120
256,192,31860,2,0,B|384:192,1,120
256,192,32255,1,0
256,72,32452,1,0
256,72,32551,1,0
256,72,32649,1,0
136,72,32847,6,2,B|48:72|48:192,1,120
384,72,33241,2,2,B|464:72|464:168,1,120
136,160,33636,2,2,B|136:280,1,120
384,160,34031,2,2,B|384:296,1,120
256,288,34426,1,8
256,288,35215,1,0
104,168,35412,1,0
256,72,35610,1,0
400,168,35807,1,0
256,288,36005,1,8
136,288,36202,1,0
72,176,36399,1,8
192,176,36597,6,8,B|320:176,1,120
312,176,36893,1,0
312,176,36991,1,8
256,72,37189,1,0
256,72,37287,1,0
256,72,37386,1,0
256,88,37978,6,2,B|256:240,1,120
256,208,38373,1,2
136,208,38570,1,0
256,208,38768,1,2
376,208,38965,1,0
256,304,39162,5,2
256,304,39261,1,0
256,304,39360,1,0
176,216,39557,1,2
176,216,39755,1,0
256,128,39952,1,2
256,128,40051,1,0
256,128,40149,1,0
344,216,40347,1,2
344,216,40544,1,0
160,72,40741,6,0,B|104:72|8:72,1,120
336,72,41136,2,0,B|432:72|488:72,1,120
160,184,41531,2,0,B|72:184|64:288,1,120
352,184,41926,2,0,B|448:184|456:272,1,120
256,200,42320,1,2
256,200,42419,1,2
256,200,42518,1,2
320,304,42715,5,2
200,304,42912,1,0
320,304,43110,1,2
200,304,43307,1,0
320,304,43505,1,2
16,184,43899,5,2
488,184,44294,1,0
56,280,44689,1,2
416,64,45084,1,0
192,272,45478,1,2
288,48,45873,1,0
232,136,46268,2,2,B|168:136|168:200|176:240|304:224|304:168|272:88,1,240
284,127,46860,1,0
192,48,47057,5,2
88,112,47255,1,0
80,232,47452,1,2
184,296,47649,1,2
192,176,47847,2,2,B|312:176,1,120
416,112,48241,2,0,B|456:168|416:240,1,120
336,304,48636,5,2
216,304,48834,1,0
96,304,49031,1,2
216,304,49228,2,2,B|216:160,1,120
96,304,49623,2,2,B|96:168,1,120
216,184,50018,1,0
336,184,50215,5,2
336,184,50314,1,0
336,184,50413,1,0
248,104,50610,1,2
144,184,50807,2,0,B|240:280,1,120
448,144,51202,2,0,B|352:56,1,120
176,40,51597,2,0,B|320:40,1,120
24,136,51991,2,0,B|24:264,1,120
352,344,52386,2,0,B|192:344,1,120
480,240,52781,2,0,B|480:104,1,120
480,120,53176,1,0
400,120,53373,5,2
352,120,53570,1,2
304,120,53767,1,2
400,200,54162,5,2
280,200,54360,1,2
160,200,54557,1,2
400,320,54952,1,2
208,320,55149,1,2
8,320,55347,1,2
16,72,55741,1,2
208,72,55939,1,2
400,72,56136,1,2
120,144,56728,6,2,B|120:264,1,120
120,264,57123,1,0
240,264,57320,2,8,B|320:264|320:168,1,120
318,191,57715,1,0
264,88,57912,1,0
152,120,58110,2,0,B|112:64|40:64,1,120
88,176,58505,2,2,B|136:224|208:208,1,120
320,208,58899,5,8
440,208,59097,1,8
440,88,59294,1,8
440,88,59393,1,8
440,88,59491,1,8
320,80,59689,5,2
128,160,59886,1,0
320,208,60084,1,2
128,280,60281,1,0
320,336,60478,1,2
392,72,60873,5,2
256,192,61070,1,2
128,312,61268,1,2
248,88,61860,5,2
144,176,62058,1,2
200,288,62255,1,2
320,288,62453,1,2
360,168,62650,1,2
256,184,62847,1,0
256,184,62945,1,0
256,184,63044,2,0,B|120:184,1,120
96,72,63439,5,0
96,192,63636,2,2,B|112:272|208:272,1,120
296,272,64031,1,0
200,176,64228,1,0
288,96,64426,1,0
288,96,64623,2,0,B|368:96|376:200,1,120
432,264,65018,1,0
304,264,65215,1,2
208,192,65412,1,2
40,184,65610,5,8
128,264,65807,1,8
248,288,66005,2,2,B|312:272|312:192,1,120
352,312,66399,2,2,B|400:272|392:192,1,120
464,304,66794,2,2,B|488:232|488:136|464:64,1,240
112,64,67584,6,0,B|8:128,1,120
96,192,67978,2,2,B|352:192,1,240
112,344,68768,2,0,B|16:240,1,120
96,192,69162,2,2,B|384:192,1,240
96,192,69952,1,2
264,16,70347,1,2
424,192,70741,1,2
264,16,71136,1,2
200,248,71531,1,2
272,152,71728,1,2
344,248,71926,1,2
