osu file format v8

[General]
AudioFilename: BED INTRUDER SONG!!!.mp3
AudioLeadIn: 0
PreviewTime: -1
Countdown: 0
SampleSet: Normal
StackLeniency: 0.7
Mode: 0
LetterboxInBreaks: 0

[Editor]
DistanceSpacing: 1
BeatDivisor: 4
GridSize: 8

[Metadata]
Title:Bed Intruder Song
Artist:The Gregory Brothers vs. Antoine Dodson
Creator:Decay
Version:Hide yo Glass
Source:
Tags:GlassBed intruder song antoine dodson gregory brothers glass rapidlslayer

[Difficulty]
HPDrainRate:7
CircleSize:4
OverallDifficulty:7
ApproachRate:7
SliderMultiplier:1.7
SliderTickRate:1

[Events]
//Background and Video events
0,0,"Antoine-Dodson-300x231.jpg"
//Break Periods
//Storyboard Layer 0 (Background)
//Storyboard Layer 1 (Fail)
//Storyboard Layer 2 (Pass)
//Storyboard Layer 3 (Foreground)
//Storyboard Sound Samples
//Background Colour Transformations
3,100,0,0,0

[TimingPoints]
6005.06771788522,394.736842105263,4,1,0,70,1,0
18159,-100,4,2,0,100,0,0
18553,-100,4,1,0,70,0,0
59195,-100,4,2,0,100,0,0
59590,-100,4,1,0,70,0,0

[Colours]
Combo1 : 244,0,0
Combo2 : 5,240,5

[HitObjects]
192,344,5610,2,0,B|142:333|123:286,1,85
208,264,6005,1,4
232,184,6202,1,0
304,136,6399,1,2
384,112,6597,1,0
472,112,6794,2,0,B|472:24,2,85,2|2|0
472,200,7386,5,0
432,272,7584,1,2
352,248,7781,1,0
312,320,7978,1,2
232,296,8176,2,0,B|232:352|168:368,1,85,0|2
152,288,8570,2,0,B|88:224|96:128,1,170,2|0
120,48,9162,5,2
40,24,9360,1,0
24,104,9557,2,0,B|16:144|24:208,1,85,2|0
40,272,9952,1,2
120,248,10149,1,2
200,272,10347,1,0
240,344,10544,1,2
280,272,10741,6,0,B|320:248|360:272|360:272|376:272,1,85,0|0
320,344,11136,1,2
232,112,11531,6,0,B|192:136|152:112|152:112|136:112,1,85,0|0
192,40,11926,1,2
320,200,12320,6,0,B|360:176|400:200|400:200|416:200,1,85,0|0
360,272,12715,1,2
192,184,13110,6,0,B|152:208|112:184|112:184|96:184,1,85,0|0
152,112,13505,1,2
360,128,13899,6,0,B|400:104|440:128|440:128|456:128,1,85,0|0
400,200,14294,1,2
152,256,14689,6,0,B|112:280|72:256|72:256|56:256,1,85,0|0
112,184,15084,1,2
256,192,15478,5,4
216,120,15676,1,0
296,120,15873,1,0
336,192,16070,2,0,B|392:192,1,42.5,0|0
384,280,16366,2,0,B|436:299,1,42.5,0|0
504,328,16662,1,0
488,248,16860,1,0
488,248,16959,1,0
488,248,17057,2,0,B|488:160,1,85,0|0
464,80,17452,2,0,B|416:104|408:160,1,85,0|0
376,224,17847,2,0,B|328:200|320:144,1,85,0|0
256,112,18241,5,4
256,272,18439,1,0
240,192,18636,5,4
176,248,18834,1,0
88,256,19031,1,2
8,224,19228,1,0
8,136,19426,2,0,B|0:88|38:56,1,85,2|0
88,123,19820,1,2
168,112,20018,2,0,B|176:160|137:191,2,85,0|2|0
304,56,20807,5,2
272,136,21005,1,0
304,208,21202,2,0,B|350:210|373:251,1,85,2|0
453,235,21597,2,0,B|449:308|391:342|325:315,1,170,2|0
336,319,22189,1,2
59,235,22584,6,0,B|62:308|120:342|187:315,1,170,4|0
139,250,23176,2,0,B|161:210|208:208,1,85,2|0
216,288,23570,6,0,B|256:312|304:288,1,85,0|2
328,88,24162,2,0,B|312:56|256:32|200:56|184:88|184:88|184:96,1,170,4|2
184,176,24755,5,0
256,216,24952,1,2
328,176,25149,1,0
328,88,25347,2,0,B|368:88|408:128,1,85,2|0
464,176,25741,1,4
48,176,26136,1,2
184,88,26531,6,0,B|144:88|104:128,1,85,2|0
48,176,26925,1,4
464,176,27320,1,2
256,48,27715,6,0,B|256:136,1,85,2|0
184,168,28110,2,0,B|208:200|256:232|304:200|328:168|328:168|328:160,1,170,4|2
256,48,28899,5,2
256,336,29294,1,0
136,144,29689,6,0,B|152:136|176:120|200:136|216:144|216:144|216:152,1,85,2|0
296,240,30084,2,0,B|280:248|256:264|232:248|216:240|216:240|216:232,1,85,2|0
296,144,30478,2,0,B|312:136|336:120|360:136|376:144|376:144|376:152,1,85,2|0
456,240,30873,2,0,B|440:248|416:264|392:248|376:240|376:240|376:232,1,85
208,144,31465,5,0
128,120,31662,1,0
96,200,31860,1,0
176,224,32057,2,0,B|176:272|248:296,1,85,0|0
336,216,32452,2,0,B|248:216,1,85,0|0
365,287,32847,2,0,B|413:263|413:215,1,85,0|0
376,144,33241,2,0,B|352:104|376:64|376:64|376:48,1,85,0|0
448,104,33636,1,0
448,192,33834,5,0
368,232,34031,1,0
296,184,34228,1,0
208,184,34426,2,0,B|112:192|80:288,1,170,4|0
56,104,35215,5,0
56,192,35413,1,0
136,232,35610,1,0
208,184,35807,1,0
296,184,36005,2,0,B|392:192|424:288,1,170,4|0
416,368,36597,1,0
336,320,36794,2,0,B|256:272|256:368|176:320,1,170,0|0
32,136,37781,5,0
120,136,37978,2,0,B|120:184|80:208,1,85,0|0
8,248,38373,2,0,B|56:328,1,85,0|0
128,280,38768,2,0,B|176:360,1,85,0|0
240,296,39162,2,0,B|280:328,1,42.5
360,328,39459,1,0
360,328,39557,2,0,B|360:281|312:244,1,85,0|0
256,208,39952,1,0
256,120,40149,1,0
256,32,40347,1,0
384,120,40741,6,0,B|392:168|448:176,1,85,0|0
456,104,41136,2,0,B|432:192|336:216,1,170,0|0
256,256,41728,1,0
176,280,41926,2,0,B|176:328|224:360,1,85,0|0
298,352,42320,2,0,B|336:328|336:280,1,85,4|0
256,256,42715,1,0
256,168,42912,1,0
184,120,43110,2,0,B|200:88|256:80|256:80|312:88|328:120|328:120|328:128,1,170,0|0
464,144,43899,5,4
464,240,44294,1,0
376,112,44689,5,0
376,272,45084,1,0
288,80,45478,5,4
288,304,45873,1,0
184,120,46268,6,0,B|152:135|144:192|144:192|152:248|184:264|184:264|192:264,1,170
184,296,46761,5,2
280,240,47057,2,0,B|312:160,1,85,4|0
384,224,47452,2,0,B|400:128,1,85
480,176,47847,1,2
480,176,48044,2,0,B|480:88,1,85,2|0
400,56,48439,5,0
296,56,48636,1,2
400,56,48834,1,0
326,129,49031,1,2
400,56,49228,1,0
400,160,49426,1,2
400,56,49623,1,2
160,88,50215,6,0,B|120:64|80:88|80:88|64:88,1,85,2|0
120,232,50610,2,0,B|120:144,1,85,2|0
80,291,51005,2,0,B|120:315|160:291|160:291|176:291,1,85
200,192,51399,1,2
312,192,51597,1,2
344,296,51794,6,0,B|361:253|417:245,1,85
417,325,52189,1,2
168,264,52584,6,0,B|150:221|94:213,1,85
95,293,52979,1,2
376,232,53373,6,0,B|393:189|449:181,1,85
449,261,53768,1,2
136,200,54162,6,0,B|118:157|62:149,1,85
63,229,54557,1,2
408,168,54952,6,0,B|425:125|481:117,1,85
481,197,55347,1,2
104,136,55741,6,0,B|86:93|30:85,1,85
31,165,56136,1,2
256,192,56531,5,4
233,119,56728,2,0,B|278:106|311:140|311:140|326:144,1,85
331,220,57123,2,0,B|375:240,1,42.5
264,258,57419,2,0,B|259:300,1,42.5
193,242,57715,2,0,B|153:237|97:247|86:304|92:343|92:343|97:349,1,170
178,328,58307,2,0,B|184:376,1,42.5
259,300,58603,2,0,B|296:336,1,42.5
376,352,58899,2,0,B|388:307|355:274|355:274|351:259,1,85
352,192,59294,5,4
160,192,59491,1,0
256,192,59689,5,4
304,120,59886,1,0
208,120,60084,2,0,B|152:112|136:64,1,85,2|0
212,39,60479,2,0,B|300:39,1,85,2|0
371,72,60873,1,2
304,120,61070,1,0
256,192,61268,2,0,B|256:280,1,85,2|0
72,360,61860,5,2
40,280,62058,1,0
72,208,62255,2,0,B|118:206|141:165,1,85,0|2
72,136,62650,2,0,B|104:72|200:80|216:160,1,170,2|0
208,136,63241,1,2
440,136,63636,6,0,B|408:72|312:80|296:160,1,170,4|0
373,165,64228,2,0,B|395:205|441:207,1,85,2|0
440,136,64623,5,0
440,248,64820,1,2
136,264,65215,2,0,B|104:248|80:192|104:136|136:120|136:120|144:120,1,170,4|2
216,120,65807,5,0
184,192,66005,1,2
216,264,66202,1,0
296,264,66399,2,0,B|384:264,1,85,2|0
384,184,66794,2,0,B|430:186|453:227,1,85,4|0
448,304,67189,1,2
216,264,67584,6,0,B|128:264,1,85,2|0
128,184,67979,2,0,B|82:186|59:227,1,85,4|0
64,304,68374,1,2
256,336,68768,6,0,B|256:248,1,85,2|0
184,216,69163,2,0,B|208:184|256:152|304:184|328:216|328:216|328:224,1,170,4|2
256,336,69952,5,2
256,48,70347,1,0
104,184,70741,6,0,B|88:232|120:272,1,85,2|0
208,208,71136,2,0,B|224:160|192:120,1,85,2|0
304,184,71531,2,0,B|288:232|320:272,1,85,2|0
408,208,71926,2,0,B|424:160|392:120,1,85
