osu file format v8

[General]
AudioFilename: BED INTRUDER SONG!!!.mp3
AudioLeadIn: 0
PreviewTime: -1
Countdown: 1
SampleSet: Soft
StackLeniency: 0.7
Mode: 0
LetterboxInBreaks: 1

[Editor]
DistanceSpacing: 1
BeatDivisor: 4
GridSize: 8

[Metadata]
Title:Bed Intruder Song
Artist:The Gregory Brothers vs. Antoine Dodson
Creator:Decay
Version:Easy
Source:
Tags:Bed intruder song antoine dodson gregory brothers glass rapidlslayer

[Difficulty]
HPDrainRate:2
CircleSize:3
OverallDifficulty:2
ApproachRate:2
SliderMultiplier:1.3
SliderTickRate:1

[Events]
//Background and Video events
0,0,"Antoine-Dodson-300x231.jpg"
//Break Periods
//Storyboard Layer 0 (Background)
//Storyboard Layer 1 (Fail)
//Storyboard Layer 2 (Pass)
//Storyboard Layer 3 (Foreground)
//Storyboard Sound Samples
//Background Colour Transformations
3,100,163,162,255

[TimingPoints]
6005,394.736842105263,4,2,0,100,1,0

[Colours]
Combo1 : 244,0,0
Combo2 : 5,240,5

[HitObjects]
80,288,6005,2,0,B|232:288,1,130
336,288,6794,1,0
336,32,7583,2,0,B|184:32,1,130
200,160,8373,2,0,B|352:160,1,130
328,288,9162,5,0
328,32,9952,1,0
112,128,10741,2,0,B|176:88|240:128,1,130
296,240,11531,2,0,B|232:272|144:224,1,130
192,112,12320,5,0
320,112,12715,1,0
320,240,13110,1,0
192,240,13504,1,0
192,112,13899,6,0,B|272:112,2,65
192,240,14689,2,0,B|272:240,2,65
256,192,15478,12,0,18241
144,96,18636,5,0
272,96,19031,1,0
400,96,19426,1,0
400,224,19820,2,0,B|400:376,1,130
272,320,20610,2,0,B|112:320,1,130
104,192,21399,2,0,B|256:192,1,130
368,192,22189,5,0
368,64,22583,2,0,B|160:64,1,195
120,256,23768,1,0
248,256,24162,2,0,B|408:256,1,130
392,128,24952,5,0
296,216,25347,2,0,B|192:320,1,130
80,80,26531,1,0
184,160,26926,2,0,B|304:256,1,130
400,176,27715,1,0
400,304,28110,1,0
400,176,28504,1,0
400,48,28899,1,0
128,40,29689,1,0
128,296,30478,1,0
112,96,31268,6,0,B|248:96,1,130
376,96,32057,1,0
376,96,32452,2,0,B|376:240,1,130
376,360,33241,1,0
248,360,33636,1,0
120,360,34031,2,0,B|120:216,1,130
240,56,35215,5,0
240,192,35610,1,0
368,192,36004,1,0
160,80,37978,5,0
288,80,38373,1,0
416,80,38768,1,0
416,208,39162,2,0,B|280:208,1,130
152,208,39952,1,0
152,208,40347,1,0
256,192,40741,12,0,43504
192,176,43899,5,0
320,176,44294,1,0
192,176,44689,2,0,B|336:176,1,130
320,312,45478,2,0,B|320:168,1,130
320,184,46268,1,0
96,72,47057,6,0,B|256:72,1,130
352,72,47847,1,0
352,72,48241,1,0
352,208,48636,2,0,B|208:208,1,130
88,208,49426,1,0
88,208,49820,1,0
168,104,50215,5,0
296,104,50610,1,0
424,104,51004,1,0
224,272,51794,6,0,B|224:128,1,130
224,272,52583,2,0,B|384:272,1,130
416,160,53373,1,0
288,160,53768,1,0
160,160,54162,1,0
32,160,54557,1,0
112,56,54952,6,0,B|112:208,1,130
112,56,55741,2,0,B|264:56,1,130
256,192,56531,12,0,59294
144,96,59689,5,0
272,96,60084,1,0
400,96,60479,1,0
400,224,60873,2,0,B|400:376,1,130
272,320,61663,2,0,B|112:320,1,130
104,192,62452,2,0,B|256:192,1,130
368,192,63242,5,0
368,64,63636,2,0,B|160:64,1,195
120,256,64821,1,0
248,256,65215,2,0,B|408:256,1,130
392,128,66005,5,0
296,216,66400,2,0,B|192:320,1,130
80,80,67584,1,0
184,160,67979,2,0,B|304:256,1,130
312,112,68768,5,0
312,240,69162,1,0
312,112,69557,1,0
184,112,69952,5,0
184,240,70347,1,0
312,240,70741,1,0
312,112,71136,1,0
184,240,71531,1,0
184,112,71926,1,0
