osu file format v12

[General]
AudioFilename: iTunes Version - Bed Intruder Song (Edit Version).mp3
AudioLeadIn: 1500
PreviewTime: 38
Countdown: 0
SampleSet: Normal
StackLeniency: 0.7
Mode: 0
LetterboxInBreaks: 0

[Editor]
DistanceSpacing: 1
BeatDivisor: 4
GridSize: 32

[Metadata]
Title:Bed Intruder Song
TitleUnicode:Bed Intruder Song
Artist:The Gregory Brothers
ArtistUnicode:The Gregory Brothers
Creator:DarknessAngel
Version:Hard
Source:Official Bed Intruder Tribute Album (Remixes)
Tags:iTunes Antoine Dodson
BeatmapID:256615
BeatmapSetID:95579

[Difficulty]
HPDrainRate:5
CircleSize:4
OverallDifficulty:6
ApproachRate:7
SliderMultiplier:1.6
SliderTickRate:1

[Events]
//Background and Video events
Video,88,"iTunes Version - Bed Intruder Song.avi"
0,0,"wwwww.jpg",0,0
//Break Periods
//Storyboard Layer 0 (Background)
//Storyboard Layer 1 (Fail)
//Storyboard Layer 2 (Pass)
//Storyboard Layer 3 (Foreground)
//Storyboard Sound Samples
//Background Colour Transformations
3,100,163,162,255

[TimingPoints]
433,394.736842105263,4,1,0,40,1,0

[Colours]
Combo1 : 255,192,0
Combo2 : 183,91,0
Combo3 : 18,124,255
Combo4 : 242,24,57

[HitObjects]
401,114,433,2,0,P|359:102|314:103,1,80
252,138,827,1,0,0:0:0:0:
181,177,1025,1,0,0:0:0:0:
184,97,1222,1,0,0:0:0:0:
252,138,1419,2,0,P|270:216|243:293,1,160
221,322,1913,5,0,0:0:0:0:
221,322,2011,2,0,L|141:323,2,80
299,338,2604,1,0,0:0:0:0:
369,300,2801,1,0,0:0:0:0:
432,348,2998,2,0,P|454:269|444:190,1,160
293,200,3590,6,0,P|329:217|374:220,1,80
348,119,3985,2,0,P|312:102|267:99,1,80
184,145,4380,1,0,0:0:0:0:
104,134,4577,1,0,0:0:0:0:
115,54,4775,1,0,0:0:0:0:
193,66,4972,1,0,0:0:0:0:
104,134,5169,6,0,L|38:197,1,80
184,145,5564,1,0,0:0:0:0:
297,340,5959,2,0,L|363:277,1,80
217,329,6354,1,0,0:0:0:0:
377,120,6748,6,0,L|460:128,1,80
297,113,7143,1,0,0:0:0:0:
297,113,7538,2,0,L|305:30,1,80
288,192,7932,1,0,0:0:0:0:
288,192,8327,6,0,L|205:184,1,80,0|0,0:0|0:0,0:0:0:0:
367,200,8722,1,0,0:0:0:0:
367,200,9117,2,0,L|359:283,1,80,0|0,0:0|0:0,0:0:0:0:
377,120,9511,1,0,0:0:0:0:
87,285,10104,6,0,P|50:306|9:312,2,80
124,214,10696,2,0,P|130:169|123:124,1,80
61,87,11090,1,0,0:0:0:0:
135,56,11288,1,0,0:0:0:0:
135,56,11386,2,0,P|193:47|269:61,1,120
288,75,11781,2,0,P|363:88|410:78,1,120
475,40,12275,5,0,0:0:0:0:
369,159,12472,1,0,0:0:0:0:
497,253,12669,1,0,0:0:0:0:
249,342,13064,6,0,P|196:338|166:326,1,80
98,294,13459,1,0,0:0:0:0:
163,248,13656,1,0,0:0:0:0:
90,214,13854,2,0,P|72:133|90:59,1,160
169,66,14446,1,0,0:0:0:0:
150,143,14643,6,0,P|71:141|-11:96,1,160
90,59,15235,1,0,0:0:0:0:
150,143,15432,1,0,0:0:0:0:
78,219,15630,1,0,0:0:0:0:
137,304,15827,1,0,0:0:0:0:
64,379,16025,1,0,0:0:0:0:
365,342,16419,5,0,0:0:0:0:
301,292,16617,2,0,P|289:340|290:380,1,80
374,263,17011,2,0,P|317:200|244:178,1,160
374,263,17604,2,0,P|419:264|456:250,1,80
412,182,17998,5,0,0:0:0:0:
374,99,18196,2,0,P|419:98|456:112,1,80
334,167,18590,2,0,P|273:110|243:30,1,160
374,99,19182,5,0,0:0:0:0:
482,206,19380,1,0,0:0:0:0:
334,167,19577,1,0,0:0:0:0:
481,128,19775,1,0,0:0:0:0:
334,167,19972,2,0,P|286:177|250:168,1,80
257,90,20367,1,0,0:0:0:0:
412,170,20564,1,0,0:0:0:0:
194,311,20959,6,0,L|108:299,1,80
133,221,21354,2,0,L|212:232,1,80
39,286,21748,1,0,0:0:0:0:
133,100,22143,6,0,L|83:26,1,80
226,90,22538,2,0,L|176:16,1,80
41,108,22932,1,0,0:0:0:0:
179,299,23327,2,0,P|261:316|336:298,1,160
142,182,24117,6,0,P|173:211|216:224,1,80
370,123,24511,2,0,P|339:94|296:81,1,80
129,201,24906,2,0,P|160:230|203:243,1,80
370,123,25301,1,0,0:0:0:0:
