osu file format v12

[General]
AudioFilename: iTunes Version - Bed Intruder Song (Edit Version).mp3
AudioLeadIn: 1500
PreviewTime: 38
Countdown: 0
SampleSet: Normal
StackLeniency: 0.7
Mode: 0
LetterboxInBreaks: 0

[Editor]
DistanceSpacing: 1.2
BeatDivisor: 4
GridSize: 32

[Metadata]
Title:Bed Intruder Song
TitleUnicode:Bed Intruder Song
Artist:The Gregory Brothers
ArtistUnicode:The Gregory Brothers
Creator:DarknessAngel
Version:D.N.Angel
Source:Official Bed Intruder Tribute Album (Remixes)
Tags:iTunes Antoine Dodson
BeatmapID:256614
BeatmapSetID:95579

[Difficulty]
HPDrainRate:7
CircleSize:4
OverallDifficulty:7
ApproachRate:8
SliderMultiplier:1.9
SliderTickRate:1

[Events]
//Background and Video events
Video,88,"iTunes Version - Bed Intruder Song.avi"
0,0,"wwwww.jpg",0,0
//Break Periods
//Storyboard Layer 0 (Background)
//Storyboard Layer 1 (Fail)
//Storyboard Layer 2 (Pass)
//Storyboard Layer 3 (Foreground)
//Storyboard Sound Samples
//Background Colour Transformations
3,100,163,162,255

[TimingPoints]
433,394.736842105263,4,1,0,40,1,0

[Colours]
Combo1 : 255,192,0
Combo2 : 183,91,0
Combo3 : 18,124,255
Combo4 : 242,24,57

[HitObjects]
259,97,433,2,0,P|208:93|155:102,1,95
85,151,827,1,0,0:0:0:0:
89,246,1025,1,0,0:0:0:0:
162,306,1222,1,0,0:0:0:0:
255,290,1419,2,0,P|304:288|356:295,1,95
448,219,1814,5,0,0:0:0:0:
448,219,1913,1,0,0:0:0:0:
448,219,2011,2,0,P|454:160|446:121,1,95
356,60,2406,2,0,P|350:119|358:158,1,95
261,100,2801,1,0,0:0:0:0:
448,35,2998,1,0,0:0:0:0:
105,299,3590,5,0,0:0:0:0:
63,213,3788,1,0,0:0:0:0:
87,121,3985,1,0,0:0:0:0:
174,85,4182,2,0,P|235:78|277:92,1,95
63,213,4577,1,0,0:0:0:0:
236,165,4775,1,0,0:0:0:0:
87,121,4972,1,0,0:0:0:0:
203,253,5169,6,0,P|256:270|347:266,1,142.5
408,234,5564,2,0,L|384:335,1,95
203,253,5959,2,0,P|190:169|203:106,1,142.5
262,71,6354,2,0,L|164:43,1,95
359,158,6748,6,0,L|459:126,1,95
421,237,7143,2,0,L|523:246,1,95
203,253,7538,2,0,L|103:285,1,95
141,174,7933,2,0,L|39:165,1,95
236,35,8327,6,0,P|266:92|262:178,1,142.5
235,238,8722,2,0,L|332:210,1,95
472,149,9117,2,0,P|442:206|446:292,1,142.5
473,352,9512,2,0,L|376:324,1,95
235,238,9906,5,0,0:0:0:0:
147,199,10104,2,0,L|129:305,1,95
52,239,10498,1,0,0:0:0:0:
70,145,10696,1,0,0:0:0:0:
70,145,10794,1,0,0:0:0:0:
70,145,10893,1,0,0:0:0:0:
147,199,11090,1,0,0:0:0:0:
156,104,11288,5,0,0:0:0:0:
156,104,11386,1,0,0:0:0:0:
156,104,11485,2,0,P|208:92|261:98,1,95
291,116,11781,2,0,P|360:118|436:100,1,142.5
466,134,12176,1,0,0:0:0:0:
466,134,12275,2,0,L|453:239,1,95
224,333,12669,1,0,0:0:0:0:
224,333,13064,6,0,L|128:325,1,95
84,241,13459,1,0,0:0:0:0:
143,166,13656,1,0,0:0:0:0:
238,169,13854,2,0,P|272:251|215:338,1,190
84,241,14446,1,0,0:0:0:0:
143,166,14643,6,0,P|122:79|25:42,1,190
84,241,15235,1,0,0:0:0:0:
238,169,15432,2,0,L|276:266,1,95
84,241,15827,1,0,0:0:0:0:
170,357,16025,1,0,0:0:0:0:
460,84,16419,5,0,0:0:0:0:
381,130,16617,2,0,L|477:181,1,95
306,177,17011,2,0,L|474:266,1,190
324,342,17604,1,0,0:0:0:0:
52,84,17998,5,0,0:0:0:0:
131,130,18196,2,0,L|35:181,1,95
206,177,18590,2,0,L|38:266,1,190
188,342,19182,1,0,0:0:0:0:
249,269,19380,6,0,P|305:260|345:263,1,95
418,320,19775,2,0,P|428:258|428:222,1,95
273,126,20169,2,0,P|316:163|361:180,1,95
76,221,20564,1,0,0:0:0:0:
76,221,20959,6,0,L|45:116,1,95
162,284,21354,2,0,L|76:333,1,95
285,198,21748,1,0,0:0:0:0:
285,198,22143,6,0,L|363:257,1,95
220,116,22538,2,0,L|174:199,1,95
397,155,22932,1,0,0:0:0:0:
130,314,23327,2,0,P|70:225|54:145,1,190
410,282,24117,6,0,L|302:297,1,95
315,88,24511,2,0,L|410:102,1,95
256,192,24906,1,0,0:0:0:0:
115,111,25104,1,0,0:0:0:0:
115,273,25301,1,0,0:0:0:0:
431,338,25696,6,0,P|446:275|443:235,1,95
367,190,26090,1,0,0:0:0:0:
454,151,26288,1,0,0:0:0:0:
380,90,26485,1,0,0:0:0:0:
294,131,26682,2,0,P|246:131|192:120,1,95
119,70,27077,5,0,0:0:0:0:
119,70,27176,1,0,0:0:0:0:
119,70,27275,2,0,P|99:124|99:170,1,95
136,247,27669,1,0,0:0:0:0:
68,314,27867,1,0,0:0:0:0:
136,247,28064,2,0,P|190:239|234:238,1,95
326,343,28459,5,0,0:0:0:0:
430,246,28656,1,0,0:0:0:0:
381,111,28854,2,0,P|314:52|215:68,1,190
47,291,29643,6,0,L|142:297,1,95
151,202,30038,2,0,L|56:196,1,95
220,262,30432,2,0,P|258:169|206:88,1,190
81,49,31025,2,0,P|98:98|151:116,1,95
306,72,31419,2,0,P|250:76|212:102,1,95
350,160,31814,5,0,0:0:0:0:
350,160,31913,1,0,0:0:0:0:
350,160,32011,2,0,L|441:133,1,95
288,288,32406,2,0,L|379:315,1,95
236,186,32801,1,0,0:0:0:0:
119,335,32998,1,0,0:0:0:0:
49,157,33196,1,0,0:0:0:0:
216,291,33393,1,0,0:0:0:0:
44,262,33590,5,0,0:0:0:0:
216,291,33788,1,0,0:0:0:0:
155,107,33985,1,0,0:0:0:0:
155,107,34380,2,0,P|62:68|-23:111,1,190
350,209,35169,5,0,0:0:0:0:
427,153,35367,2,0,P|440:96|438:41,1,95
352,23,35761,2,0,P|339:80|341:135,1,95
350,209,36156,1,0,0:0:0:0:
418,274,36354,2,0,L|522:268,1,95
324,304,36748,6,0,L|220:310,1,95,0|0,0:0|0:0,0:0:0:0:
192,318,37044,1,0,0:0:0:0:
155,329,37143,2,0,P|108:317|65:276,1,95
76,108,37538,2,0,P|123:120|166:161,1,95
256,260,37932,2,0,L|256:147,1,95
386,133,38327,5,0,0:0:0:0:
126,251,38722,1,0,0:0:0:0:
248,345,38919,1,0,0:0:0:0:
397,299,39117,5,0,0:0:0:0:
115,85,39511,1,0,0:0:0:0:
340,46,39709,1,0,0:0:0:0:
510,192,39906,5,0,0:0:0:0:
2,192,40301,1,0,0:0:0:0:
256,192,40498,1,0,0:0:0:0:
256,192,40696,2,0,B|246:207|246:207|277:231|277:231|244:248|244:248|260:284|257:343,1,190
377,316,41288,5,0,0:0:0:0:
377,316,41386,1,0,0:0:0:0:
377,316,41485,2,0,P|430:303|478:307,1,95
135,256,41880,2,0,P|82:269|34:265,1,95
81,159,42275,1,0,0:0:0:0:
194,148,42472,2,0,P|252:233|238:321,1,190
204,384,42965,5,0,0:0:0:0:
204,384,43064,2,0,L|308:363,1,95
456,214,43459,2,0,L|362:232,1,95
292,142,43854,1,0,0:0:0:0:
451,31,44051,1,0,0:0:0:0:
79,298,44643,5,0,0:0:0:0:
19,224,44840,1,0,0:0:0:0:
80,151,45038,1,0,0:0:0:0:
28,71,45235,1,0,0:0:0:0:
80,151,45432,2,0,P|132:157|174:142,1,95
271,35,45827,2,0,P|257:91|260:128,1,95
358,194,46222,5,0,0:0:0:0:
148,51,46518,1,0,0:0:0:0:
148,51,46617,1,0,0:0:0:0:
457,142,47011,5,0,0:0:0:0:
230,265,47307,1,0,0:0:0:0:
230,265,47406,2,0,P|186:286|134:294,1,95
58,198,47801,5,0,0:0:0:0:
335,286,48098,1,0,0:0:0:0:
335,286,48196,1,0,0:0:0:0:
41,115,48590,5,0,0:0:0:0:
318,203,48887,1,0,0:0:0:0:
318,203,48985,1,0,0:0:0:0:
76,333,49380,5,0,0:0:0:0:
280,126,49677,1,0,0:0:0:0:
280,126,49775,1,0,0:0:0:0:
3,379,50169,5,0,0:0:0:0:
207,172,50466,1,0,0:0:0:0:
207,172,50564,1,0,0:0:0:0:
352,248,50761,1,0,0:0:0:0:
225,338,50959,6,0,P|174:341|123:337,1,95
59,273,51354,1,0,0:0:0:0:
113,195,51551,1,0,0:0:0:0:
113,195,51650,1,0,0:0:0:0:
113,195,51748,1,0,0:0:0:0:
17,190,51946,1,0,0:0:0:0:
69,111,52143,2,0,P|112:91|175:87,1,95
197,113,52439,2,0,L|253:106,1,47.5
327,60,52735,5,0,0:0:0:0:
327,60,52834,2,0,P|394:57|473:81,1,142.5
476,123,53229,1,0,0:0:0:0:
476,123,53327,2,0,P|473:172|455:214,1,95
256,330,53722,1,0,0:0:0:0:
256,330,54117,6,0,L|151:336,1,95
256,240,54511,2,0,L|361:246,1,95
166,249,54906,2,0,P|87:196|47:112,1,190
105,36,55498,1,0,0:0:0:0:
161,112,55696,6,0,P|121:195|42:248,1,190
43,150,56288,2,0,P|94:170|124:215,1,95
256,312,56682,2,0,P|221:344|176:362,1,95
244,204,57077,2,0,P|294:200|346:216,1,95
425,303,57472,5,0,0:0:0:0:
459,214,57669,2,0,P|463:162|456:109,1,95
256,312,58064,2,0,P|360:342|426:300,1,190
256,312,58656,2,0,P|296:270|305:231,1,95
87,303,59051,5,0,0:0:0:0:
53,214,59248,2,0,P|49:162|56:109,1,95
256,312,59643,2,0,P|152:342|86:300,1,190
184,186,60235,1,0,0:0:0:0:
313,238,60432,6,0,P|342:284|351:334,1,95
184,186,60827,2,0,P|155:140|146:90,1,95
270,44,61222,1,0,0:0:0:0:
427,110,61419,1,0,0:0:0:0:
184,186,61617,1,0,0:0:0:0:
184,186,62011,5,0,0:0:0:0:
286,286,62209,1,0,0:0:0:0:
398,198,62406,2,0,P|423:150|428:109,1,95
172,46,62801,1,0,0:0:0:0:
426,338,63196,6,0,L|454:241,1,95
286,286,63590,2,0,L|314:189,1,95
76,327,63985,1,0,0:0:0:0:
354,108,64380,2,0,L|461:118,1,95
158,108,64775,2,0,L|51:118,1,95
330,200,65169,6,0,L|357:97,1,95
182,200,65564,2,0,L|155:97,1,95
341,299,65959,2,0,L|427:237,1,95
171,299,66354,2,0,L|85:237,1,95
67,117,66748,5,0,0:0:0:0:
150,70,66946,1,0,0:0:0:0:
233,115,67143,2,0,P|338:127|416:89,1,190
295,324,67932,2,0,P|221:318|154:331,1,142.5
107,336,68327,2,0,P|88:285|78:237,1,95
68,150,68722,5,0,0:0:0:0:
133,81,68919,1,0,0:0:0:0:
219,121,69117,2,0,P|229:180|221:229,1,95
194,304,69511,1,0,0:0:0:0:
288,288,69709,2,0,P|337:285|383:287,1,95
444,214,70104,5,0,0:0:0:0:
375,148,70301,1,0,0:0:0:0:
452,93,70498,1,0,0:0:0:0:
375,148,70696,2,0,P|325:151|279:139,1,95
201,89,71090,1,0,0:0:0:0:
140,162,71288,1,0,0:0:0:0:
59,112,71485,5,0,0:0:0:0:
143,297,71880,1,0,0:0:0:0:
453,112,72275,1,0,0:0:0:0:
369,297,72670,1,0,0:0:0:0:
256,131,73064,6,0,L|256:227,1,95
187,291,73459,1,0,0:0:0:0:
106,240,73656,2,0,P|56:236|10:241,1,95
24,146,74051,1,0,0:0:0:0:
89,77,74248,1,0,0:0:0:0:
345,179,74643,6,0,P|309:95|226:50,1,190
228,145,75235,2,0,P|280:124|319:89,1,95
381,37,75630,2,0,P|415:73|436:125,1,95
454,207,76025,5,0,0:0:0:0:
454,207,76123,1,0,0:0:0:0:
454,207,76222,1,0,0:0:0:0:
395,281,76419,1,0,0:0:0:0:
307,318,76617,2,0,P|203:296|120:309,1,190
68,229,77209,2,0,P|125:229|168:211,1,95
223,144,77604,1,0,0:0:0:0:
283,71,77801,5,0,0:0:0:0:
193,41,77998,1,0,0:0:0:0:
133,115,78196,2,0,P|82:128|34:123,2,95
402,82,78985,1,0,0:0:0:0:
447,165,79182,2,0,P|454:223|446:262,1,95
366,309,79577,5,0,0:0:0:0:
366,309,79676,2,0,P|318:314|272:306,1,95
226,294,79972,2,0,P|174:283|130:286,1,95
49,331,80367,1,0,0:0:0:0:
49,331,80465,1,0,0:0:0:0:
150,131,80761,1,0,0:0:0:0:
210,57,80959,6,0,P|257:102|294:118,1,95
359,56,81354,1,0,0:0:0:0:
284,114,81551,2,0,P|279:171|289:222,1,95
341,284,81946,2,0,P|391:281|442:291,1,95
483,236,82242,1,0,0:0:0:0:
483,236,82340,2,0,P|490:185|486:142,1,95
284,114,82735,6,0,P|326:142|374:156,1,95
201,283,83130,1,0,0:0:0:0:
77,139,83327,1,0,0:0:0:0:
155,43,83525,2,0,P|201:129|163:214,1,190
120,262,84018,5,0,0:0:0:0:
120,262,84117,2,0,P|61:268|7:258,1,95
276,247,84511,2,0,P|335:241|389:251,1,95
233,146,84906,1,0,0:0:0:0:
120,262,85104,1,0,0:0:0:0:
436,66,85696,6,0,P|457:120|462:158,1,95
387,274,86090,2,0,P|441:295|479:300,1,95
343,169,86485,1,0,0:0:0:0:
238,327,86682,1,0,0:0:0:0:
154,155,86880,1,0,0:0:0:0:
310,262,87077,1,0,0:0:0:0:
138,345,87275,6,0,P|108:308|72:206,1,142.5
97,149,87669,2,0,L|2:187,1,95
197,230,88064,2,0,P|270:202|320:160,1,142.5
342,93,88459,2,0,P|368:147|401:183,1,95
474,295,88854,6,0,P|422:263|375:251,1,95
260,355,89248,2,0,P|310:349|358:329,1,95
81,250,89643,2,0,L|31:331,1,95
184,279,90038,2,0,L|234:198,1,95
70,99,90432,6,0,P|125:104|177:91,1,95
228,64,90729,1,0,0:0:0:0:
228,64,90827,2,0,P|286:58|323:62,1,95
475,230,91222,2,0,P|420:235|368:222,1,95
317,195,91519,1,0,0:0:0:0:
317,195,91617,2,0,P|259:189|222:193,1,95
92,249,92011,5,0,0:0:0:0:
125,338,92209,1,0,0:0:0:0:
217,360,92406,1,0,0:0:0:0:
295,306,92604,1,0,0:0:0:0:
295,306,92702,1,0,0:0:0:0:
295,306,92801,2,0,P|343:301|390:305,1,95
187,248,93196,2,0,P|139:253|92:249,1,95
58,216,93492,6,0,P|52:170|64:113,1,95
91,86,93788,2,0,P|138:82|186:87,1,95
270,129,94182,1,0,0:0:0:0:
270,129,94281,1,0,0:0:0:0:
270,129,94380,1,0,0:0:0:0:
396,69,94577,5,0,0:0:0:0:
500,253,94775,1,0,0:0:0:0:
165,337,95169,5,0,0:0:0:0:
214,255,95367,1,0,0:0:0:0:
127,216,95564,1,0,0:0:0:0:
179,136,95761,1,0,0:0:0:0:
103,77,95959,2,0,P|56:69|9:80,1,95
127,216,96354,1,0,0:0:0:0:
270,103,96551,1,0,0:0:0:0:
429,237,96748,6,0,P|320:252|248:219,1,190
350,155,97340,1,0,0:0:0:0:
441,344,97538,1,0,0:0:0:0:
385,151,97735,1,0,0:0:0:0:
246,304,97932,1,0,0:0:0:0:
79,226,98130,2,0,P|61:170|54:121,1,95
164,76,98525,5,0,0:0:0:0:
229,180,98722,2,0,P|187:221|146:249,1,95
275,87,99117,2,0,P|358:68|464:93,1,190
346,253,99709,1,0,0:0:0:0:
346,253,100104,5,0,0:0:0:0:
459,298,100301,2,0,P|466:248|457:200,1,95
252,169,100696,2,0,P|226:265|263:348,1,190
346,253,101288,1,0,0:0:0:0:
252,169,101485,6,0,P|203:168|143:179,1,95
346,253,101880,2,0,P|395:254|455:243,1,95
359,144,102275,1,0,0:0:0:0:
240,279,102472,1,0,0:0:0:0:
17,158,102669,1,0,0:0:0:0:
359,144,103064,5,0,0:0:0:0:
240,279,103261,1,0,0:0:0:0:
252,169,103459,1,0,0:0:0:0:
346,253,103656,1,0,0:0:0:0:
81,193,103854,1,0,0:0:0:0:
346,253,104248,6,0,P|341:309|330:354,1,95
252,169,104643,2,0,P|257:113|268:68,1,95
65,263,105038,1,0,0:0:0:0:
256,192,105432,12,0,107406,0:0:0:0:
