osu file format v6

[General]
AudioFilename: Auto-Tune the News #9 Nobel. health care. United Nations.mp3
AudioLeadIn: 0
PreviewTime: -1
Countdown: 1
SampleSet: Normal
StackLeniency: 0.7
Mode: 0
LetterboxInBreaks: 1

[Editor]
DistanceSpacing: 0.800000011920929
BeatDivisor: 4
GridSize: 8

[Metadata]
Title:Auto-Tune the News #9
Artist:The Gregory Brothers
Creator:greenpoint0
Version:Tun Tun Tun
Source:http://www.youtube.com/watch?v=LnoD3NUux3M
Tags:Auto Tune News Politics Health Care United Nations Venezuela Hugo Chavez That Prime Minister from Sweden President Barack Obama Keith Olbermann Katie Couric CBS MSNBC News Idiots

[Difficulty]
HPDrainRate:4
CircleSize:3
OverallDifficulty:5
SliderMultiplier:1.2
SliderTickRate:1

[Events]
//Background and Video events
Video,0,"AutoTune9.avi"
//Break Periods
//Storyboard Layer 0 (Background)
//Storyboard Layer 1 (Fail)
//Storyboard Layer 2 (Pass)
//Storyboard Layer 3 (Foreground)
//Storyboard Sound Samples
//Background Colour Transformations
3,100,163,162,255

[TimingPoints]
7135,370.37037037037,4,2,0,100,1,0
21949,-100,4,1,0,100,0,0
143281,740.740740740741,4,0,0,100,1,0
149500,267.857142857143,4,0,0,100,1,0
151709,263.157894736842,4,0,0,100,1,0

[HitObjects]
96,112,7135,1,0
469,329,8246,1,0
400,203,8616,1,0
158,86,10097,5,0
352,88,10838,1,0
312,280,11579,1,0
120,280,12320,1,0
272,160,13060,5,0
224,160,13246,1,0
344,240,13801,1,0
368,144,14172,1,0
368,144,14357,1,0
344,48,14727,1,0
296,72,14912,2,0,B|208:80|232:240|144:248|48:64,1,360
240,72,16764,5,0
280,264,17505,1,0
392,112,18246,1,0
200,152,18986,5,0
384,112,19727,1,0
448,296,20468,1,0
264,248,21209,1,0
416,128,21949,5,0
320,128,22320,1,0
272,128,22505,1,0
176,128,22875,1,0
192,224,23246,2,0,B|140:262|72:202|56:134|80:47|157:28|261:18|318:23|360:48|416:113,1,540
336,168,25283,5,0
384,168,25468,1,0
424,256,25838,1,0
424,352,26209,1,0
376,352,26394,1,0
280,352,26764,1,0
224,280,27135,1,0
240,232,27320,1,0
296,96,27875,1,0
392,88,28246,2,0,B|456:96|464:176,1,120
448,264,28986,1,0
448,168,29357,1,0
368,224,29727,5,0
328,256,29912,1,0
328,112,30468,2,0,B|256:40|184:40|160:88|160:88|160:88|160:88,1,180
136,112,31209,1,0
120,208,31579,2,0,B|208:208,1,60
224,208,31949,1,0
224,256,32134,2,0,B|320:232|280:168|400:176,1,180
504,32,33431,5,0
408,56,33801,2,0,B|280:96,1,120
304,136,34357,2,0,B|64:208,1,240
104,168,35283,2,0,B,1,120
192,128,35653,1,0
208,176,35838,2,0,B|248:304,1,120
344,192,36764,1,0
304,168,36949,2,0,B|368:104,2,60
400,168,37690,2,0,B|336:224,2,60
256,192,38246,12,0,39357
352,112,39727,5,0
352,112,39912,1,0
264,80,40283,2,0,B|200:56|144:56,1,120
48,48,41023,1,0
80,136,41394,5,0
128,136,41579,2,0,B|128:272,1,120
176,256,42134,6,0,B|176:128,1,120
224,120,42690,6,0,B|352:120,1,120
344,168,43246,1,0
344,72,43616,1,0
432,120,43986,1,0
432,216,44357,6,0,B|400:304|336:96,1,180
296,120,45097,1,0
224,184,45468,5,0
224,136,45653,1,0
128,136,46023,5,0
128,88,46209,1,0
32,88,46579,5,0
32,40,46764,1,0
32,88,46949,1,0
112,40,47320,5,0
160,40,47505,1,0
208,40,47690,2,0,B|304:24|328:80,2,120
208,88,48616,1,0
264,168,48986,1,0
296,208,49172,2,0,B|224:312,1,120
192,216,49912,6,0,B|248:120|344:88,1,180
368,96,50653,1,0
448,152,51023,1,0
464,248,51394,1,0
440,288,51579,1,0
352,176,52134,2,0,B|288:152|216:184,1,120
216,272,52875,2,0,B|264:288|296:272,1,60
320,256,53246,1,0
368,120,53801,1,0
184,64,54542,2,0,B|112:104|96:200|128:280,1,240
224,272,55653,1,0
320,280,56023,2,0,B|392:240|408:144|376:64,1,240
280,72,57134,1,0
224,152,57505,1,0
