osu file format v6

[General]
AudioFilename: Auto Tune Kanye and Kids__.mp3
AudioLeadIn: 0
PreviewTime: -1
Countdown: 1
SampleSet: Normal
StackLeniency: 0.7
Mode: 0
LetterboxInBreaks: 1

[Editor]
DistanceSpacing: 0.800000011920929
BeatDivisor: 4
GridSize: 32

[Metadata]
Title:Auto Tune Kanye and Kids
Artist:The Gregory Brothers
Creator:Bmxant
Version:Insane
Source:
Tags:Bmxant Kanye West The Gregory Brothers Auto Tune The News And Kids

[Difficulty]
HPDrainRate:8
CircleSize:4
OverallDifficulty:8
SliderMultiplier:1.6
SliderTickRate:4

[Events]
//Background and Video events
//Break Periods
2,15965,21921
//Storyboard Layer 0 (Background)
//Storyboard Layer 1 (Fail)
//Storyboard Layer 2 (Pass)
//Storyboard Layer 3 (Foreground)
//Storyboard Sound Samples
//Background Colour Transformations
3,100,163,162,255

[TimingPoints]
275,394.650389610392,4,1,0,100,1,0

[HitObjects]
288,64,11423,2,0,B|384:64,1,80
288,64,11818,2,0,B|288:160,2,80
288,64,12410,2,0,B|192:64,2,80
288,64,13002,2,0,B|288:160,2,80
32,256,13989,5,0
96,256,14186,1,0
96,192,14384,1,0
32,192,14581,1,0
32,128,14778,1,0
32,128,14976,1,0
32,128,15173,1,0
32,128,15370,2,0,B|96:64|64:64,1,80
96,128,15765,1,0
256,192,22671,5,0
32,32,23066,5,0
96,32,23264,1,0
96,96,23461,1,0
32,96,23658,1,0
32,160,23856,1,0
96,160,24053,1,0
128,160,24152,1,0
160,160,24250,1,0
160,224,24447,1,0
160,288,24644,1,0
128,288,24743,1,0
96,288,24842,1,0
96,224,25039,6,0,B|192:224,1,80
160,224,25631,1,0
224,160,26224,5,0
256,192,26322,1,0
288,224,26421,1,0
320,256,26618,2,0,B|256:288|224:224,1,80,0|0
213,313,27012,1,0
213,313,27111,1,0
213,312,27209,1,0
96,288,27407,1,0
32,224,27802,1,0
96,192,27999,1,0
96,160,28097,1,0
96,128,28196,1,0
64,64,28393,1,0
96,64,28492,1,0
128,64,28591,1,0
224,96,28788,1,0
224,160,28985,1,0
288,160,29183,1,0
288,96,29380,1,0
32,32,29775,5,0
32,32,30170,1,0
256,192,30564,12,0,31353
256,192,31748,5,0
256,192,32143,12,0,32932
256,192,35694,1,0
64,32,36089,1,0
64,128,36287,1,0
160,128,36484,1,0
256,128,36681,1,0
352,128,36879,1,0
352,128,37273,1,0
352,128,37668,1,0
480,352,38457,1,0
384,288,38852,1,0
256,224,39247,1,0
128,160,39641,6,0,B|192:64|256:96,1,200
128,224,40430,1,0
136,254,40529,1,0
159,277,40628,1,0
192,288,40726,1,0
219,297,40825,1,0
251,297,40923,1,0
282,291,41022,1,0
313,280,41121,1,0
335,258,41219,1,0
358,235,41318,1,0
381,212,41417,1,0
397,185,41515,1,0
414,158,41614,1,0
427,129,41713,1,0
427,97,41811,1,0
413,68,41910,1,0
390,45,42009,1,0
363,30,42107,1,0
331,23,42206,1,0
299,23,42305,1,0
267,23,42403,1,0
256,96,43193,5,0
256,96,43390,1,0
256,96,43489,1,0
256,96,43588,1,0
160,96,44377,1,0
172,125,44475,1,0
194,148,44573,1,0
223,162,44672,1,0
254,170,44771,1,0
320,224,45364,5,0
288,224,45462,1,0
256,224,45561,2,0,B|160:256|134:204|144:153,1,200
148,126,46745,1,0
192,160,46843,1,0
256,192,47435,12,0,47929
128,192,48718,1,0
153,180,48816,1,0
179,170,48915,1,0
206,161,49014,1,0
233,156,49112,1,0
261,156,49211,1,0
288,164,49310,1,0
311,179,49408,1,0
334,201,49507,2,0,B|384:258|424:146|415:109,1,160
352,128,50296,1,0
288,128,50494,1,0
224,128,50691,2,0,B|32:128|113:251,1,200
224,32,51678,5,0
288,160,52072,1,0
320,224,52270,1,0
352,288,52467,2,0,B|224:352|224:352|160:224,1,280
256,192,54046,12,0,54638
256,192,55032,1,0
256,192,55229,1,0
256,192,55426,1,0
256,192,55822,1,0
256,192,56216,1,0
256,192,56413,1,0
256,192,56610,1,0
256,192,57005,1,0
256,192,57203,12,0,58189
256,192,58584,1,0
256,192,58780,1,0
256,192,58979,1,0
256,192,59078,1,0
256,192,59176,2,0,B|192:224|128:256|160:256|256:288|256:288|320:256,1,240,0|0
352,224,59966,2,0,B|416:160|416:160,1,160
256,192,60755,1,0
256,192,60952,1,0
256,192,61347,12,0,64504
256,192,64899,5,0
160,192,65096,1,0
160,256,65490,1,0
224,256,65688,1,0
224,320,65885,1,0
256,160,66477,6,0,B|352:192|352:192|320:256,1,160
309,272,66971,1,0
287,295,67069,1,0
258,310,67168,1,0
228,320,67267,1,0
196,320,67365,1,0
164,320,67464,1,0
135,307,67563,1,0
107,292,67661,1,0
96,224,67907,5,0
118,201,68006,1,0
213,191,68302,1,0
244,200,68401,1,0
313,247,68697,1,0
337,240,68796,2,0,B|362:219|394:219|394:219|394:187|394:187|394:187,1,80
352,160,69634,5,0
160,160,69832,1,0
160,256,70029,1,0
352,256,70226,1,0
256,192,70424,1,0
256,192,70621,1,0
256,192,70818,1,0
256,192,71016,1,0
256,192,71114,1,0
256,192,71213,1,0
256,192,71410,1,0
256,192,71608,2,0,B|320:128|182:124|177:242|324:244,2,200
256,192,72792,5,0
288,128,72989,1,0
256,192,73186,1,0
320,224,73383,1,0
192,160,73581,1,0
224,256,73778,1,0
256,192,73975,1,0
256,192,74173,12,0,75653
256,32,76343,6,0,B|256:128,1,80
256,144,76639,1,0
256,176,76738,1,0
256,256,76935,1,0
256,320,77133,5,0
256,320,77330,1,0
256,320,77429,1,0
256,320,77527,1,0
256,320,77922,1,0
256,320,78119,1,0
256,96,78711,2,0,B|256:288,2,160
192,96,79698,1,0
192,96,79895,1,0
320,160,80093,1,0
256,128,80290,1,0
192,160,80487,5,0
224,192,80586,1,0
256,224,80685,1,0
256,224,81079,5,0
224,192,81276,1,0
192,160,81474,2,0,B|110:131|123:212|245:285|330:302|346:210|372:193,1,320
416,128,82460,1,0
416,128,82855,1,0
352,128,83052,1,0
384,192,83447,1,0
448,192,83842,2,0,B|224:192|160:128|96:192|96:256,1,400
160,256,85026,1,0
288,256,85223,1,0
416,256,85618,2,0,B|384:352|288:384|213:302|212:301,1,240
178,266,86407,5,0
133,221,86604,1,0
87,175,86802,1,0
64,128,86999,1,0
79,65,87196,1,0
137,38,87394,1,0
137,38,87591,1,0
137,38,87788,1,0
137,38,87986,1,0
203,43,88380,1,0
203,43,88479,1,0
203,43,88578,1,0
264,61,88775,6,0,B|309:88,1,40
320,96,88972,2,0,B|352:128,1,40
384,160,89170,1,0
256,192,89367,5,0
256,192,89465,1,0
256,192,89564,2,0,B|160:192,1,120
256,320,90057,1,0
256,320,90452,1,0
256,320,90649,1,0
256,320,90847,2,0,B|320:352,1,80
375,271,91241,5,0
405,214,91439,1,0
420,152,91636,1,0
420,88,91833,1,0
420,88,91932,1,0
420,88,92031,2,0,B|384:64|352:128,1,80
288,160,93017,6,0,B|256:192,2,40
224,224,93412,2,0,B|192:192,2,40
224,160,93807,2,0,B|192:128,2,40
288,224,94201,2,0,B|320:256,2,40
256,192,96175,5,0
224,224,96273,1,0
192,256,96372,1,0
256,256,96569,1,0
288,288,96668,1,0
320,320,96767,1,0
256,320,96964,1,0
224,320,97063,1,0
192,320,97161,1,0
128,320,97358,1,0
128,288,97457,1,0
128,256,97556,1,0
