osu file format v12

[General]
AudioFilename: braveheart(GOMBAND) Black Rock Shooter ED [HQ].mp3
AudioLeadIn: 0
PreviewTime: 98483
Countdown: 0
SampleSet: Normal
StackLeniency: 0.9
Mode: 0
LetterboxInBreaks: 1

[Editor]
Bookmarks: 25947
DistanceSpacing: 1
BeatDivisor: 4
GridSize: 4

[Metadata]
Title:Braveheart
TitleUnicode:Braveheart
Artist:The Gomband
ArtistUnicode:The Gomband
Creator:Arusha Shuna
Version:Insane
Source:Black Rock Shooter OVA
Tags:
BeatmapID:139347
BeatmapSetID:20028

[Difficulty]
HPDrainRate:8
CircleSize:4
OverallDifficulty:7
ApproachRate:9
SliderMultiplier:2
SliderTickRate:1

[Events]
//Background and Video events
0,0,"Yomi.jpg",0,0
//Break Periods
2,11228,20029
2,122842,128642
2,139644,148445
//Storyboard Layer 0 (Background)
//Storyboard Layer 1 (Fail)
//Storyboard Layer 2 (Pass)
//Storyboard Layer 3 (Foreground)
//Storyboard Sound Samples
//Background Colour Transformations
3,100,163,162,255

[TimingPoints]
1427,300.037504688086,4,1,1,70,1,0
26330,-100,4,1,1,5,0,0
28880,-100,4,1,1,70,0,0
39906,-100,4,1,1,30,0,0
42232,-100,4,2,0,100,0,0
43432,-100,4,1,1,30,0,0
44032,-100,4,1,1,50,0,0
44632,-100,4,1,1,70,0,1
63834,-100,4,1,1,70,0,0
84987,-200,4,2,0,100,0,0
93838,-200,4,2,0,30,0,0
96088,-200,4,2,0,100,0,0
97439,-100,4,1,1,30,0,0
98039,-100,4,1,1,50,0,0
98639,-100,4,1,1,70,0,1
120766,-100,4,2,0,100,0,1
120916,-100,4,1,1,70,0,1
121667,-100,4,2,0,100,0,1
121817,-100,4,1,1,70,0,1
122642,-100,4,1,1,70,0,0
168472,-100,4,2,0,70,0,0
177849,-100,4,2,0,30,0,0
180249,-100,4,2,0,100,0,0
185049,-100,4,1,1,70,0,1
225855,-100,4,1,1,70,0,0

[Colours]
Combo1 : 84,188,75
Combo2 : 183,244,55
Combo3 : 105,233,172

[HitObjects]
168,280,6227,2,0,B|88:176|184:88,1,200,0|8,0:0|0:0,0:0:0:0:
232,192,6677,1,0,0:0:0:0:
232,192,6827,1,0,0:0:0:0:
232,192,6977,1,0,0:0:0:0:
312,128,7127,2,0,B|416:112|400:272|288:224,1,200,8|0,0:0|0:0,0:0:0:0:
408,272,7577,1,0,0:0:0:0:
472,192,7727,1,8,0:0:0:0:
408,112,7877,1,0,0:0:0:0:
320,64,8027,2,0,B|232:56|112:152|192:336|360:312,1,400,0|12,0:0|0:0,0:0:0:0:
112,312,8927,5,8,0:0:0:0:
72,224,9077,1,0,0:0:0:0:
144,152,9227,1,0,0:0:0:0:
228,208,9377,1,0,0:0:0:0:
144,152,9528,2,0,L|64:88,2,100,8|0|0,0:0|0:0|0:0,0:0:0:0:
232,104,9978,1,8,0:0:0:0:
232,104,10053,1,0,0:0:0:0:
232,104,10128,1,0,0:0:0:0:
320,152,10278,1,0,0:0:0:0:
416,128,10428,2,0,L|408:80|344:48,2,100,8|0|8,0:0|0:0|0:0,0:0:0:0:
416,327,11028,5,4,0:0:0:0:
176,296,20629,6,0,B|112:256|112:152|184:112,1,200,0|8,0:0|0:0,0:0:0:0:
240,56,21079,1,0,0:0:0:0:
248,152,21229,2,0,B|328:64|440:136,1,200,0|8,0:0|0:0,0:0:0:0:
248,152,21829,2,0,B|160:232|56:152,1,200,0|8,0:0|0:0,0:0:0:0:
58,59,22279,1,0,0:0:0:0:
148,100,22429,2,0,B|196:204|140:300,2,200,0|8|0,0:0|0:0|0:0,0:0:0:0:
248,296,23329,6,0,B|344:264,1,100,8|0,0:0|0:0,0:0:0:0:
432,196,23629,2,0,B|344:148,1,100,8|0,0:0|0:0,0:0:0:0:
255,85,23929,2,0,B|232:40|184:8|116:12|47:77,2,200,8|0|8,0:0|0:0|0:0,0:0:0:0:
168,136,24679,1,0,0:0:0:0:
132,228,24829,1,0,0:0:0:0:
168,320,24979,1,0,0:0:0:0:
256,368,25129,1,8,0:0:0:0:
372,184,25430,6,4,B|388:144|492:88|543:175|563:262|500:328|393:320|372:248,1,400,0|0,0:0|0:0,0:0:0:0:
256,192,26330,12,0,28730,0:0:0:0:
192,48,29030,5,8,0:0:0:0:
192,48,29105,1,0,0:0:0:0:
192,48,29180,1,8,0:0:0:0:
104,88,29330,2,0,B|72:216,1,100
112,344,29630,2,0,B|144:224,1,100
224,192,29930,1,0,0:0:0:0:
371,57,30230,6,0,B|315:169|387:281,1,200,4|0,0:0|0:0,0:0:0:0:
196,350,30830,2,0,B|268:238|180:134,1,200
43,39,31430,5,0,0:0:0:0:
72,240,31730,1,0,0:0:0:0:
256,176,32030,1,0,0:0:0:0:
440,240,32330,1,0,0:0:0:0:
469,39,32630,1,0,0:0:0:0:
352,200,32930,6,0,B|288:328,1,100
207,289,33230,2,0,B|151:185,1,100
72,152,33531,1,0,0:0:0:0:
160,96,33681,2,0,B|88:8,2,100,0|8|8,0:0|0:0|0:0,0:0:0:0:
256,128,34131,1,0,0:0:0:0:
352,96,34281,2,0,B|424:8,2,100,0|8|8,0:0|0:0|0:0,0:0:0:0:
336,192,34731,5,0,0:0:0:0:
240,232,34881,1,0,0:0:0:0:
156,176,35031,2,0,B|140:296|4:280,1,200,4|0,0:0|0:0,0:0:0:0:
44,184,35481,2,0,B|68:56|212:72,2,200
256,256,36381,1,0,0:0:0:0:
352,232,36531,2,0,B|448:192,1,100,0|0,0:0|0:0,0:0:0:0:
352,152,36831,2,0,B|256:120,1,100
344,72,37131,2,0,B|448:40,1,100,0|0,0:0|0:0,0:0:0:0:
432,144,37431,6,0,B|442:209|368:256|323:236|280:200,1,200
256,112,37881,1,0,0:0:0:0:
80,144,38181,2,0,B|70:209|144:256|189:236|232:200,1,200
256,112,38631,1,0,0:0:0:0:
160,72,38781,2,0,B|256:32,1,100
344,72,39081,2,0,B|248:32,1,100
256,136,39381,2,0,B|256:248,2,100
256,128,39756,1,0,0:0:0:0:
256,120,39831,1,4,0:0:0:0:
256,192,39906,12,4,42232,0:0:0:0:
256,192,42832,5,4,0:0:0:0:
256,192,43432,5,0,0:0:0:0:
256,192,43582,1,0,0:0:0:0:
256,192,43732,1,0,0:0:0:0:
256,192,43882,1,0,0:0:0:0:
256,192,44032,1,0,0:0:0:0:
256,192,44182,1,0,0:0:0:0:
256,192,44332,1,0,0:0:0:0:
88,296,44632,6,2,B|40:224|64:144|144:88,1,200,2|10,0:0|0:0,0:0:0:0:
200,64,45082,1,0,0:0:0:0:
184,160,45232,1,2,0:0:0:0:
168,257,45382,2,2,B|224:344|338:343,1,200,2|0,0:0|0:0,0:0:0:0:
391,258,45832,2,2,B|276:258|220:171,1,200,2|8,0:0|0:0,0:0:0:0:
306,119,46282,2,2,B|342:177|417:163,2,100,0|2|0,0:0|0:0|0:0,0:0:0:0:
233,51,46732,1,10,0:0:0:0:
162,122,46882,1,0,0:0:0:0:
124,281,47032,6,0,B|85:335|37:334,2,100,2|0|8,0:0|0:0|0:0,0:0:0:0:
200,216,47482,2,2,B|301:164|412:217,2,200,2|0|2,0:0|0:0|0:0,0:0:0:0:
238,308,48232,1,2,0:0:0:0:
337,298,48382,2,0,B|346:182|237:94,1,200
176,72,48832,1,2,0:0:0:0:
96,136,48982,1,0,0:0:0:0:
176,200,49132,1,8,0:0:0:0:
360,128,49433,6,2,B|440:192|408:296|312:336|224:272,1,300
288,192,50033,1,0,0:0:0:0:
216,128,50183,1,0,0:0:0:0:
288,56,50333,1,2,0:0:0:0:
100,120,50633,6,2,B|-4:120,1,100,2|0,0:0|0:0,0:0:0:0:
80,200,50933,2,2,B|152:296,1,100,8|0,0:0|0:0,0:0:0:0:
160,180,51233,2,2,B|232:68,2,100,2|0|10,0:0|0:0|0:0,0:0:0:0:
416,32,51833,6,2,B|352:80|352:160|424:208,1,200,2|10,0:0|0:0,0:0:0:0:
97,182,52433,2,0,B|160:224|160:304|96:352,1,200,0|8,0:0|0:0,0:0:0:0:
414,350,53033,6,2,B|352:304|352:224|414:182,1,200,10|10,0:0|0:0,0:0:0:0:
97,201,53633,2,0,B|160:160|160:80|97:33,1,200,0|0,0:0|0:0,0:0:0:0:
256,152,54233,6,2,B|328:112|424:168|416:272,1,200,2|8,0:0|0:0,0:0:0:0:
312,232,54683,1,0,0:0:0:0:
240,304,54833,1,2,0:0:0:0:
184,216,54983,2,2,B|144:152|160:88|216:56|272:56,1,200,2|0,0:0|0:0,0:0:0:0:
256,152,55433,2,0,B|304:232|264:312|160:328,1,200,2|8,0:0|0:0,0:0:0:0:
104,304,55883,1,2,0:0:0:0:
56,216,56033,1,0,0:0:0:0:
80,120,56183,1,0,0:0:0:0:
176,80,56333,1,8,0:0:0:0:
440,176,56633,6,2,B|488:288,1,100
384,160,56933,2,0,B|344:56,1,100,8|0,0:0|0:0,0:0:0:0:
352,208,57233,2,2,B|400:320,1,100
296,184,57534,2,0,B|256:80,1,100,8|8,0:0|0:0,0:0:0:0:
264,232,57834,2,2,B|272:304|192:352|112:296,1,200,2|10,0:0|0:0,0:0:0:0:
24,280,58284,2,0,B|48:208|136:176|200:248,1,200
160,128,58734,1,8,0:0:0:0:
440,64,59034,6,2,B|496:128|480:216|392:264,1,200,2|10,0:0|0:0,0:0:0:0:
392,152,59484,1,0,0:0:0:0:
392,152,59634,2,0,B|352:232|296:256|216:232,1,200,0|8,0:0|0:0,0:0:0:0:
136,64,60234,5,2,0:0:0:0:
376,64,60534,1,8,0:0:0:0:
376,320,60834,1,2,0:0:0:0:
136,320,61134,1,8,0:0:0:0:
376,56,61434,6,2,B|424:139|306:190|306:190|360:291|497:272,1,400
256,312,62334,1,8,0:0:0:0:
16,273,62634,2,2,B|151:291|205:190|205:190|87:139|136:56,1,400,2|2,0:0|0:0,0:0:0:0:
256,344,63834,6,0,B|256:244,1,100,8|0,0:0|0:0,0:0:0:0:
80,152,64284,1,0,0:0:0:0:
160,96,64434,1,8,0:0:0:0:
256,72,64584,1,0,0:0:0:0:
352,96,64734,1,8,0:0:0:0:
432,152,64884,1,0,0:0:0:0:
352,216,65034,6,0,B|256:152|160:216,2,200,0|8|0,0:0|0:0|0:0,0:0:0:0:
256,40,65935,1,8,0:0:0:0:
208,232,66235,5,0,0:0:0:0:
304,232,66385,1,0,0:0:0:0:
256,320,66535,2,0,B|256:120,2,200,8|0|8,0:0|0:0|0:0,0:0:0:0:
152,152,67435,5,0,0:0:0:0:
80,224,67585,1,0,0:0:0:0:
176,248,67735,2,0,B|24:96,2,200,8|0|8,0:0|0:0|0:0,0:0:0:0:
360,152,68635,5,0,0:0:0:0:
432,224,68785,1,0,0:0:0:0:
336,248,68935,2,8,B|488:96,2,200,8|0|8,0:0|0:0|0:0,0:0:0:0:
208,96,69835,6,0,B|144:184,1,100
149,176,70135,1,8,0:0:0:0:
149,176,70435,1,0,0:0:0:0:
149,176,70735,1,8,0:0:0:0:
304,96,71035,6,0,B|368:184,1,100
362,176,71335,1,8,0:0:0:0:
362,176,71635,1,0,0:0:0:0:
362,176,71935,1,8,0:0:0:0:
256,344,72235,6,0,B|256:224,1,100
256,144,72535,1,8,0:0:0:0:
160,320,72835,1,0,0:0:0:0:
352,320,73135,1,8,0:0:0:0:
256,144,73436,6,0,B|256:24,2,100,0|0|8,0:0|0:0|0:0,0:0:0:0:
224,240,73886,1,0,0:0:0:0:
128,264,74036,1,8,0:0:0:0:
160,168,74186,1,8,0:0:0:0:
160,168,74261,1,0,0:0:0:0:
160,168,74336,1,8,0:0:0:0:
168,72,74486,1,8,0:0:0:0:
72,104,74636,6,0,B|32:224|136:304|176:288,1,200,0|8,0:0|0:0,0:0:0:0:
160,184,75086,2,0,B|224:288|336:272,1,200
400,208,75536,1,8,0:0:0:0:
408,112,75686,1,0,0:0:0:0:
288,40,75836,6,0,B|208:64|160:128|176:216,1,200,0|8,0:0|0:0,0:0:0:0:
264,144,76286,2,0,B|232:224|264:288|360:320,1,200
336,208,76736,1,8,0:0:0:0:
184,264,76886,1,0,0:0:0:0:
96,216,77036,6,0,B|120:104|256:64,1,200,0|8,0:0|0:0,0:0:0:0:
136,24,77486,2,0,B|144:168|248:224,1,200
304,160,77936,1,8,0:0:0:0:
384,216,78086,1,0,0:0:0:0:
384,312,78236,5,0,0:0:0:0:
384,312,78386,1,0,0:0:0:0:
384,216,78536,2,0,B|384:16,1,200,8|0,0:0|0:0,0:0:0:0:
304,72,78986,2,0,B|304:184,1,100,0|8,0:0|0:0,0:0:0:0:
296,272,79286,5,0,0:0:0:0:
296,272,79436,2,0,B|208:256|184:168|224:112,1,200,0|8,0:0|0:0,0:0:0:0:
288,184,79886,2,0,B|256:232|144:216|120:144,1,200
48,80,80336,1,8,0:0:0:0:
40,176,80486,1,0,0:0:0:0:
96,264,80636,5,0,0:0:0:0:
192,296,80786,1,0,0:0:0:0:
288,264,80936,2,0,B|368:176|304:56,1,200,8|0,0:0|0:0,0:0:0:0:
408,112,81386,2,0,B|432:184|408:264|336:336,1,200,0|8,0:0|0:0,0:0:0:0:
280,344,81837,5,0,0:0:0:0:
184,336,81987,1,0,0:0:0:0:
104,272,82137,2,0,B|56:168|136:72,2,200,8|0|8,0:0|0:0|0:0,0:0:0:0:
256,192,83037,12,4,84237,0:0:0:0:
72,192,85137,5,0,0:0:0:0:
160,136,85437,1,0,0:0:0:0:
160,248,85737,1,0,0:0:0:0:
256,80,86037,1,0,0:0:0:0:
256,296,86337,1,0,0:0:0:0:
352,120,86637,2,0,B|400:192|352:264,2,150
424,56,87837,5,2,0:0:0:0:
424,56,87987,1,2,0:0:0:0:
88,56,88437,5,2,0:0:0:0:
88,56,88587,1,2,0:0:0:0:
256,192,89037,6,0,B|256:304,1,100,4|0,0:0|0:0,0:0:0:0:
256,292,89488,1,0,0:0:0:0:
200,208,89788,1,0,0:0:0:0:
312,208,90088,1,0,0:0:0:0:
256,292,90388,1,0,0:0:0:0:
256,96,91138,6,0,B|256:24,2,50
256,192,91738,1,0,0:0:0:0:
256,192,91888,1,0,0:0:0:0:
208,280,92188,1,0,0:0:0:0:
304,280,92488,1,0,0:0:0:0:
256,192,92788,1,0,0:0:0:0:
208,104,93088,1,0,0:0:0:0:
304,104,93388,1,0,0:0:0:0:
256,192,93838,12,0,95938,0:0:0:0:
208,192,96238,5,4,0:0:0:0:
304,192,96838,1,4,0:0:0:0:
232,96,97439,6,0,B|152:176,1,100
280,288,97739,2,0,B|360:208,1,100
161,217,98039,2,0,B|232:288,1,100
350,166,98339,2,0,B|280:96,1,100
256,192,98639,6,2,B|208:296|96:304,1,200,2|10,0:0|0:0,0:0:0:0:
64,208,99089,1,2,0:0:0:0:
152,152,99239,2,2,B|200:72|336:80,1,200,2|10,0:0|0:0,0:0:0:0:
424,104,99689,1,0,0:0:0:0:
448,200,99839,6,2,B|352:384,1,200,2|10,0:0|0:0,0:0:0:0:
296,296,100289,2,2,B|400:96,1,200,2|2,0:0|0:0,0:0:0:0:
320,48,100739,1,8,0:0:0:0:
224,32,100889,1,0,0:0:0:0:
56,80,101039,6,0,B|80:208,1,100,2|0,0:0|0:0,0:0:0:0:
152,120,101339,2,0,B|176:248,1,100,8|2,0:0|0:0,0:0:0:0:
256,272,101639,1,0,0:0:0:0:
342,232,101789,2,2,B|320:168|208:172|170:220,1,200
72,224,102239,2,2,B|104:152|176:104|264:104,1,200,0|8,0:0|0:0,0:0:0:0:
328,112,102689,1,2,0:0:0:0:
432,280,102989,1,0,0:0:0:0:
432,184,103139,1,8,0:0:0:0:
184,40,103439,6,2,B|72:88|112:208,1,200,2|8,0:0|0:0,0:0:0:0:
184,136,103889,2,0,B|208:264|352:232,1,200,2|0,0:0|0:0,0:0:0:0:
280,144,104339,5,8,0:0:0:0:
176,320,104639,1,2,0:0:0:0:
376,320,104939,1,8,0:0:0:0:
280,144,105239,1,2,0:0:0:0:
280,344,105540,1,0,0:0:0:0:
152,184,105840,5,0,0:0:0:0:
72,128,105990,1,2,0:0:0:0:
56,224,106140,1,8,0:0:0:0:
360,184,106440,5,0,0:0:0:0:
448,128,106590,1,2,0:0:0:0:
456,224,106740,1,8,0:0:0:0:
256,320,107040,5,2,0:0:0:0:
256,224,107190,1,0,0:0:0:0:
160,224,107340,1,10,0:0:0:0:
208,136,107490,1,0,0:0:0:0:
304,136,107640,1,10,0:0:0:0:
352,224,107790,1,2,0:0:0:0:
256,224,107940,1,0,0:0:0:0:
120,80,108240,6,2,B|48:200,1,100,2|2,0:0|0:0,0:0:0:0:
160,128,108540,2,0,B|120:256,1,100,8|0,0:0|0:0,0:0:0:0:
208,160,108840,2,2,B|208:280,2,100,2|2|8,0:0|0:0|0:0,0:0:0:0:
256,72,109290,1,0,0:0:0:0:
312,160,109440,2,2,B|336:264|456:296,1,200,2|10,0:0|0:0,0:0:0:0:
352,336,109890,2,2,B|352:208|432:144,1,200,2|0,0:0|0:0,0:0:0:0:
496,216,110340,1,8,0:0:0:0:
208,320,110640,5,0,0:0:0:0:
120,280,110790,1,2,0:0:0:0:
80,184,110940,1,8,0:0:0:0:
120,88,111090,2,2,B|208:16|312:64,1,200,2|2,0:0|0:0,0:0:0:0:
232,128,111540,1,8,0:0:0:0:
168,208,111690,1,0,0:0:0:0:
232,128,111840,2,2,B|352:144|400:232,1,200,2|8,0:0|0:0,0:0:0:0:
296,224,112290,2,2,B|360:272|360:328,2,100,2|0|2,0:0|0:0|0:0,0:0:0:0:
284,324,112740,1,8,0:0:0:0:
200,72,113040,6,2,B|37:84|26:331|216:336,1,400,4|2,0:0|0:0,0:0:0:0:
400,320,113941,2,0,B|296:344,1,100,8|0,0:0|0:0,0:0:0:0:
368,224,114241,2,2,B|472:248,1,100,2|0,0:0|0:0,0:0:0:0:
384,136,114541,2,0,B|280:160,1,100,8|0,0:0|0:0,0:0:0:0:
368,48,114841,2,2,B|472:72,2,100,2|0|10,0:0|0:0|0:0,0:0:0:0:
168,80,115441,6,2,B|80:168|176:288,1,200,2|10,0:0|0:0,0:0:0:0:
336,344,116041,2,0,B|416:240|328:136,1,200,0|8,0:0|0:0,0:0:0:0:
168,80,116641,2,2,B|80:168|176:288,1,200,2|10,0:0|0:0,0:0:0:0:
336,344,117241,2,0,B|416:240|328:136,1,200,0|8,0:0|0:0,0:0:0:0:
256,192,117841,12,0,119641,0:0:0:0:
88,208,120241,6,2,B|160:56|368:112,1,300,6|8,0:0|0:0,0:0:0:0:
272,176,120841,1,0,0:0:0:0:
272,176,120991,1,0,0:0:0:0:
184,224,121141,2,2,B|248:320|360:264|408:200|344:88,1,300,10|10,0:0|0:0,0:0:0:0:
448,168,121742,1,0,0:0:0:0:
448,168,121892,1,0,0:0:0:0:
424,288,122042,2,2,B|280:224|336:56|440:56,1,300,10|10,0:0|0:0,0:0:0:0:
415,59,122642,1,4,0:0:0:0:
256,192,129242,5,0,0:0:0:0:
256,192,129392,1,0,0:0:0:0:
256,192,129693,1,0,0:0:0:0:
256,96,129843,6,2,L|152:16|152:200,1,300,4|2,0:0|0:0,0:0:0:0:
256,192,130443,1,8,0:0:0:0:
256,288,130593,1,0,0:0:0:0:
344,240,130743,2,2,L|456:176|456:368,2,300,2|0|2,0:0|0:0|0:0,0:0:0:0:
256,288,131793,1,0,0:0:0:0:
344,336,131943,1,8,0:0:0:0:
344,240,132093,1,0,0:0:0:0:
368,144,132243,6,2,L|368:72|328:32|232:32,1,200,6|2,0:0|0:0,0:0:0:0:
220,127,132693,2,2,L|220:191|172:239|100:239,1,200,0|0,0:0|0:0,0:0:0:0:
144,144,133143,2,2,L|144:72|184:32|280:32,1,200,10|2,0:0|0:0,0:0:0:0:
292,127,133593,2,2,L|292:191|340:239|412:239,1,200,0|0,0:0|0:0,0:0:0:0:
456,328,134043,2,2,L|56:328,1,400,10|0,0:0|0:0,0:0:0:0:
256,124,134943,6,0,L|256:4,1,100
328,184,135243,2,0,L|436:148,1,100
300,264,135543,2,0,L|376:352,1,100
212,264,135843,2,0,L|136:352,1,100
184,184,136143,2,0,L|76:148,1,100
120,56,136443,5,0,0:0:0:0:
392,56,136743,1,0,0:0:0:0:
256,336,137043,6,0,L|256:208,1,100
160,224,137343,2,0,L|64:256,1,100
160,152,137644,2,0,L|56:128,1,100
216,104,137944,2,0,L|144:0,1,100
296,104,138244,2,0,L|368:0,1,100
352,152,138544,2,0,L|456:128,1,100
352,224,138844,2,0,L|448:256,1,100
256,192,139144,1,8,0:0:0:0:
256,192,139444,5,4,0:0:0:0:
344,72,149045,6,2,B|416:160|352:256,1,200,2|8,0:0|0:0,0:0:0:0:
256,296,149495,1,0,0:0:0:0:
160,264,149645,1,0,0:0:0:0:
125,170,149795,2,2,B|229:98|333:178,1,200
361,250,150245,1,0,0:0:0:0:
436,184,150395,1,0,0:0:0:0:
385,97,150545,2,2,B|297:33|177:57,2,200,10|0|10,0:0|0:0|0:0,0:0:0:0:
240,320,151445,6,0,B|120:320,1,100
192,232,151745,2,2,B|72:232,1,100,10|0,0:0|0:0,0:0:0:0:
144,144,152045,2,0,B|256:144,1,100
200,56,152345,2,0,B|320:56,1,100,10|0,0:0|0:0,0:0:0:0:
392,104,152645,1,2,0:0:0:0:
440,192,152795,1,0,0:0:0:0:
392,280,152945,1,8,0:0:0:0:
344,192,153095,2,2,B|96:192,1,200,2|2,0:0|0:0,0:0:0:0:
144,192,153546,1,8,0:0:0:0:
144,192,153696,1,0,0:0:0:0:
88,112,153846,5,4,0:0:0:0:
424,112,154146,1,4,0:0:0:0:
256,320,154446,6,2,B|176:240,1,100,2|0,0:0|0:0,0:0:0:0:
88,232,154746,2,0,B|168:152,1,100,8|0,0:0|0:0,0:0:0:0:
168,64,155046,2,0,B|256:152,1,100,2|0,0:0|0:0,0:0:0:0:
309,205,155346,1,8,0:0:0:0:
363,288,155496,2,2,B|435:184|339:112,1,200
393,28,155946,1,10,0:0:0:0:
466,96,156096,1,0,0:0:0:0:
488,192,156246,6,2,B|400:280,1,100,2|0,0:0|0:0,0:0:0:0:
392,168,156546,2,2,B|320:96,1,100,10|0,0:0|0:0,0:0:0:0:
304,192,156846,2,2,B|232:264,1,100,2|0,0:0|0:0,0:0:0:0:
192,176,157146,2,0,B|112:96,1,100,8|0,0:0|0:0,0:0:0:0:
424,56,157596,5,2,0:0:0:0:
424,56,157746,1,8,0:0:0:0:
424,56,157896,1,2,0:0:0:0:
88,328,158196,5,0,0:0:0:0:
88,328,158346,1,10,0:0:0:0:
88,328,158496,1,0,0:0:0:0:
256,192,158646,12,4,161046,0:0:0:0:
160,72,161346,5,0,0:0:0:0:
160,72,161497,2,2,B|344:152,1,200
344,152,161947,1,0,0:0:0:0:
344,152,162097,2,2,B|144:240,1,200
161,232,162547,1,0,0:0:0:0:
161,232,162697,2,2,B|360:311,1,200
346,305,163147,1,0,0:0:0:0:
346,305,163297,1,0,0:0:0:0:
424,240,163447,6,0,B|424:96,1,100,8|0,0:0|0:0,0:0:0:0:
256,192,163897,1,0,0:0:0:0:
256,192,164047,1,0,0:0:0:0:
64,144,164347,2,0,B|64:244,1,100,8|0,0:0|0:0,0:0:0:0:
256,192,164647,12,4,165847,0:0:0:0:
204,269,166147,6,0,B|98:239,1,100
256,207,166597,2,0,B|256:107,1,100
308,269,167047,2,0,B|414:239,1,100
256,108,167497,1,0,0:0:0:0:
214,194,167647,2,0,B|165:205|126:317|212:402|326:359|362:314|349:213|287:187,1,400,0|4,0:0|0:0,0:0:0:0:
74,148,168547,5,2,0:0:0:0:
66,247,168697,1,0,0:0:0:0:
139,315,168847,1,0,0:0:0:0:
228,269,168997,2,0,B|340:210|349:100,1,200,2|0,0:0|0:0,0:0:0:0:
329,19,169448,2,0,B|328:157|428:220,1,200
399,299,169898,2,0,B|385:173|456:83,1,200,2|2,0:0|0:0,0:0:0:0:
438,107,170348,1,0,0:0:0:0:
199,57,170648,5,2,0:0:0:0:
108,98,170798,1,0,0:0:0:0:
80,192,170948,1,2,0:0:0:0:
104,288,171098,2,0,B|192:344|304:336,1,200,0|2,0:0|0:0,0:0:0:0:
392,304,171548,1,0,0:0:0:0:
400,208,171698,1,2,0:0:0:0:
352,120,171848,2,0,B|272:216|160:144,1,200
251,83,172298,2,0,B|304:192|184:248,1,200
312,240,172748,1,0,0:0:0:0:
416,72,173048,6,0,B|472:168|408:272,2,200,2|0|2,0:0|0:0|0:0,0:0:0:0:
256,184,173948,1,0,0:0:0:0:
256,280,174098,2,0,B|256:384,1,100,2|0,0:0|0:0,0:0:0:0:
152,208,174548,1,2,0:0:0:0:
360,208,174848,1,0,0:0:0:0:
256,32,175148,1,2,0:0:0:0:
56,40,175448,6,0,B|128:128|16:248|200:224|200:224|168:368,1,400,0|2,0:0|0:0,0:0:0:0:
456,40,176648,2,0,B|384:128|496:248|312:224|312:224|344:368,1,400,0|2,0:0|0:0,0:0:0:0:
256,192,177849,12,0,180249,0:0:0:0:
120,80,182649,5,4,0:0:0:0:
392,304,183249,1,4,0:0:0:0:
256,192,183849,5,4,0:0:0:0:
256,192,184149,1,4,0:0:0:0:
256,192,184449,1,4,0:0:0:0:
256,192,184749,1,0,0:0:0:0:
104,64,185049,6,2,B|32:184|120:280,1,200,4|10,0:0|0:0,0:0:0:0:
184,312,185500,1,0,0:0:0:0:
248,232,185650,1,0,0:0:0:0:
168,168,185800,2,2,B|208:56|336:48,1,200
288,144,186250,6,2,B|384:104|488:160,1,200,2|8,0:0|0:0,0:0:0:0:
400,216,186700,2,2,B|360:112|488:24,1,200
352,56,187150,1,8,0:0:0:0:
112,168,187450,6,2,B|64:288,1,100,0|2,0:0|0:0,0:0:0:0:
144,336,187750,1,10,0:0:0:0:
232,296,187900,2,2,B|336:248|344:104,2,200,2|0|2,0:0|0:0|0:0,0:0:0:0:
232,200,188650,2,2,B|272:128|256:40|160:8,1,200,2|10,0:0|0:0,0:0:0:0:
160,120,189100,1,0,0:0:0:0:
336,24,189400,1,0,0:0:0:0:
352,120,189550,1,8,0:0:0:0:
232,352,189850,6,2,B|144:272|216:200|216:200|144:72,1,300
128,192,190450,1,0,0:0:0:0:
312,264,190750,6,2,B|440:312,1,100,10|0,0:0|0:0,0:0:0:0:
328,184,191050,2,0,B|216:216,1,100
184,88,191350,2,2,B|296:120,2,100,10|0|2,0:0|0:0|0:0,0:0:0:0:
104,144,191800,2,2,B|0:176,2,100,0|10|0,0:0|0:0|0:0,0:0:0:0:
72,248,192250,6,2,B|72:376,2,100,2|0|10,0:0|0:0|0:0,0:0:0:0:
256,120,192850,2,0,B|256:8,2,100,2|0|10,0:0|0:0|0:0,0:0:0:0:
440,248,193451,6,0,B|440:376,2,100,2|0|10,0:0|0:0|0:0,0:0:0:0:
256,192,194051,1,8,0:0:0:0:
256,192,194351,1,0,0:0:0:0:
256,192,194651,6,0,B|184:104|64:128,1,200,4|8,0:0|0:0,0:0:0:0:
32,216,195101,1,2,0:0:0:0:
78,126,195251,1,0,0:0:0:0:
32,40,195401,1,2,0:0:0:0:
232,40,195701,1,0,0:0:0:0:
232,40,195851,2,0,B|303:143|224:236,1,200,2|8,0:0|0:0,0:0:0:0:
333,225,196301,2,2,B|392:128|325:33,1,200
428,37,196751,1,8,0:0:0:0:
448,232,197051,6,2,B|408:352,1,100,0|2,0:0|0:0,0:0:0:0:
360,240,197351,2,2,B|312:128,1,100,10|2,0:0|0:0,0:0:0:0:
264,232,197651,1,0,0:0:0:0:
196,164,197801,2,2,B|144:232|200:320|253:319,1,200
264,232,198251,2,2,B|316:164|260:76|208:72,1,200,2|8,0:0|0:0,0:0:0:0:
116,104,198701,2,2,B|36:184,2,100,2|0|2,0:0|0:0|0:0,0:0:0:0:
196,164,199151,1,8,0:0:0:0:
408,64,199451,6,2,B|480:152|416:256,2,200,6|8|2,0:0|0:0|0:0,0:0:0:0:
224,136,200351,1,8,0:0:0:0:
184,224,200501,1,0,0:0:0:0:
240,304,200651,2,0,B|344:352|440:272,3,200,0|2|0|2,0:0|0:0|0:0|0:0,0:0:0:0:
248,192,201852,6,2,B|304:64,1,100,2|0,0:0|0:0,0:0:0:0:
192,208,202152,2,0,B|240:328,1,100,8|0,0:0|0:0,0:0:0:0:
136,192,202452,2,2,B|192:64,1,100,2|0,0:0|0:0,0:0:0:0:
80,208,202752,2,0,B|128:328,1,100,8|0,0:0|0:0,0:0:0:0:
24,192,203052,2,2,B|80:64,2,100,2|0|8,0:0|0:0|0:0,0:0:0:0:
256,192,203652,6,0,B|320:88,6,66.6666666666667
408,64,204552,5,10,0:0:0:0:
456,152,204702,1,0,0:0:0:0:
432,248,204852,1,0,0:0:0:0:
352,304,205002,1,0,0:0:0:0:
256,320,205152,2,2,B|160:336|112:288|96:232,1,200,10|0,0:0|0:0,0:0:0:0:
184,56,205752,2,2,B|304:64,1,100,10|0,0:0|0:0,0:0:0:0:
312,264,206202,2,2,B|200:256,1,100,0|10,0:0|0:0,0:0:0:0:
248,160,206502,5,0,0:0:0:0:
344,136,206652,2,2,B|432:208|384:320,1,200,0|10,0:0|0:0,0:0:0:0:
472,264,207102,2,2,B|480:136|360:56,1,200,0|2,0:0|0:0,0:0:0:0:
304,64,207552,1,10,0:0:0:0:
208,72,207702,1,0,0:0:0:0:
56,152,207852,6,2,L|96:272|200:272,1,200,0|10,0:0|0:0,0:0:0:0:
152,176,208302,2,0,L|224:176|288:320,1,200,0|0,0:0|0:0,0:0:0:0:
376,296,208752,1,10,0:0:0:0:
424,208,208902,1,0,0:0:0:0:
328,208,209052,6,2,L|280:104|160:104,1,200,2|10,0:0|0:0,0:0:0:0:
264,32,209503,2,0,L|472:32,1,200,0|0,0:0|0:0,0:0:0:0:
416,120,209953,2,0,L|416:240,1,100,8|0,0:0|0:0,0:0:0:0:
336,160,210253,2,2,L|336:288,1,100,2|0,0:0|0:0,0:0:0:0:
256,200,210553,2,0,L|256:320,1,100,8|0,0:0|0:0,0:0:0:0:
176,160,210853,2,2,L|176:288,1,100,2|0,0:0|0:0,0:0:0:0:
96,120,211153,2,0,L|96:240,1,100,8|0,0:0|0:0,0:0:0:0:
256,232,211453,6,2,B|255:361|375:361,1,200,2|8,0:0|0:0,0:0:0:0:
256,152,212053,2,2,B|256:22|136:22,1,200,2|8,0:0|0:0,0:0:0:0:
320,192,212653,6,2,B|437:192|437:62,1,200,2|8,0:0|0:0,0:0:0:0:
192,192,213253,2,2,B|74:191|74:321,1,200,2|8,0:0|0:0,0:0:0:0:
256,232,213853,6,2,B|256:352,1,100,2|0,0:0|0:0,0:0:0:0:
296,176,214153,2,0,B|376:96,1,100,8|2,0:0|0:0,0:0:0:0:
216,176,214453,2,2,B|136:96,1,100
256,96,214753,1,8,0:0:0:0:
256,96,214903,1,0,0:0:0:0:
160,208,215053,6,2,L|128:256|168:320|240:320,1,200,2|10,0:0|0:0,0:0:0:0:
352,208,215503,2,2,L|384:256|344:320|272:320,1,200,2|2,0:0|0:0,0:0:0:0:
256,224,215953,2,0,L|256:104,1,100,8|0,0:0|0:0,0:0:0:0:
176,64,216253,5,0,0:0:0:0:
88,112,216403,1,2,0:0:0:0:
72,208,216553,1,8,0:0:0:0:
168,168,216703,2,0,B|352:280,2,200,2|2|2,0:0|0:0|0:0,0:0:0:0:
256,128,217454,5,0,0:0:0:0:
344,80,217604,1,2,0:0:0:0:
344,176,217754,1,8,0:0:0:0:
256,128,217904,2,0,B|256:328,1,200,0|0,0:0|0:0,0:0:0:0:
256,328,218354,1,8,0:0:0:0:
104,192,218654,6,2,B|88:64|240:48,1,200,2|8,0:0|0:0,0:0:0:0:
192,152,219104,1,0,0:0:0:0:
184,248,219254,2,0,B|208:360|336:368,1,200,0|10,0:0|0:0,0:0:0:0:
288,272,219704,1,0,0:0:0:0:
256,176,219854,2,2,B|256:56|400:56,3,200,2|10|2|10,0:0|0:0|0:0|0:0,0:0:0:0:
448,248,221054,6,2,B|256:328|46:246,2,400,0|2|4,0:0|0:0|0:0,0:0:0:0:
256,192,222854,12,4,225855,0:0:0:0:
