osu file format v5

[General]
AudioFilename: The Go Team - Get it Together.mp3
AudioLeadIn: 0
PreviewTime: -1
Countdown: 0
SampleSet: Normal
StackLeniency: 0.7
Mode: 0
LetterboxInBreaks: 1

[Metadata]
Title:Get it Together
Artist:The Go Team
Creator:tommy631
Version:Insane
Source:
Tags:Little Big Planet The Go! Team Go Get It Together

[Difficulty]
HPDrainRate:8
CircleSize:7
OverallDifficulty:8
SliderMultiplier:0.7
SliderTickRate:2

[Events]
//Background and Video events
0,0,"littlebigplanet-boxart.jpg"
//Break Periods
2,52225,62593
2,106729,119574
//Storyboard Layer 0 (Background)
//Storyboard Layer 1 (Failing)
//Storyboard Layer 2 (Passing)
//Storyboard Layer 3 (Foreground)
//Storyboard Sound Samples
//Background Colour Transformations
3,100,179,185,196

[TimingPoints]
0,154.838709677419,4,1,0,100,1

[Colours]
Combo1 : 172,130,83
Combo2 : 122,150,95
Combo3 : 102,113,128
Combo4 : 138,77,77

[HitObjects]
256,192,4954,1,0
256,192,7432,1,0
160,192,9290,5,0
224,192,9445,1,0
288,192,9600,1,0
352,192,9909,1,0
160,128,10374,2,0,B|384:128|384:128,1,210
352,192,11767,5,0
288,192,11922,1,0
224,192,12077,1,0
160,192,12387,1,0
160,128,12851,2,0,B|384:128,1,210
256,192,14245,5,0
256,192,14400,1,0
256,192,14554,1,0
256,192,14864,1,0
160,160,15329,2,0,B|384:160,1,210
256,288,16722,5,0
256,224,16877,1,0
256,160,17032,1,0
256,96,17341,1,0
160,192,17806,2,0,B|384:192,1,210
192,96,19199,5,0
192,160,19354,1,0
192,224,19509,1,0
192,288,19819,1,0
256,288,20283,2,0,B|448:96,1,210
320,96,21677,5,0
320,160,21832,1,0
320,224,21987,1,0
320,288,22296,1,0
256,288,22761,2,0,B|96:128,1,210
160,224,24154,5,0
224,224,24309,1,0
288,224,24464,1,0
352,224,24774,1,0
256,96,25238,2,0,B|256:320,1,210
352,192,26632,5,0
288,192,26787,1,0
224,192,26941,1,0
160,192,27251,1,0
160,128,27716,2,0,B|384:128,1,210
256,192,29109,5,0
192,192,29729,5,0
256,192,30193,1,0
320,192,30658,1,0
256,128,31587,1,0
256,96,31741,1,0
256,64,31896,1,0
320,192,32206,5,0
256,192,32670,1,0
192,192,33135,1,0
256,256,34064,1,0
256,288,34219,1,0
256,320,34374,1,0
320,192,34683,5,0
256,192,35148,1,0
192,192,35612,1,0
256,128,36541,1,0
256,96,36696,1,0
256,64,36851,1,0
192,192,37161,5,0
256,192,37625,1,0
320,192,38090,1,0
160,320,39019,5,0
224,320,39329,1,0
288,320,39638,1,0
352,320,40258,1,0
320,256,40722,1,0
256,256,40877,1,0
192,256,41032,1,0
224,192,41341,1,0
288,192,41806,1,0
256,128,42425,1,0
256,128,42735,1,0
256,64,43199,5,0
256,64,43354,1,0
256,64,43509,1,0
256,64,43819,1,0
256,128,44283,1,0
256,192,44593,1,0
192,320,45212,5,0
320,320,45677,1,0
256,288,45832,1,0
256,256,45987,1,0
256,224,46296,1,0
256,160,46761,1,0
256,96,47070,1,0
192,160,47690,1,0
320,160,47845,1,0
256,224,48154,1,0
256,256,48619,1,0
256,320,49238,5,0
256,288,49548,1,0
256,256,50167,1,0
192,192,50632,1,0
320,192,50787,1,0
256,128,50941,1,0
256,64,51251,1,0
256,160,51716,5,0
256,160,52025,1,0
160,192,63793,5,0
224,192,63948,1,0
288,192,64103,1,0
352,192,64412,1,0
160,128,64877,2,0,B|384:128,1,210
352,192,66270,5,0
288,192,66425,1,0
224,192,66580,1,0
160,192,66890,1,0
352,128,67354,2,0,B|128:128,1,210
160,192,68748,5,0
224,192,68903,1,0
288,192,69058,1,0
352,192,69367,1,0
160,128,69832,2,0,B|384:128,1,210
352,192,71225,5,0
288,192,71380,1,0
224,192,71535,1,0
160,192,71845,1,0
352,128,72309,2,0,B|128:128,1,210
256,192,73703,5,0
192,192,74322,5,0
256,192,74787,1,0
320,192,75251,1,0
256,256,76180,1,0
256,256,76335,1,0
256,256,76490,1,0
320,192,76800,5,0
256,192,77264,1,0
192,192,77729,1,0
256,128,78658,1,0
256,128,78813,1,0
256,128,78967,1,0
192,192,79277,5,0
256,192,79742,1,0
320,192,80206,1,0
256,256,81135,1,0
256,256,81290,1,0
256,256,81445,1,0
320,192,81755,5,0
256,192,82219,1,0
192,192,82684,1,0
256,128,83612,1,0
256,128,83767,1,0
256,128,83922,1,0
192,192,84232,5,0
256,192,84697,1,0
320,192,85161,1,0
256,256,86090,1,0
256,256,86245,1,0
256,256,86400,1,0
320,192,86710,5,0
256,192,87174,1,0
192,192,87639,1,0
256,128,88568,1,0
256,128,88723,1,0
256,128,88877,1,0
192,192,89187,5,0
256,192,89652,1,0
320,192,90116,1,0
256,256,91045,1,0
256,256,91200,1,0
256,256,91355,1,0
320,192,91665,5,0
256,192,92129,1,0
192,192,92594,1,0
160,320,93522,5,0
256,320,93832,1,0
352,320,94141,1,0
256,256,94761,1,0
192,192,95225,1,0
256,192,95380,1,0
320,192,95535,1,0
256,128,95845,1,0
256,64,96309,1,0
192,320,96929,5,0
320,320,97238,1,0
256,256,97703,1,0
256,224,97858,1,0
256,192,98012,1,0
256,128,98322,1,0
256,64,98787,1,0
320,320,99096,5,0
192,320,99716,1,0
160,256,100180,1,0
224,256,100335,1,0
288,256,100490,1,0
352,256,100799,1,0
192,192,101264,2,0,B|384:192,1,140
224,128,102193,2,0,B|320:128,1,70
256,192,102658,1,0
256,192,103122,1,0
192,192,103741,5,0
320,192,104051,1,0
256,192,104670,1,0
224,128,105135,2,0,B|320:128,2,70
256,256,105754,1,0
256,192,106219,1,0
256,192,106529,1,0
256,192,120774,5,0
256,192,120929,1,0
256,192,121083,1,0
256,128,121393,1,0
160,160,121858,2,0,B|384:160,1,210
224,192,123251,6,0,B|320:192,2,70
256,128,123870,1,0
256,192,124335,1,0
256,256,124799,1,0
256,192,125728,5,0
256,192,125883,1,0
256,192,126037,1,0
256,128,126347,1,0
160,192,126812,2,0,B|384:192,1,210
256,192,128361,12,0,130683
160,96,131303,5,0
256,96,131767,1,0
352,96,132232,1,0
224,160,133161,2,0,B|320:160,2,70
160,288,133780,5,0
256,288,134244,1,0
352,288,134709,1,0
224,224,135638,2,0,B|320:224,2,70
160,96,136258,5,0
256,96,136722,1,0
352,96,137187,1,0
224,160,138116,2,0,B|320:160,2,70
160,288,138735,5,0
256,288,139199,1,0
352,288,139664,1,0
192,128,140593,5,0
320,128,140903,1,0
96,192,141212,2,0,B|96:288|160:320|224:224|288:192|416:256|448:288,1,420
288,288,143070,5,0
224,288,143225,1,0
448,160,143690,2,0,B|448:256|384:288|320:192|256:160|128:224|96:256,1,420
192,128,145548,5,0
320,128,145858,1,0
96,192,146167,2,0,B|96:288|160:320|224:224|288:192|416:256|448:288,1,420
288,288,148025,5,0
224,288,148180,1,0
448,160,148645,2,0,B|448:256|384:288|320:192|256:160|128:224|96:256,1,420
192,128,150503,5,0
320,128,150813,1,0
96,192,151122,2,0,B|96:288|160:320|224:224|288:192|416:256|448:288,1,420
288,288,152980,5,0
224,288,153135,1,0
448,160,153599,2,0,B|448:256|384:288|320:192|256:160|128:224|96:256,1,420
192,128,155458,5,0
320,128,155768,1,0
96,192,156077,2,0,B|96:288|160:320|224:224|288:192|416:256|448:288,1,420
288,288,157935,5,0
224,288,158090,1,0
448,160,158554,2,0,B|448:256|384:288|320:192|256:160|128:224|96:256,1,420
160,128,160412,5,0
352,128,160722,1,0
256,288,161032,1,0
256,192,161651,5,4
