osu file format v9

[General]
AudioFilename: The_Glitch_Mob_-_09_Fortune_Days_-_WWW.ELECTROKILL.INFO.mp3
AudioLeadIn: 0
PreviewTime: -1
Countdown: 1
SampleSet: Soft
StackLeniency: 0.7
Mode: 0
LetterboxInBreaks: 1

[Editor]
DistanceSpacing: 1.5
BeatDivisor: 4
GridSize: 8

[Metadata]
Title:Fortune Days
Artist:The Glitch Mob
Creator:Urqhart
Version:Hard
Source:
Tags:

[Difficulty]
HPDrainRate:6
CircleSize:5
OverallDifficulty:7
ApproachRate:7
SliderMultiplier:1.6
SliderTickRate:1

[Events]
//Background and Video events
//Break Periods
2,108255,111727
//Storyboard Layer 0 (Background)
//Storyboard Layer 1 (Fail)
//Storyboard Layer 2 (Pass)
//Storyboard Layer 3 (Foreground)
//Storyboard Sound Samples
//Background Colour Transformations
3,100,163,162,255

[TimingPoints]
617,571.482998380798,4,2,0,52,1,0
37146,-100,4,2,0,0,0,0
37289,-100,4,2,0,52,0,0
39430,-100,4,1,0,52,0,0
45853,-50,4,1,0,52,0,0
46567,-100,4,1,0,52,0,0
56457,-100,4,2,1,52,0,0
57266,-100,4,1,1,52,0,0
65314,-100,4,2,1,52,0,0
66457,-100,4,1,1,52,0,0
68693,-50,4,1,0,52,0,0
69550,-100,4,1,0,52,0,0
70977,-133.333333333333,4,1,0,52,0,0
74403,-100,4,1,0,52,0,0
75545,-100,4,2,1,52,0,0
86742,-50,4,2,1,52,0,0
87885,-100,4,2,1,52,0,0
117056,-200,4,2,1,52,0,0
120199,-100,4,2,1,52,0,0
123914,-200,4,2,1,52,0,0
128200,-100,4,2,1,52,0,0
133058,-200,4,2,1,52,0,0
135629,-100,4,2,1,52,0,0

[Colours]
Combo1 : 0,0,128
Combo2 : 128,128,255
Combo3 : 0,0,160
Combo4 : 64,0,128

[HitObjects]
104,120,616,1,0
104,120,902,1,0
104,120,1188,1,2
104,120,1474,1,0
104,120,1759,1,0
104,120,2045,1,0
224,120,2331,1,2
224,120,2617,1,0
224,120,2902,1,0
224,120,3188,1,0
224,120,3474,1,2
104,120,3760,1,0
104,240,4045,5,0
104,240,4331,1,0
160,136,4617,1,2
160,136,4903,1,0
312,200,5188,2,0,B|288:248|248:216,1,80
240,96,5760,2,0,B|256:72|320:104,1,80,2|0
400,128,6331,2,0,B|424:200|376:224,1,80
184,144,6903,2,0,B|144:200|208:224,1,80,2|0
264,112,7474,2,0,B|312:104|328:152,1,80
384,256,8046,5,2
288,176,8332,1,0
240,288,8617,2,0,B|200:312|152:272|152:240,1,80
80,192,9189,1,2
200,192,9474,1,0
144,88,9760,2,0,B|176:112|208:96|248:80|272:112|272:152,1,160,0|2
168,208,10617,1,0
240,304,10903,2,0,B|224:264|160:288|168:328|128:336|96:248,1,160,0|2
24,192,11760,1,0
144,192,12046,1,0
72,96,12332,6,0,B|112:40|176:48|184:88|184:136|208:160|248:160|288:136,1,240,2|2
248,24,13475,1,0
248,144,13761,1,2
344,80,14046,1,0
344,200,14332,2,0,B|344:256|344:256|296:256,2,80,0|0|2
344,80,15189,1,0
232,128,15475,2,0,B|280:128|280:128|280:176,2,80,0|0|2
136,56,16332,1,0
64,152,16618,1,0
184,152,16904,1,0
184,152,17190,1,2
304,152,17475,2,0,B|384:152|384:200|368:256|344:272|312:272,1,160
240,312,18332,1,2
160,216,18618,1,2
248,136,18904,6,0,B|264:96|312:72|352:96|376:136,1,160,0|2
376,248,20047,2,0,B|360:288|312:312|272:288|248:248,1,160,0|2
312,144,20904,1,0
96,48,21476,2,0,B|72:16|40:32|32:104|56:152|104:72,1,160,0|2
216,72,22333,1,2
216,72,22619,1,0
224,192,22904,2,0,B|256:240|288:184,1,80
256,304,23476,1,2
40,192,24047,6,0,B|40:144|56:112|80:88|128:80|160:96,1,160
200,192,24905,1,0
120,280,25190,1,0
40,192,25476,1,2
264,280,26047,1,0
264,160,26333,2,0,B|264:80,1,80
384,80,26905,2,0,B|384:160,1,80
264,160,27476,1,0
264,160,27762,1,0
160,224,28048,2,0,B|152:184|96:200|104:280|104:304|160:304,1,160,2|0
376,256,29191,5,0
376,136,29476,1,0
376,256,29762,1,0
376,256,30048,1,0
256,48,30619,1,0
264,168,30905,2,0,B|280:224|272:256|224:264|200:208|208:168,1,160
96,160,31762,1,0
152,56,32048,1,0
272,80,32334,1,0
224,192,32620,2,0,B|296:208|224:256|200:272|232:312|312:280,1,160
160,320,33477,1,0
40,296,33763,5,0
40,176,34048,1,0
160,176,34334,1,0
160,56,34620,1,0
256,192,34905,12,0,37191
48,208,39477,5,4
48,88,39763,1,2
168,88,40049,1,8
168,208,40335,1,0
48,208,40620,1,2
128,296,40906,2,0,B|120:336|104:352|80:264,1,80,0|8
280,296,41478,2,0,B|352:296|352:248|320:200|272:200,1,160,6|8
168,168,42335,1,2
280,120,42621,1,0
328,248,42906,2,0,B|320:296|296:320|248:320|232:248,1,160,8|2
112,248,43763,5,8
72,208,43906,1,0
96,152,44049,1,8
64,104,44192,1,0
112,64,44335,1,0
200,152,44621,2,0,B|224:120|272:128|288:168|304:192|352:152,1,160,14|0
256,240,45478,1,0
256,240,45764,1,0
336,64,46049,2,0,B|400:8|472:16|512:64|512:128|448:168|384:176|320:136,1,320,2|12
56,272,47192,5,0
160,328,47478,1,0
424,88,48050,1,14
432,328,48621,2,0,B|352:296|368:216|464:224,1,160,8|2
440,104,49478,1,4
336,40,49764,1,8
368,160,50050,2,0,B|320:136|288:160|280:192,1,80,2|12
360,264,50621,2,0,B|328:304|296:320|272:312|232:288|224:264,1,160,0|12
112,232,51478,5,2
232,208,51764,1,8
144,120,52050,2,0,B|128:64|176:40|232:128|272:128,1,160,0|8
368,136,52907,2,4,B|320:136|288:72|352:8|448:16|504:48|480:144|464:176|432:208|360:216,1,400,4|12
256,192,54622,12,8,56050
200,184,56622,5,2
248,144,56765,1,0
296,168,56908,1,2
288,224,57050,1,0
232,232,57193,1,12
40,88,57765,6,0,B|8:168|56:248,1,160,0|8
224,72,58908,1,0
312,152,59194,1,2
224,232,59479,1,8
136,152,59765,2,0,B|136:112|136:104|136:206|280:152,1,160,4|0
376,152,60622,1,8
320,272,60908,2,0,B|320:240|320:192,1,80,4|0
120,312,61765,1,10
48,80,62337,2,0,B|144:24,1,80,8|2
240,40,62908,2,0,B|320:96,1,80,8|4
192,120,63480,2,0,B|120:168,1,80,2|8
248,176,64051,2,0,B|312:224,1,80,2|8
72,216,64908,1,4
232,40,65480,5,2
288,40,65623,1,4
192,112,65908,1,2
256,112,66051,1,2
336,200,66337,1,10
216,200,66623,1,0
112,136,66909,6,0,B|48:96|40:176|112:240,1,160
176,320,67766,2,0,B|232:296|200:248|160:256,1,80
128,160,68337,2,0,B|160:112|224:160,1,80
48,184,68909,2,0,B|40:96|96:64|168:40|232:64|296:160,1,320
120,312,70052,1,0
240,312,70337,1,0
240,312,70909,1,0
360,312,71195,2,0,B|360:264|320:232|248:216|208:192|184:152|192:96|256:48|320:40|376:48,1,419.999987483025
328,128,73481,2,0,B|288:136|296:160|320:184|368:184|384:104|406:145|424:208,1,179.999994635582
344,288,74624,1,0
224,304,74909,1,0
256,256,75052,1,0
224,208,75195,1,0
136,288,75481,1,8
136,48,76052,6,0,B|56:104,1,80,2|2
224,48,76624,2,0,B|304:96,1,80,8|0
128,184,77195,2,0,B|200:128,1,80,2|2
312,128,77767,1,8
224,208,78052,1,2
328,272,78338,1,2
424,200,78624,1,2
312,128,78910,1,8
224,208,79195,1,2
328,272,79481,1,2
216,320,79767,1,2
112,256,80053,1,8
176,152,80338,1,2
288,200,80624,1,2
288,80,80910,5,2
176,152,81196,1,8
288,200,81481,1,0
288,320,81767,2,0,B|232:352|208:280,1,80,2|2
232,184,82339,2,0,B|208:152|320:192,1,80,8|2
352,192,82767,2,0,B|352:152,2,40,0|2|0
352,256,83196,1,2
352,96,83482,1,8
232,144,83767,1,2
112,96,84053,1,2
128,208,84339,1,2
160,240,84482,1,0
200,264,84625,1,10
248,272,84910,1,2
248,272,85196,1,8
248,128,85482,5,0
336,208,85767,1,0
248,272,86053,1,0
248,128,86339,1,0
336,48,86625,1,0
248,128,86910,2,0,B|240:72|144:88|128:96|120:136,1,160
128,208,87482,2,0,B|144:256|200:264|248:248|256:184,1,160
320,160,88053,2,0,B|352:128|392:160,1,80
432,248,88625,1,0
320,304,88911,1,0
184,272,89196,1,0
280,176,89482,1,0
184,112,89768,2,0,B|184:56|144:32|88:40|56:80|40:112|24:152|32:200|48:240|72:288|120:304|152:312|192:216,1,480
392,72,92054,5,0
320,160,92340,1,0
200,160,92625,1,0
80,304,92911,2,0,B|128:240,1,80
232,240,93482,1,0
432,272,93768,2,0,B|432:320|368:336|328:296|304:240,1,160
256,88,94911,5,0
72,272,95483,1,0
456,272,96054,1,0
256,272,96340,1,0
256,192,96626,2,0,B|192:136,1,80
256,192,97197,2,0,B|328:144,1,80
256,192,97769,1,0
136,272,98054,1,0
136,144,98340,2,0,B|136:104|152:88|176:56|224:56|280:96,1,160
328,168,99197,1,0
408,256,99483,5,0
408,256,99626,1,0
408,256,99769,1,0
328,168,100055,1,0
280,280,100340,1,0
160,304,100626,2,0,B|112:280|160:232,1,80
264,200,101198,2,0,B|296:184|264:120,1,80
152,168,101769,2,0,B|104:152|160:80,1,80
264,200,102340,2,0,B|296:240|240:288,1,80
264,120,102912,2,0,B|224:80|272:48,1,80
368,112,103483,2,0,B|336:160|384:240|320:256,1,160
208,224,104341,5,0
112,136,104626,1,0
256,80,104912,1,0
360,168,105198,1,0
256,224,105484,1,0
152,280,105769,1,0
256,344,106055,1,0
360,288,106341,1,0
264,56,106627,2,0,B|240:88|288:168|360:168,1,160
288,240,107484,2,0,B|256:200|192:160|128:208,1,160
80,64,112627,5,0
315,93,112913,1,0
315,93,113056,1,0
136,248,113342,1,0
136,248,113484,1,0
384,296,113770,2,0,B|328:248,1,40
248,304,114056,2,0,B|296:272,1,40
280,152,114342,1,0
440,112,114913,6,0,B|392:72|296:112|346:171|424:248|368:253|200:264,1,320
248,136,116342,1,0
248,272,116628,1,0
120,200,116913,1,0
248,136,117199,2,0,B|256:96|304:72|360:80|384:120,1,160
328,208,118628,1,0
416,288,118913,2,0,B|376:328|328:320|280:312|264:296,1,160
48,80,120628,6,0,B|104:48|144:120|128:224|200:256,1,240
232,120,121771,1,0
360,176,122057,1,0
360,176,122342,2,0,B|376:104|336:64|264:64,1,160
240,184,123200,2,0,B|264:224|216:256,1,80
96,184,123771,1,0
168,72,124057,6,0,B|192:56|192:56|208:72|208:72|224:56|224:56|240:72|240:72|256:56|256:56|272:72|272:72|288:56|288:56,1,160
336,160,125486,1,0
224,160,125771,1,0
336,160,126057,1,0
144,288,126343,2,0,B|216:328|272:280,1,120
336,160,127486,2,0,B|328:152|328:152|320:160|320:160|312:152|312:152|304:160|304:160|296:152|296:152|288:160|288:160|280:152,1,80
224,256,128343,1,0
224,136,128629,2,0,B|200:96|224:48|248:96|288:120|278:152|272:176|256:192|232:200|192:176|184:152,1,240
96,80,129772,5,0
96,80,129915,1,0
96,80,130057,1,0
224,72,130343,2,0,B|320:112,1,80
232,208,130915,1,0
224,72,131200,1,0
232,208,131486,2,0,B|240:176|208:160|160:192|160:256|184:288|224:304|248:304|280:296|304:264,1,240
384,128,132629,2,0,B|352:120|336:136|360:208,1,80
256,296,133201,6,0,B|256:240|248:248|152:176|104:144|128:88|192:48|224:64,1,320
448,304,136344,2,0,B|424:280|392:240|328:216|256:240|240:288,1,240
88,64,137487,1,0
88,216,137772,1,0
352,152,138344,2,0,B|312:120|280:168|240:160|224:128|192:144|192:152,1,160
264,40,139201,1,0
192,240,139487,2,0,B|232:272|264:224|304:232|320:264|352:248|352:240,1,160
264,120,140344,1,0
352,344,140630,2,0,B|312:312|280:360|240:352|224:320|192:336|192:344,1,160
167,285,141344,1,0
167,285,141487,1,0
285,264,141773,2,0,B|364:222|335:186|306:167|263:148,1,160
369,79,142630,5,0
273,151,142916,1,0
269,30,143202,1,0
369,79,143487,2,0,B|404:104|391:160|361:188|413:242,1,160
321,317,144344,1,0
196,138,144630,2,0,B|175:192|224:269|262:277,1,160
323,44,145487,2,0,B|366:90|303:156|244:72|180:47|150:83,1,240
259,164,146630,1,0
150,192,146916,2,0,B|230:258|318:252|394:175,1,240
370,73,148059,2,0,B|290:7|202:13|126:90,1,240
256,192,149202,5,0
169,287,149488,1,0
169,287,149631,1,0
169,287,149774,1,0
77,196,150059,2,0,B|77:178|88:152|144:146,1,80
256,192,150631,1,0
244,114,150774,1,0
305,71,150917,1,0
366,114,151059,1,0
366,114,151202,1,0
423,69,151345,1,0
423,69,151488,2,0,B|473:101|466:144|454:182|426:221|372:221|342:188,1,240
136,304,152917,6,0,B|200:328|208:280|120:240|176:192,1,160
56,240,153774,1,0
136,152,154060,2,0,B|176:112|216:192,1,80
160,280,154631,1,0
248,192,154917,2,0,B|272:152|320:160,1,80
296,40,155488,1,0
320,160,155774,2,0,B|288:144|248:192,1,80
160,104,156346,6,0,B|104:48|72:80|96:136|144:168,1,160
144,280,157203,2,0,B|192:232,2,40
232,200,157774,1,0
112,192,158060,1,0
184,96,158346,2,0,B|232:40|288:80|304:160,1,160
192,192,159203,1,0
88,256,159489,2,0,B|136:320|248:328|296:248,1,240
192,192,160632,2,0,B|104:136|200:72|224:104,1,160
304,192,161489,1,0
48,24,162632,5,0
160,56,162918,1,0
72,208,163346,2,0,B|72:288|160:296|176:296,1,120
376,216,164346,2,0,B|400:288|335:281|256:264,1,160
264,144,165204,1,0
200,48,165489,2,0,B|120:56|160:152|64:104,1,160
80,224,166347,1,0
152,320,166632,1,0
192,272,166775,1,0
224,224,166918,1,0
296,320,167204,1,0
344,224,167490,2,0,B|424:216|384:128|400:88,1,160
160,72,168347,2,0,B|216:128|152:176|144:224,1,160
487,329,169775,5,0
246,331,170347,2,0,B|304:276|351:286|373:344,1,160
371,222,171204,1,0
487,330,171490,2,0,B|431:336|422:282,1,80
371,222,172347,2,0,B|311:276|291:153|256:132,1,160
231,254,173204,1,0
119,208,173490,2,0,B|117:123,2,80
256,192,174347,12,0,177776
64,48,178919,5,0
304,48,179491,1,0
112,192,180062,2,0,B|176:144,1,80
240,40,180634,1,0
304,144,180919,2,0,B|361:150|381:194|369:221|331:262,1,160
222,213,181777,1,0
162,109,182062,1,0
104,214,182348,1,0
162,109,182634,1,0
282,111,182920,2,0,B|214:164,2,80
