osu file format v14

[General]
AudioFilename: sleep prelude.mp3
AudioLeadIn: 1500
PreviewTime: 70500
Countdown: 0
SampleSet: Soft
StackLeniency: 0.7
Mode: 0
LetterboxInBreaks: 0
EpilepsyWarning: 1
WidescreenStoryboard: 1

[Editor]
DistanceSpacing: 0.9
BeatDivisor: 8
GridSize: 4
TimelineZoom: 1

[Metadata]
Title:Sleep Prelude
TitleUnicode:Sleep Prelude
Artist:The Ghost Of 3.13
ArtistUnicode:The Ghost Of 3.13
Creator:Pjecoo
Version:Goku's Normal
Source:
Tags:Old Lost Unfinished Broken Chibichan10 gokugohan12468
BeatmapID:723847
BeatmapSetID:325816

[Difficulty]
HPDrainRate:4
CircleSize:3.5
OverallDifficulty:4
ApproachRate:5
SliderMultiplier:2
SliderTickRate:2

[Events]
//Background and Video events
0,0,"8QpQ8p5giz4.jpg",0,0
//Break Periods
//Storyboard Layer 0 (Background)
//Storyboard Layer 1 (Fail)
//Storyboard Layer 2 (Pass)
//Storyboard Layer 3 (Foreground)
//Storyboard Sound Samples

[TimingPoints]
500,800,4,2,1,14,1,0
17300,-100,4,2,1,10,0,0
78900,-100,4,2,1,16,0,0
82100,-100,4,2,1,20,0,0
82900,-100,4,2,1,5,0,0

[Colours]
Combo1 : 221,221,204
Combo2 : 192,192,192
Combo3 : 170,172,145
Combo4 : 128,128,128

[HitObjects]
52,248,500,6,0,P|124:256|160:244,1,100,4|0,0:0|0:0,0:0:0:0:
208,180,1300,2,0,P|280:172|316:184,1,100,2|0,0:0|0:0,0:0:0:0:
217,340,2500,2,0,L|117:324,1,100,2|0,0:1|0:0,0:0:0:0:
63,152,3700,6,0,P|135:140|179:160,1,100,2|0,0:1|0:0,0:0:0:0:
376,264,5300,1,2,0:0:0:0:
111,211,6500,1,0,0:0:0:0:
40,152,6900,6,0,P|91:118|145:128,1,100,2|0,0:1|0:0,0:0:0:0:
204,172,7700,2,0,P|272:184|312:168,1,100,2|0,0:0|0:0,0:0:0:0:
372,120,8500,2,0,L|396:8,2,100,2|2|0,0:1|0:1|0:0,0:0:0:0:
340,296,10100,5,2,0:1:0:0:
268,348,10500,1,0,0:0:0:0:
80,156,11700,1,2,0:1:0:0:
344,92,12900,1,0,0:0:0:0:
406,156,13300,6,0,P|361:176|312:172,1,100,2|0,0:1|0:0,0:0:0:0:
226,142,14100,2,0,P|176:137|131:158,1,100,2|0,0:0|0:0,0:0:0:0:
52,200,14900,1,2,0:1:0:0:
7,277,15300,2,0,P|63:289|103:273,1,100,0|2,0:1|0:1,0:0:0:0:
226,142,16500,6,0,P|258:170|270:234,1,100,2|0,0:1|0:0,0:0:0:0:
234,306,17300,1,4,0:1:0:0:
88,232,18100,1,4,0:0:0:0:
300,64,19300,1,0,0:0:0:0:
327,149,19700,6,0,P|265:145|231:117,1,100,2|0,0:1|0:0,0:0:0:0:
155,83,20500,1,2,0:0:0:0:
72,240,21300,1,2,0:0:0:0:
228,332,22100,2,0,P|280:328|328:288,1,100,2|0,0:1|0:0,0:0:0:0:
372,128,23300,5,2,0:1:0:0:
200,180,24100,2,0,B|144:200|88:152|88:152|40:160|48:224,1,200,0|0,0:0|0:0,0:0:0:0:
200,308,25700,1,0,0:0:0:0:
280,347,26100,6,0,P|288:311|264:243,1,100,2|0,0:1|0:0,0:0:0:0:
213,181,26900,1,2,0:0:0:0:
92,56,27700,1,2,0:0:0:0:
32,224,28500,2,0,P|32:256|80:312,1,100,2|0,0:1|0:0,0:0:0:0:
232,228,29700,6,0,P|284:200|416:248,1,200,2|0,0:1|0:0,0:0:0:0:
468,172,30900,2,0,L|472:56,1,100,2|2,0:1|0:0,0:0:0:0:
294,40,32100,1,0,0:0:0:0:
205,55,32500,6,0,P|221:91|361:99,1,200,0|2,0:0|0:0,0:0:0:0:
442,59,33700,1,0,0:0:0:0:
472,148,34100,2,0,L|448:264,1,100,2|2,0:0|0:1,0:0:0:0:
371,287,34900,1,0,0:0:0:0:
200,216,35700,6,0,P|116:212|132:304,1,200,2|0,0:0|0:0,0:0:0:0:
292,228,37300,2,0,L|292:172,1,50,2|2,0:0|0:1,0:0:0:0:
92,72,38500,1,0,0:0:0:0:
28,132,38900,6,0,L|16:204,1,50,2|2,0:0|0:0,0:0:0:0:
44,220,39300,2,0,P|96:236|144:224,1,100,2|2,0:0|0:1,0:0:0:0:
212,172,40100,1,0,0:0:0:0:
284,224,40500,2,0,L|392:232,1,100,2|0,0:1|0:0,0:0:0:0:
464,188,41300,1,0,0:0:0:0:
308,100,42100,6,0,P|256:92|200:112,1,100,2|0,0:1|0:0,0:0:0:0:
147,168,42900,2,0,P|100:178|50:162,1,100
100,92,43700,1,2,0:1:0:0:
188,92,44100,2,0,L|252:88,1,50,2|0,0:0|0:0,0:0:0:0:
356,156,44900,1,0,0:0:0:0:
396,236,45300,6,0,P|336:244|296:224,1,100,2|2,0:0|0:0,0:0:0:0:
260,208,45900,2,0,L|196:192,1,50,2|2,0:1|0:0,0:0:0:0:
120,188,46500,1,0,0:0:0:0:
44,140,46900,2,0,L|88:104,1,50,2|2,0:1|0:0,0:0:0:0:
208,64,47700,1,4,0:0:0:0:
260,300,48900,5,2,0:0:0:0:
331,244,49300,2,0,P|291:216|220:220,1,100,2|0,0:1|0:0,0:0:0:0:
168,159,50100,1,2,0:1:0:0:
168,159,51300,1,0,0:0:0:0:
96,214,51700,6,0,P|144:246|208:242,1,100
228,237,52300,2,0,L|256:189,1,50,2|0,0:0|0:0,0:0:0:0:
259,103,52900,1,2,0:1:0:0:
340,72,53300,2,0,P|320:40|260:16,1,100,0|0,0:0|0:0,0:0:0:0:
220,20,53900,2,0,L|164:28,1,50,0|2,0:0|0:1,0:0:0:0:
72,280,55300,5,2,0:0:0:0:
144,228,55700,2,0,P|104:196|52:192,1,100,2|0,0:1|0:0,0:0:0:0:
20,108,56500,1,2,0:1:0:0:
20,108,57700,1,0,0:0:0:0:
44,20,58100,6,0,P|88:48|108:112,1,100,2|0,0:1|0:0,0:0:0:0:
184,140,58900,2,0,P|224:148|288:128,1,100,2|0,0:0|0:0,0:0:0:0:
356,84,59700,1,2,0:1:0:0:
408,156,60100,2,0,L|432:256,1,100,2|0,0:0|0:0,0:0:0:0:
260,308,61300,6,0,P|184:316|144:296,1,100,2|2,0:1|0:0,0:0:0:0:
96,248,62100,2,0,P|48:232|0:240,2,100,0|2|2,0:0|0:0|0:0,0:0:0:0:
302,74,64100,2,0,L|253:116,1,50,2|2,0:0|0:0,0:0:0:0:
236,140,64500,6,0,L|120:148,1,100,2|2,0:0|0:1,0:0:0:0:
64,200,65300,2,0,P|52:240|80:304,1,100,2|0,0:0|0:0,0:0:0:0:
160,304,66100,1,2,0:1:0:0:
244,276,66500,2,0,L|360:276,1,100,0|0,0:0|0:0,0:0:0:0:
448,128,67700,6,0,L|340:128,1,100,4|0,0:0|0:0,0:0:0:0:
276,180,68500,1,2,0:0:0:0:
116,264,69300,2,0,L|232:272,1,100,2|0,0:0|0:0,0:0:0:0:
384,336,70500,1,0,0:0:0:0:
448,272,70900,6,0,P|412:252|336:256,1,100,2|0,0:0|0:0,0:0:0:0:
264,264,71700,1,2,0:1:0:0:
136,140,72500,2,0,L|104:240,1,100,4|0,0:1|0:0,0:0:0:0:
156,312,73300,1,4,0:0:0:0:
240,276,73700,6,0,L|270:180,1,100,2|0,0:1|0:0,0:0:0:0:
228,100,74500,2,0,P|164:96|124:68,1,100,0|0,0:0|0:0,0:0:0:0:
60,132,75300,2,0,P|8:240|60:292,1,200,2|0,0:0|0:0,0:0:0:0:
220,228,76900,1,0,0:0:0:0:
290,284,77300,6,0,P|308:233|291:177,1,100,2|2,0:0|0:1,0:0:0:0:
222,141,78100,2,0,P|202:95|212:47,1,100,4|0,0:0|0:0,0:0:0:0:
291,89,78900,2,0,L|395:107,1,100
445,176,79700,1,0,0:0:0:0:
408,258,80100,6,0,P|365:342|271:337,1,200,2|2,0:1|0:1,0:0:0:0:
318,260,81300,1,0,0:0:0:0:
268,184,81700,2,0,P|232:153|166:150,1,100
256,192,82900,12,6,90100,0:0:0:0:
