osu file format v10

[General]
AudioFilename: The GAG Quartet - le Internet Medley.mp3
AudioLeadIn: 0
PreviewTime: 4216
Countdown: 1
SampleSet: None
StackLeniency: 0.7
Mode: 0
LetterboxInBreaks: 1

[Editor]
Bookmarks: 4162,4178,33086,68937,101319,136505,157846,179211,192336,206800
DistanceSpacing: 0.8
BeatDivisor: 2
GridSize: 8

[Metadata]
Title:le Internet Medley
TitleUnicode:
Artist:The GAG Quartet
ArtistUnicode:
Creator:Bass-chan
Version:Normal
Source:
Tags:collab kert gonzvlo aleks719 aleks mustaash doomsday agnes deif blue dragon nogard lilac lily osuplayer111 andrea sushi reiji-rj tony gyt copter-kun onosakihito ozzyozrock firce777 firce kurisuchianu zlew mmzz backfire sherrie__fay nyan cat nyan cat metal version ievan's polka loituma keyboard cat chacarron macarron el mudo numa numa yey o-zone dragostea din tei rebecca black friday rick astley rickroll never gonna give you up tay zonday chocolate rain imma firin mah lazor all your base are belong to us dramatic chipmunk
BeatmapID:188600
BeatmapSetID:39932

[Difficulty]
HPDrainRate:1
CircleSize:3
OverallDifficulty:5
ApproachRate:5
SliderMultiplier:1.6
SliderTickRate:2

[Events]
//Background and Video events
Video,0,"le Internet Medley.avi"
0,0,"lebg.jpg"
//Break Periods
//Storyboard Layer 0 (Background)
Sprite,Background,Centre,"lebg.jpg",320,240 S,0,0,,0.625 M,0,186499,,321,240 F,0,207341,225750,0.9948801,1 F,0,225750,228321,1,0.4 F,0,228321,234353,0.4 F,0,234353,235210,0.4,0
//Storyboard Layer 1 (Fail)
//Storyboard Layer 2 (Pass)
//Storyboard Layer 3 (Foreground)
Sprite,Foreground,Centre,"SB\o.png",320,240 C,0,2501,,255,0,0 M,0,2501,2608,246,452,246,449 M,0,2608,2715,246,449,246,452 M,0,2715,4216,246,452 S,0,31644,32088,1,0 R,0,31644,32088,0,3.142
Sprite,Foreground,Centre,"SB\s.png",320,240 L,321,64 M,0,4216,4323,282,452,282,449 M,0,4323,4430,282,449,282,452 M,0,4430,4644,282,452 C,0,2608,,255,128,0 M,0,2608,2715,282,452,282,449 M,0,2715,2823,282,449,282,452 M,0,2823,4216,282,452 S,0,31644,32088,1,0 R,0,31644,32088,0,3.142
Sprite,Foreground,Centre,"SB\u.png",320,240 L,214,64 M,0,4216,4323,318,452,318,449 M,0,4323,4430,318,449,318,452 M,0,4430,4644,318,452 C,0,2715,,255,255,0 M,0,2715,2823,318,452,318,449 M,0,2823,2930,318,449,318,452 M,0,2930,4216,318,452 S,0,31644,32088,1,0 R,0,31644,32088,0,3.142
Sprite,Foreground,Centre,"SB\p.png",320,40 L,107,64 M,0,4216,4323,354,452,354,449 M,0,4323,4430,354,449,354,452 M,0,4430,4644,354,452 C,0,2823,,128,255,0 M,0,2823,2930,354,452,354,449 M,0,2930,3037,354,449,354,452 M,0,3037,4216,354,452 S,0,31644,32088,1,0 R,0,31644,32088,0,3.142
Sprite,Foreground,Centre,"SB\l.png",320,240 L,0,64 M,0,4216,4323,390,452,390,449 M,0,4323,4430,390,449,390,452 M,0,4430,4644,390,452 C,0,2930,,0,128,255 M,0,2930,3037,390,452,390,449 M,0,3037,3144,390,449,390,452 M,0,3144,4216,390,452 S,0,31644,32088,1,0 R,0,31644,32088,0,3.142
Sprite,Foreground,Centre,"SB\a.png",320,240 L,0,64 M,0,4216,4323,426,452,426,449 M,0,4323,4430,426,449,426,452 M,0,4430,4644,426,452 C,0,3037,,0,128,255 M,0,3037,3144,426,452,426,449 M,0,3144,3251,426,449,426,452 M,0,3251,4216,426,452 S,0,31644,32088,1,0 R,0,31644,32088,0,3.142
Sprite,Foreground,Centre,"SB\y.png",320,240 L,107,64 M,0,4216,4323,462,452,462,449 M,0,4323,4430,462,449,462,452 M,0,4430,4644,462,452 C,0,3144,,128,255,0 M,0,3144,3251,462,452,462,449 M,0,3251,3358,462,449,462,452 M,0,3358,4216,462,452 S,0,31644,32088,1,0 R,0,31644,32088,0,3.142
Sprite,Foreground,Centre,"SB\e.png",320,240 L,214,64 M,0,4216,4323,498,452,498,449 M,0,4323,4430,498,449,498,452 M,0,4430,4644,498,452 C,0,3251,,255,255,0 M,0,3251,3358,498,452,498,449 M,0,3358,3466,498,449,498,452 M,0,3466,4216,498,452 S,0,31644,32088,1,0 R,0,31644,32088,0,3.142
Sprite,Foreground,Centre,"SB\r.png",320,240 L,321,64 M,0,4216,4323,534,452,534,449 M,0,4323,4430,534,449,534,452 M,0,4430,4644,534,452 C,0,3358,,255,128,0 M,0,3358,3466,534,452,534,449 M,0,3466,3573,534,449,534,452 M,0,3573,4216,534,452 S,0,31644,32088,1,0 R,0,31644,32088,0,3.142
Sprite,Foreground,Centre,"SB\1.png",320,240 L,0,4 M,0,787,894,246,452,246,449 M,0,894,1001,246,449,246,452 M,0,1001,1215,246,452 C,0,787,32088,255,0,0 M,1,2499,4216,246,452,564,452 S,0,31644,32088,1,0 R,0,31644,32088,0,3.142
Sprite,Foreground,Centre,"SB\1.png",320,240 L,0,4 M,0,894,1001,272,452,272,449 M,0,1001,1108,272,449,272,452 M,0,1108,1323,272,452 C,0,894,32088,255,255,0 M,1,2610,4216,272,452,586,452 S,0,31644,32088,1,0 R,0,31644,32088,0,3.142
Sprite,Foreground,Centre,"SB\1.png",320,240 L,0,4 M,0,1001,1108,298,452,298,449 M,0,1108,1215,298,449,298,452 M,0,1215,1430,298,452 C,0,1001,32088,128,255,0 M,1,2717,4216,298,452,608,452 S,0,31644,32088,1,0 R,0,31644,32088,0,3.142
Sprite,Foreground,Centre,"SB\a.png",320,240 M,0,33822,,423,452 C,0,33822,,128,255,128 S,1,33822,35022,0,1 R,1,33822,35022,3.142,0 F,0,68849,69202,1,0 S,0,68849,69202,1,1.12
Sprite,Foreground,Centre,"SB\g.png",320,240 M,0,33822,,459,452 C,0,33822,,65,220,120 S,1,33822,35022,0,1 R,1,33822,35022,3.142,0 F,0,68849,69202,1,0 S,0,68849,69202,1,1.12
Sprite,Foreground,Centre,"SB\n.png",320,240 M,0,33822,,495,452 S,1,33822,35022,0,1 R,1,33822,35022,3.142,0 F,0,68849,69202,1,0 S,0,68849,69202,1,1.12
Sprite,Foreground,Centre,"SB\e.png",320,240 M,0,33822,,531,452 C,0,33822,,65,220,120 S,1,33822,35022,0,1 R,1,33822,35022,3.142,0 F,0,68849,69202,1,0 S,0,68849,69202,1,1.12
Sprite,Foreground,Centre,"SB\s.png",320,240 M,0,33822,,567,452 C,0,33822,,128,255,128 S,1,33822,35022,0,1 R,1,33822,35022,3.142,0 F,0,68849,69202,1,0 S,0,68849,69202,1,1.12
Sprite,Foreground,Centre,"SB\polkkkka.png",320,240 L,0,30 M,1,38622,38772,603,450,608,458 R,1,38622,38772,0,0.5 M,2,38772,39222,608,458,603,450 R,2,38772,39222,0.5,0 L,0,31 M,2,57545,57731,603,450,608,458 R,2,57545,57731,0,0.5 M,1,57731,57907,608,458,603,450 R,1,57731,57907,0.5,0 S,1,33822,35022,0,1 R,1,33822,35022,3.142,0 F,0,33822,68849,1 M,0,35022,38622,603,450 M,0,56622,56737,603,450,608,458 R,0,56622,56737,0,0.5 M,0,56737,56852,608,458,603,450 R,0,56737,56852,0.5,0 M,0,56852,56968,603,450,608,458 R,0,56852,56968,0,0.5 M,0,56968,57083,608,458,603,450 R,0,56968,57083,0.5,0 M,0,57083,57198,603,450,608,458 R,0,57083,57198,0,0.5 M,0,57198,57314,608,458,603,450 R,0,57198,57314,0.5,0 M,0,57314,57429,603,450,608,458 R,0,57314,57429,0,0.5 M,0,57429,57545,608,458,603,450 R,0,57429,57545,0.5,0 F,0,68849,69202,1,0 S,0,68849,69202,1,1.12
Sprite,Foreground,Centre,"SB\r.png",372,452 L,0,11 S,0,68849,68937,1,0.8 S,0,68937,69025,0.8,1 S,0,69025,71672,1 S,0,99902,100084,1,1.18 F,0,99907,100084,1,0
Sprite,Foreground,Centre,"SB\e.png",408,452 L,353,11 S,0,68849,68937,1,0.8 S,0,68937,69025,0.8,1 S,0,69025,71672,1 S,0,100255,100437,1,1.18 F,0,100260,100437,1,0
Sprite,Foreground,Centre,"SB\i.png",444,452 L,706,11 C,0,68849,,192,192,192 S,0,68849,68937,1,0.8 S,0,68937,69025,0.8,1 S,0,69025,71672,1 S,0,100608,100790,1,1.18 F,0,100613,100790,1,0
Sprite,Foreground,Centre,"SB\j.png",480,452 L,1059,11 S,0,68849,68937,1,0.8 S,0,68937,69025,0.8,1 S,0,69025,71672,1 S,0,100961,101143,1,1.18 F,0,100966,101143,1,0
Sprite,Foreground,Centre,"SB\i.png",516,452 L,1412,11 S,0,68849,68937,1,0.8 S,0,68937,69025,0.8,1 S,0,69025,71672,1 S,0,101314,101496,1,1.18 F,0,101319,101496,1,0
Sprite,Foreground,Centre,"SB\line.png",540,452 L,1765,11 S,0,68849,68937,1,0.5 S,0,68937,69025,0.5,1 S,0,69025,71672,1 S,0,101667,101849,1,1.18 F,0,101672,101849,1,0
Sprite,Foreground,Centre,"SB\r.png",572,452 L,1941,11 C,0,68849,,192,192,192 S,0,68849,68937,1,0.8 S,0,68937,69025,0.8,1 S,0,69025,71672,1 S,0,101843,102025,1,1.18 F,0,101849,102025,1,0
Sprite,Foreground,Centre,"SB\j.png",608,452 L,2470,11 S,0,68849,68937,1,0.8 S,0,68937,69025,0.8,1 S,0,69025,71672,1 S,0,102372,102554,1,1.18 F,0,102378,102554,1,0
Sprite,Foreground,Centre,"SB\n.png",356,452 L,0,24 F,1,102731,103437,0,1 F,1,103437,104143,1,0 L,0,8 C,0,102731,104143,255,0,0,255,255,255 C,0,104143,105554,255,255,255,0,0,255 C,0,105554,106966,0,0,255,255,0,0
Sprite,Foreground,Centre,"SB\o.png",392,452 L,176,24 F,1,102731,103437,0,1 F,1,103437,104143,1,0 L,176,8 C,0,102731,104143,255,0,0,255,255,255 C,0,104143,105554,255,255,255,0,0,255 C,0,105554,106966,0,0,255,255,0,0
Sprite,Foreground,Centre,"SB\h.png",428,452 L,353,24 F,1,102731,103437,0,1 F,1,103437,104143,1,0 L,353,8 C,0,102731,104143,255,0,0,255,255,255 C,0,104143,105554,255,255,255,0,0,255 C,0,105554,106966,0,0,255,255,0,0
Sprite,Foreground,Centre,"SB\i.png",464,452 L,529,24 F,1,102731,103437,0,1 F,1,103437,104143,1,0 L,529,8 C,0,102731,104143,255,0,0,255,255,255 C,0,104143,105554,255,255,255,0,0,255 C,0,105554,106966,0,0,255,255,0,0
Sprite,Foreground,Centre,"SB\t.png",500,452 L,706,24 F,1,102731,103437,0,1 F,1,103437,104143,1,0 L,706,8 C,0,102731,104143,255,0,0,255,255,255 C,0,104143,105554,255,255,255,0,0,255 C,0,105554,106966,0,0,255,255,0,0
Sprite,Foreground,Centre,"SB\t.png",536,452 L,882,24 F,1,102731,103437,0,1 F,1,103437,104143,1,0 L,882,8 C,0,102731,104143,255,0,0,255,255,255 C,0,104143,105554,255,255,255,0,0,255 C,0,105554,106966,0,0,255,255,0,0
Sprite,Foreground,Centre,"SB\e.png",572,452 L,1059,24 F,1,102731,103437,0,1 F,1,103437,104143,1,0 L,1059,8 C,0,102731,104143,255,0,0,255,255,255 C,0,104143,105554,255,255,255,0,0,255 C,0,105554,106966,0,0,255,255,0,0
Sprite,Foreground,Centre,"SB\r.png",608,452 L,1235,24 F,1,102731,103437,0,1 F,1,103437,104143,1,0 L,1235,8 C,0,102731,104143,255,0,0,255,255,255 C,0,104143,105554,255,255,255,0,0,255 C,0,105554,106966,0,0,255,255,0,0
Sprite,Foreground,Centre,"SB\c.png",284,452 L,0,10 C,0,140869,,255,128,192 S,0,140869,141005,0.8,1 S,0,141005,141142,1,0.8 S,0,141142,142233,0.8 F,0,154505,154778,1,0 S,0,154509,154778,0.8,1.5
Sprite,Foreground,Centre,"SB\h.png",320,452 L,88,10 C,0,140869,,255,104,180 S,0,140869,141005,0.8,1 S,0,141005,141142,1,0.8 S,0,141142,142233,0.8 S,0,154597,154914,0.8,1.5 F,0,154642,154914,1,0
Sprite,Foreground,Centre,"SB\a.png",356,452 L,264,10 C,0,140869,,255,74,165 S,0,140869,141005,0.8,1 S,0,141005,141142,1,0.8 S,0,141142,142233,0.8 S,0,154773,155051,0.8,1.5 F,0,154778,155051,1,0
Sprite,Foreground,Centre,"SB\r.png",392,452 L,353,10 C,0,140869,,255,40,148 S,0,140869,141005,0.8,1 S,0,141005,141142,1,0.8 S,0,141142,142233,0.8 S,0,154862,155187,0.8,1.5 F,0,154914,155187,1,0
Sprite,Foreground,Centre,"SB\l.png",428,452 L,441,10 C,0,140869,,249,0,124 S,0,140869,141005,0.8,1 S,0,141005,141142,1,0.8 S,0,141142,142233,0.8 S,0,154950,155323,0.8,1.5 F,0,155051,155323,1,0
Sprite,Foreground,Centre,"SB\e.png",464,452 L,529,10 C,0,140869,,221,0,111 S,0,140869,141005,0.8,1 S,0,141005,141142,1,0.8 S,0,141142,142233,0.8 S,0,155038,155323,0.8,1.5 F,0,155051,155323,1,0
Sprite,Foreground,Centre,"SB\s.png",500,452 L,617,10 C,0,140869,,204,0,102 S,0,140869,141005,0.8,1 S,0,141005,141142,1,0.8 S,0,141142,142233,0.8 S,0,155126,155460,0.8 S,0,155126,155460,0.8,1.5 F,0,155187,155460,1,0
Sprite,Foreground,Centre,"SB\4.png",536,452 L,706,10 C,0,140869,,176,0,88 S,0,140869,141005,0.8,1 S,0,141005,141142,1,0.8 S,0,141142,142233,0.8 S,0,155215,155596,0.8,1.5 F,0,155323,155596,1,0
Sprite,Foreground,Centre,"SB\4.png",572,452 L,794,10 C,0,140869,,153,0,77 S,0,140869,141005,0.8,1 S,0,141005,141142,1,0.8 S,0,141142,142233,0.8 S,0,155303,155596,0.8,1.5 F,0,155323,155596,1,0
Sprite,Foreground,Centre,"SB\5.png",608,452 L,882,10 C,0,140869,,132,0,66 S,0,140869,141005,0.8,1 S,0,141005,141142,1,0.8 S,0,141142,142233,0.8 S,0,155391,155733,0.8,1.5 F,0,155460,155733,1,0
Sprite,Foreground,Centre,"SB\y.png",320,240 L,0,31 S,0,165765,165872,1,1.2 S,0,165872,165979,1.2,1 S,0,165979,166193,1 M,1,157939,158367,392,452,500,452 S,0,159439,159546,1,0.8 S,0,159546,159653,0.8,1 S,0,159653,161153,1 S,0,161153,161260,1,0.8 S,0,161260,161367,0.8,1 S,0,161367,162867,1 S,0,162867,162974,1,0.8 S,0,162974,163081,0.8,1 S,0,163081,164260,1 S,0,164260,164367,1,0.8 S,0,164367,164474,0.8,1 S,0,164474,165765,1 C,1,165765,,255,255,170 M,1,179050,179479,500,452,392,452
Sprite,Foreground,Centre,"SB\n.png",320,240 L,0,31 S,0,165765,165872,1,1.2 S,0,165872,165979,1.2,1 S,0,165979,166193,1 M,1,157939,158367,392,452,464,452 S,0,159224,159331,1,0.8 S,0,159331,159439,0.8,1 S,0,159439,160939,1 S,0,160939,161046,1,0.8 S,0,161046,161153,0.8,1 S,0,161153,162653,1 S,0,162653,162760,1,0.8 S,0,162760,162867,0.8,1 S,0,162867,163831,1 S,0,163831,163939,1,0.8 S,0,163939,164046,0.8,1 S,0,164046,165765,1 C,1,165765,,255,255,128 M,1,179050,179479,464,452,392,452
Sprite,Foreground,Centre,"SB\o.png",320,240 L,0,31 S,0,165765,165872,1,1.2 S,0,165872,165979,1.2,1 S,0,165979,166193,1 M,1,157939,158367,392,452,428,452 S,0,159010,159117,1,0.8 S,0,159117,159224,0.8,1 S,0,159224,160724,1 S,0,160724,160831,1,0.8 S,0,160831,160939,0.8,1 S,0,160939,162439,1 S,0,162439,162546,1,0.8 S,0,162546,162653,0.8,1 S,0,162653,164153,1 S,0,164153,164260,1,0.8 S,0,164260,164367,0.8,1 C,1,165765,,255,255,55 M,1,179050,179479,428,452,392,452
Sprite,Foreground,Centre,"SB\o.png",320,240 L,0,33 S,0,192765,192872,1,1.2 S,0,192872,192979,1.2,1 S,0,192979,193193,1 C,0,192765,,240,240,255 M,1,192765,193193,392,452,608,452 M,1,206479,206908,608,452,392,452
Sprite,Foreground,Centre,"SB\l.png",320,240 L,0,33 S,0,192765,192872,1,1.2 S,0,192872,192979,1.2,1 S,0,192979,193193,1 C,0,192765,,230,230,255 M,1,192765,193193,392,452,572,452 M,1,206479,206908,572,452,392,452
Sprite,Foreground,Centre,"SB\n.png",320,240 L,0,33 S,0,192765,192872,1,1.2 S,0,192872,192979,1.2,1 S,0,192979,193193,1 C,0,192765,,215,215,255 P,0,192765,,V M,1,192765,193193,392,452,536,452 M,1,206479,206908,536,452,392,452
Sprite,Foreground,Centre,"SB\z.png",320,240 L,0,33 S,0,192765,192872,1,1.2 S,0,192872,192979,1.2,1 S,0,192979,193193,1 C,0,192765,,191,191,255 M,1,192765,193193,392,452,500,452 M,1,206479,206908,500,452,392,452
Sprite,Foreground,Centre,"SB\n.png",320,240 L,0,33 S,0,192765,192872,1,1.2 S,0,192872,192979,1.2,1 S,0,192979,193193,1 C,0,192765,,172,172,255 M,1,192765,193193,392,452,464,452 M,1,206479,206908,464,452,392,452
Sprite,Foreground,Centre,"SB\o.png",320,240 L,0,33 S,0,192765,192872,1,1.2 S,0,192872,192979,1.2,1 S,0,192979,193193,1 C,0,192765,,151,151,255 M,1,192765,193193,392,452,428,452 M,1,206479,206908,428,452,392,452
Sprite,Foreground,Centre,"SB\g.png",392,452 L,-25,64 S,0,179479,179586,1,1.2 S,0,179586,179693,1.2,1 S,0,179693,179908,1 C,0,179479,,128,128,255 F,0,206908,207341,1,0 S,0,206910,207765,1,1.1536 F,0,207341,207765,0
Sprite,Foreground,Centre,"SB\y.png",320,240 L,-25,31 S,0,179479,179586,1,1.2 S,0,179586,179693,1.2,1 S,0,179693,179908,1 C,0,179479,,194,251,132 M,1,179479,179908,392,452,428,452 M,1,192336,192765,428,452,392,452 F,1,192336,192765,1,0
Sprite,Foreground,Centre,"SB\t.png",320,240 L,0,63 S,0,165765,165872,1,1.2 S,0,165872,165979,1.2,1 S,0,165979,166193,1 F,0,157233,157939,0,1 M,0,157233,179479,392,452 F,0,157939,192336,1 S,0,158796,158903,1,0.8 S,0,158903,159010,0.8,1 S,0,159010,160510,1 S,0,160510,160617,1,0.8 S,0,160617,160724,0.8,1 S,0,160724,162224,1 S,0,162224,162331,1,0.8 S,0,162331,162439,0.8,1 S,0,162439,163724,1 S,0,163724,163831,1,0.8 S,0,163831,163939,0.8,1 S,0,163939,165765,1 C,0,165765,,255,255,0 M,1,179479,179908,392,452,464,452 M,0,179479,192336,464,452 M,1,192336,192765,464,452,392,452 F,1,192336,192765,1,0
Sprite,Foreground,Centre,"SB\c.png",284,452 L,0,11 C,0,207020,207234,255,0,0 C,0,207234,207235,255,0,0,255,128,0 C,0,207235,207449,255,128,0 C,0,207449,207450,255,128,0,255,255,0 C,0,207450,207663,255,255,0 C,0,207663,207664,255,255,0,128,255,0 C,0,207664,207877,128,255,0 C,0,207877,207878,128,255,0,0,128,255 C,0,207878,208091,0,128,255 C,0,208091,208092,0,128,255,198,0,198 C,0,208092,208306,198,0,198 F,0,207020,208520,0,1 F,0,208622,225754,1 C,0,222482,222483,198,0,198,255,0,0 C,0,222483,222696,255,0,0 C,0,222696,222697,255,0,0,255,128,0 C,0,222697,222910,255,128,0 C,0,222910,222911,255,128,0,255,255,0 C,0,222911,223124,255,255,0 C,0,223124,223125,255,255,0,128,255,0 C,0,223125,223339,128,255,0 C,0,223339,223340,128,255,0,0,128,255 C,0,223340,223553,0,128,255 C,0,223553,223554,0,128,255,198,0,198 C,0,223554,223767,198,0,198 C,0,223767,223768,198,0,198,255,0,0 C,0,223768,223982,255,0,0 C,0,223982,223983,255,0,0,198,0,198 C,0,223983,224196,198,0,198 S,0,224187,224276,1,1.2 S,0,224276,224365,1.2,1 S,0,224365,224901,1 S,0,224901,225008,1,1.2 S,0,225008,225115,1.2,1 F,0,225754,229178,1,0 S,0,225754,229178,1,1.1
Sprite,Foreground,Centre,"SB\o.png",320,452 L,107,11 C,0,207020,207234,255,0,0 C,0,207234,207235,255,0,0,255,128,0 C,0,207235,207449,255,128,0 C,0,207449,207450,255,128,0,255,255,0 C,0,207450,207663,255,255,0 C,0,207663,207664,255,255,0,128,255,0 C,0,207664,207877,128,255,0 C,0,207877,207878,128,255,0,0,128,255 C,0,207878,208091,0,128,255 C,0,208091,208092,0,128,255,198,0,198 C,0,208092,208306,198,0,198 F,0,207020,208520,0,1 F,0,208622,225754,1 C,0,222482,222483,198,0,198,255,0,0 C,0,222483,222696,255,0,0 C,0,222696,222697,255,0,0,255,128,0 C,0,222697,222910,255,128,0 C,0,222910,222911,255,128,0,255,255,0 C,0,222911,223124,255,255,0 C,0,223124,223125,255,255,0,128,255,0 C,0,223125,223339,128,255,0 C,0,223339,223340,128,255,0,0,128,255 C,0,223340,223553,0,128,255 C,0,223553,223554,0,128,255,198,0,198 C,0,223554,223767,198,0,198 C,0,223767,223768,198,0,198,255,128,0 C,0,223768,223982,255,128,0 C,0,223982,223983,255,128,0,0,128,255 C,0,223983,224196,0,128,255 S,0,224187,224276,1,1.2 S,0,224276,224365,1.2,1 S,0,224365,224901,1 S,0,224901,225008,1,1.2 S,0,225008,225115,1.2,1 F,0,225754,229178,1,0 S,0,225754,229178,1,1.1
Sprite,Foreground,Centre,"SB\p.png",356,452 L,215,11 C,0,207020,207234,255,0,0 C,0,207234,207235,255,0,0,255,128,0 C,0,207235,207449,255,128,0 C,0,207449,207450,255,128,0,255,255,0 C,0,207450,207663,255,255,0 C,0,207663,207664,255,255,0,128,255,0 C,0,207664,207877,128,255,0 C,0,207877,207878,128,255,0,0,128,255 C,0,207878,208091,0,128,255 C,0,208091,208092,0,128,255,198,0,198 C,0,208092,208306,198,0,198 F,0,207020,208520,0,1 F,0,208622,225754,1 C,0,222482,222483,198,0,198,255,0,0 C,0,222483,222696,255,0,0 C,0,222696,222697,255,0,0,255,128,0 C,0,222697,222910,255,128,0 C,0,222910,222911,255,128,0,255,255,0 C,0,222911,223124,255,255,0 C,0,223124,223125,255,255,0,128,255,0 C,0,223125,223339,128,255,0 C,0,223339,223340,128,255,0,0,128,255 C,0,223340,223553,0,128,255 C,0,223553,223554,0,128,255,198,0,198 C,0,223554,223767,198,0,198 C,0,223767,223768,198,0,198,255,255,0 C,0,223768,223982,255,255,0 C,0,223982,223983,255,255,0,128,255,0 C,0,223983,224196,128,255,0 S,0,224187,224276,1,1.2 S,0,224276,224365,1.2,1 S,0,224365,224901,1 S,0,224901,225008,1,1.2 S,0,225008,225115,1.2,1 F,0,225754,229178,1,0 S,0,225754,229178,1,1.1
Sprite,Foreground,Centre,"SB\t.png",392,452 L,322,11 C,0,207020,207234,255,0,0 C,0,207234,207235,255,0,0,255,128,0 C,0,207235,207449,255,128,0 C,0,207449,207450,255,128,0,255,255,0 C,0,207450,207663,255,255,0 C,0,207663,207664,255,255,0,128,255,0 C,0,207664,207877,128,255,0 C,0,207877,207878,128,255,0,0,128,255 C,0,207878,208091,0,128,255 C,0,208091,208092,0,128,255,198,0,198 C,0,208092,208306,198,0,198 F,0,207020,208520,0,1 F,0,208622,225754,1 C,0,222482,222483,198,0,198,255,0,0 C,0,222483,222696,255,0,0 C,0,222696,222697,255,0,0,255,128,0 C,0,222697,222910,255,128,0 C,0,222910,222911,255,128,0,255,255,0 C,0,222911,223124,255,255,0 C,0,223124,223125,255,255,0,128,255,0 C,0,223125,223339,128,255,0 C,0,223339,223340,128,255,0,0,128,255 C,0,223340,223553,0,128,255 C,0,223553,223554,0,128,255,198,0,198 C,0,223554,223767,198,0,198 C,0,223767,223768,198,0,198,128,255,0 C,0,223768,223982,128,255,0 C,0,223982,223983,128,255,0,255,255,0 C,0,223983,224196,255,255,0 S,0,224187,224276,1,1.2 S,0,224276,224365,1.2,1 S,0,224365,224901,1 S,0,224901,225008,1,1.2 S,0,225008,225115,1.2,1 F,0,225754,229178,1,0 S,0,225754,229178,1,1.1
Sprite,Foreground,Centre,"SB\e.png",428,452 L,430,11 C,0,207020,207234,255,0,0 C,0,207234,207235,255,0,0,255,128,0 C,0,207235,207449,255,128,0 C,0,207449,207450,255,128,0,255,255,0 C,0,207450,207663,255,255,0 C,0,207663,207664,255,255,0,128,255,0 C,0,207664,207877,128,255,0 C,0,207877,207878,128,255,0,0,128,255 C,0,207878,208091,0,128,255 C,0,208091,208092,0,128,255,198,0,198 C,0,208092,208306,198,0,198 F,0,207020,208520,0,1 F,0,208622,225754,1 C,0,222482,222483,198,0,198,255,0,0 C,0,222483,222696,255,0,0 C,0,222696,222697,255,0,0,255,128,0 C,0,222697,222910,255,128,0 C,0,222910,222911,255,128,0,255,255,0 C,0,222911,223124,255,255,0 C,0,223124,223125,255,255,0,128,255,0 C,0,223125,223339,128,255,0 C,0,223339,223340,128,255,0,0,128,255 C,0,223340,223553,0,128,255 C,0,223553,223554,0,128,255,198,0,198 C,0,223554,223767,198,0,198 C,0,223767,223768,198,0,198,0,128,255 C,0,223768,223982,0,128,255 C,0,223982,223983,0,128,255,255,128,0 C,0,223983,224196,255,128,0 S,0,224187,224276,1,1.2 S,0,224276,224365,1.2,1 S,0,224365,224901,1 S,0,224901,225008,1,1.2 S,0,225008,225115,1.2,1 F,0,225754,229178,1,0 S,0,225754,229178,1,1.1
Sprite,Foreground,Centre,"SB\r.png",464,452 L,537,11 C,0,207020,207234,255,0,0 C,0,207234,207235,255,0,0,255,128,0 C,0,207235,207449,255,128,0 C,0,207449,207450,255,128,0,255,255,0 C,0,207450,207663,255,255,0 C,0,207663,207664,255,255,0,128,255,0 C,0,207664,207877,128,255,0 C,0,207877,207878,128,255,0,0,128,255 C,0,207878,208091,0,128,255 C,0,208091,208092,0,128,255,198,0,198 C,0,208092,208306,198,0,198 F,0,207020,208520,0,1 F,0,208622,225754,1 C,0,222482,222483,198,0,198,255,0,0 C,0,222483,222696,255,0,0 C,0,222696,222697,255,0,0,255,128,0 C,0,222697,222910,255,128,0 C,0,222910,222911,255,128,0,255,255,0 C,0,222911,223124,255,255,0 C,0,223124,223125,255,255,0,128,255,0 C,0,223125,223339,128,255,0 C,0,223339,223340,128,255,0,0,128,255 C,0,223340,223553,0,128,255 C,0,223553,223554,0,128,255,198,0,198 C,0,223554,223767,198,0,198 C,0,223982,223983,198,0,198,255,0,0 C,0,223983,224196,255,0,0 S,0,224187,224276,1,1.2 S,0,224276,224365,1.2,1 S,0,224365,224901,1 S,0,224901,225008,1,1.2 S,0,225008,225115,1.2,1 F,0,225754,229178,1,0 S,0,225754,229178,1,1.1
Sprite,Foreground,Centre,"SB\line.png",500,452 L,645,11 C,0,207020,207234,255,0,0 C,0,207234,207235,255,0,0,255,128,0 C,0,207235,207449,255,128,0 C,0,207449,207450,255,128,0,255,255,0 C,0,207450,207663,255,255,0 C,0,207663,207664,255,255,0,128,255,0 C,0,207664,207877,128,255,0 C,0,207877,207878,128,255,0,0,128,255 C,0,207878,208091,0,128,255 C,0,208091,208092,0,128,255,198,0,198 C,0,208092,208306,198,0,198 F,0,207020,208520,0,1 F,0,208622,225754,1 C,0,222482,222483,198,0,198,255,0,0 C,0,222483,222696,255,0,0 C,0,222696,222697,255,0,0,255,128,0 C,0,222697,222910,255,128,0 C,0,222910,222911,255,128,0,255,255,0 C,0,222911,223124,255,255,0 C,0,223124,223125,255,255,0,128,255,0 C,0,223125,223339,128,255,0 C,0,223339,223340,128,255,0,0,128,255 C,0,223340,223553,0,128,255 C,0,223553,223554,0,128,255,198,0,198 C,0,223554,223767,198,0,198 S,0,224187,224276,1,1.2 S,0,224276,224365,1.2,1 S,0,224365,224901,1 S,0,224901,225008,1,1.2 S,0,225008,225115,1.2,1 F,0,225754,229178,1,0 S,0,225754,229178,1,1.1
Sprite,Foreground,Centre,"SB\k.png",536,452 L,752,11 C,0,207020,207234,255,0,0 C,0,207234,207235,255,0,0,255,128,0 C,0,207235,207449,255,128,0 C,0,207449,207450,255,128,0,255,255,0 C,0,207450,207663,255,255,0 C,0,207663,207664,255,255,0,128,255,0 C,0,207664,207877,128,255,0 C,0,207877,207878,128,255,0,0,128,255 C,0,207878,208091,0,128,255 C,0,208091,208092,0,128,255,198,0,198 C,0,208092,208306,198,0,198 F,0,207020,208520,0,1 F,0,208622,225754,1 C,0,222482,222483,198,0,198,255,0,0 C,0,222483,222696,255,0,0 C,0,222696,222697,255,0,0,255,128,0 C,0,222697,222910,255,128,0 C,0,222910,222911,255,128,0,255,255,0 C,0,222911,223124,255,255,0 C,0,223124,223125,255,255,0,128,255,0 C,0,223125,223339,128,255,0 C,0,223339,223340,128,255,0,0,128,255 C,0,223340,223553,0,128,255 C,0,223553,223554,0,128,255,198,0,198 C,0,223554,223767,198,0,198 C,0,223767,223768,198,0,198,128,128,128 C,0,223768,223982,128,128,128 S,0,224187,224276,1,1.2 S,0,224276,224365,1.2,1 S,0,224365,224901,1 S,0,224901,225008,1,1.2 S,0,225008,225115,1.2,1 F,0,225754,229178,1,0 S,0,225754,229178,1,1.1
Sprite,Foreground,Centre,"SB\u.png",572,452 L,859,11 C,0,207020,207234,255,0,0 C,0,207234,207235,255,0,0,255,128,0 C,0,207235,207449,255,128,0 C,0,207449,207450,255,128,0,255,255,0 C,0,207450,207663,255,255,0 C,0,207663,207664,255,255,0,128,255,0 C,0,207664,207877,128,255,0 C,0,207877,207878,128,255,0,0,128,255 C,0,207878,208091,0,128,255 C,0,208091,208092,0,128,255,198,0,198 C,0,208092,208306,198,0,198 F,0,207020,208520,0,1 F,0,208622,225754,1 C,0,222482,222483,198,0,198,255,0,0 C,0,222483,222696,255,0,0 C,0,222696,222697,255,0,0,255,128,0 C,0,222697,222910,255,128,0 C,0,222910,222911,255,128,0,255,255,0 C,0,222911,223124,255,255,0 C,0,223124,223125,255,255,0,128,255,0 C,0,223125,223339,128,255,0 C,0,223339,223340,128,255,0,0,128,255 C,0,223340,223553,0,128,255 C,0,223553,223554,0,128,255,198,0,198 C,0,223554,223767,198,0,198 C,0,223767,223768,198,0,198,192,192,192 C,0,223768,223982,192,192,192 S,0,224187,224276,1,1.2 S,0,224276,224365,1.2,1 S,0,224365,224901,1 S,0,224901,225008,1,1.2 S,0,225008,225115,1.2,1 F,0,225754,229178,1,0 S,0,225754,229178,1,1.1
Sprite,Foreground,Centre,"SB\n.png",608,452 L,967,11 C,0,207020,207234,255,0,0 C,0,207234,207235,255,0,0,255,128,0 C,0,207235,207449,255,128,0 C,0,207449,207450,255,128,0,255,255,0 C,0,207450,207663,255,255,0 C,0,207663,207664,255,255,0,128,255,0 C,0,207664,207877,128,255,0 C,0,207877,207878,128,255,0,0,128,255 C,0,207878,208091,0,128,255 C,0,208091,208092,0,128,255,198,0,198 C,0,208092,208306,198,0,198 F,0,207020,208520,0,1 F,0,208622,225754,1 C,0,222482,222483,198,0,198,255,0,0 C,0,222483,222696,255,0,0 C,0,222696,222697,255,0,0,255,128,0 C,0,222697,222910,255,128,0 C,0,222910,222911,255,128,0,255,255,0 C,0,222911,223124,255,255,0 C,0,223124,223125,255,255,0,128,255,0 C,0,223125,223339,128,255,0 C,0,223339,223340,128,255,0,0,128,255 C,0,223340,223553,0,128,255 C,0,223553,223554,0,128,255,198,0,198 C,0,223554,223767,198,0,198 C,0,223767,223768,198,0,198,255,255,255 C,0,223768,223982,255,255,255 S,0,224187,224276,1,1.2 S,0,224276,224365,1.2,1 S,0,224365,224901,1 S,0,224901,225008,1,1.2 S,0,225008,225115,1.2,1 F,0,225754,229178,1,0 S,0,225754,229178,1,1.1
Sprite,Foreground,Centre,"SB\border.png",320,240 F,0,228329,229186,0,1 F,0,229186,230901,1 M,0,229186,231758,320,30 F,0,230901,234353,1 F,0,234353,235210,1,0
Sprite,Foreground,Centre,"SB\NH credits.png",320,240 F,0,228329,229186,0,1 F,0,229186,230901,1 F,0,230901,234353,1 F,0,234353,235210,1,0
Sprite,Foreground,Centre,"SB\border.png",320,240 F,0,228329,229186,0,1 F,0,229186,230901,1 M,0,229186,231758,320,450 F,0,230901,234353,1 F,0,234353,235210,1,0
//Storyboard Sound Samples
//Background Colour Transformations
3,100,163,162,255

[TimingPoints]
814,428.571428571429,4,2,0,80,1,0
3361,428.571428571429,4,2,0,80,1,0
4218,428.571428571429,4,1,0,80,1,0
4323,-100,4,1,0,5,0,0
4430,-100,4,1,0,80,0,0
31646,452.830188679245,4,1,0,80,1,0
32098,530.973451327434,4,1,0,80,1,0
32628,591.133004926108,4,1,0,80,1,0
33219,571.428571428571,4,1,0,80,1,0
33819,600,4,1,0,80,1,0
33819,-133.333333333333,4,1,0,100,0,0
36219,-100,4,1,0,100,0,0
56619,461.538461538462,4,1,0,100,1,0
57555,352.941176470588,4,1,0,100,1,0
101937,-133.333333333333,4,1,0,50,0,0
102643,-133.333333333333,4,2,0,50,0,0
102736,352.941176470588,4,1,0,50,1,0
102736,-133.333333333333,4,1,0,50,0,0
111201,352.941176470588,4,1,0,50,1,0
112612,-133.333333333333,4,1,0,50,0,0
123191,352.941176470588,4,1,0,50,1,0
123906,342.857142857143,4,1,0,60,1,0
124591,339.943342776204,4,1,0,60,1,0
125270,326.975476839237,4,1,0,70,1,0
125923,314.13612565445,4,1,0,70,1,0
126554,300,4,1,0,90,1,0
127754,279.06976744186,4,1,0,100,1,0
128870,272.727272727273,3,1,0,100,1,0
132142,545.454545454546,4,1,0,100,1,0
136369,-100,4,1,0,50,0,0
136642,-100,4,1,0,70,0,0
136983,-100,4,1,0,40,0,0
137187,-100,4,1,0,70,0,0
137460,-100,4,1,0,40,0,0
137664,-100,4,1,0,70,0,0
138073,-100,4,1,0,40,0,0
138346,-100,4,1,0,70,0,0
140051,-100,4,2,0,70,0,0
153892,-74.0740740740741,4,2,0,70,0,0
156414,-74.0740740740741,4,1,0,50,0,0
156960,-74.0740740740741,4,2,0,70,0,0
157949,428.571428571429,4,2,0,50,1,0
158591,428.571428571429,4,2,0,50,1,0
164908,428.571428571429,4,1,0,100,1,0
165550,-100,4,1,0,50,0,0
165765,428.571428571429,4,1,0,100,1,1
165765,-100,4,1,0,80,0,1
170586,-100,4,1,0,40,0,1
171015,-100,4,1,0,80,0,1
177443,-100,4,1,0,40,0,1
177872,-100,4,1,0,50,0,1
178086,-100,4,1,0,60,0,1
178515,-100,4,1,0,80,0,1
179372,-100,4,1,0,80,0,1
179800,-100,4,1,0,40,0,1
180015,-100,4,1,0,80,0,1
180658,-100,4,1,0,40,0,1
180872,-100,4,1,0,80,0,1
182318,-100,4,1,0,10,0,1
182425,-100,4,1,0,80,0,1
184515,-100,4,1,0,40,0,1
184729,-100,4,1,0,80,0,1
185158,-100,4,2,0,80,0,1
185372,-100,4,1,0,40,0,1
185586,-100,4,1,0,80,0,1
186015,-100,4,2,0,80,0,1
186229,-100,4,1,0,80,0,1
186658,-100,4,1,0,40,0,1
186872,-100,4,1,0,80,0,1
187515,-100,4,1,0,40,0,1
187729,-100,4,1,0,80,0,1
191586,-100,4,1,0,40,0,1
192229,-100,4,1,0,80,0,1
192443,-100,4,1,0,40,0,1
192770,-100,4,2,0,100,0,1
206908,-100,4,1,0,100,0,0
222482,428.571428571429,4,1,0,100,1,0
224186,714.285714285714,4,1,0,100,1,0
224900,857.142857142857,4,1,0,100,1,0
225750,428.571428571429,4,1,0,100,1,0

[HitObjects]
128,96,4216,2,0,B|48:96,2,80,4|0|8,0:0|0:0|0:0,0:0:0
256,96,5073,2,0,B|344:96|384:176,1,160,0|8,0:0|0:0,0:0:0
384,304,5930,1,0,0:0:0
256,304,6358,2,0,B|176:304|176:304|120:248,2,160,8|0|8,0:0|0:0|0:0,0:0:0
192,192,7644,6,0,B|256:136,2,80,0|0|8,0:0|0:0|0:0,0:0:0
88,112,8501,1,0,0:0:0
192,32,8930,2,0,B|272:32|328:104,1,160,8|0,0:0|0:0,0:0:0
400,208,9787,1,8,0:0:0
328,312,10216,2,0,B|272:312|272:312|240:336|240:336|176:336,1,160,0|8,0:0|0:0,0:0:0
48,336,11073,5,0,0:0:0
72,280,11287,1,0,0:0:0
96,224,11501,2,0,B|128:136|56:80,1,160,8|0,0:0|0:0,0:0:0
184,48,12358,2,0,B|264:48|328:112,1,160,8|0,0:0|0:0,0:0:0
424,192,13215,1,8,0:0:0
326,273,13644,2,0,B|264:336|184:336,1,160,0|8,0:0|0:0,0:0:0
56,336,14501,6,0,B|16:264,2,80,0|0|8,0:0|0:0|0:0,0:0:0
152,248,15358,1,0,0:0:0
80,136,15787,2,0,B|160:136|224:72,1,160,8|0,0:0|0:0,0:0:0
352,72,16644,2,0,B|424:120|424:120|424:192,1,160,8|0,0:0|0:0,0:0:0
392,320,17501,6,0,B|320:272|320:272|320:200,1,160,8|4,0:0|0:0,0:0:0
256,192,18144,1,0,0:0:0
192,198,18358,2,0,B|192:272|192:272|120:320,2,160,8|0|8,0:0|0:0|0:0,0:0:0
88,120,19644,1,0,0:0:0
192,40,20073,1,8,0:0:0
320,40,20501,1,0,0:0:0
424,120,20930,1,8,0:0:0
424,248,21358,6,0,B|371:306,1,80,4|0,0:0|0:0,0:0:0
328,352,21787,2,0,B|240:352|200:264,1,160,8|0,0:0|0:0,0:0:0
136,160,22644,1,8,0:0:0
200,48,23073,2,0,B|288:48|328:136,2,160,0|8|0,0:0|0:0|0:0,0:0:0
72,48,24358,1,8,0:0:0
136,160,24787,6,0,B|88:160|64:200,2,80,0|0|8,0:0|0:0|0:0,0:0:0
152,288,25644,1,0,0:0:0
256,208,26073,1,8,0:0:0
360,288,26501,1,0,0:0:0
376,160,26930,2,0,B|376:80|288:32,2,160,8|0|8,0:0|0:0|0:0,0:0:0
256,208,28215,6,0,B|256:296,1,80
200,320,28644,2,0,B|256:376|256:376|312:320,1,160,8|0,0:0|0:0,0:0:0
400,224,29501,1,8,0:0:0
320,120,29930,1,0,0:0:0
192,120,30358,1,8,0:0:0
112,224,30787,1,0,0:0:0
184,328,31215,1,8,0:0:0
256,224,31644,6,0,B|288:272|352:296|352:296|328:328,1,160,4|4,0:0|0:0,0:0:0
408,240,32623,2,0,B|408:152|336:104,1,160,4|4,0:0|0:0,0:0:0
208,104,33837,1,4,0:0:0
136,216,34437,5,0,0:0:0
264,216,35037,1,0,0:0:0
136,216,35637,1,0,0:0:0
8,216,36237,1,0,0:0:0
136,216,36837,1,0,0:0:0
136,88,37437,1,0,0:0:0
136,216,38037,1,0,0:0:0
136,344,38637,1,0,0:0:0
200,344,38937,5,0,0:0:0
264,344,39237,1,0,0:0:0
232,288,39537,1,0,0:0:0
296,280,39837,2,0,B|400:304|432:184|272:136|432:56,1,320
448,184,41637,1,0,0:0:0
464,312,42237,1,0,0:0:0
336,312,42837,1,0,0:0:0
344,184,43437,6,0,B|248:248|184:160,2,160
408,184,44937,1,0,0:0:0
408,184,45237,1,0,0:0:0
408,184,45537,1,0,0:0:0
408,248,45837,2,0,B|408:336|272:336,2,160
280,216,47637,1,0,0:0:0
400,184,48237,6,0,B|400:120|296:40|176:64|144:208,1,320
264,240,50037,1,0,0:0:0
392,248,50637,6,0,B|392:312|288:392|168:368|136:224,1,320
256,200,52437,1,0,0:0:0
320,200,52737,1,0,0:0:0
384,200,53037,2,0,B|384:112|280:88,2,160
384,264,54537,2,0,B|384:344,4,80
320,264,56037,1,0,0:0:0
256,264,56337,1,0,0:0:0
288,192,56637,6,0,B|288:112,3,80
432,144,57729,2,0,B|512:144|512:288,3,160
448,264,58964,2,0,B|448:368,2,80
320,288,59670,2,0,B|200:288,2,80
384,176,60376,1,0,0:0:0
384,176,60729,1,0,0:0:0
256,176,61082,1,0,0:0:0
256,176,61435,1,0,0:0:0
256,192,61788,12,0,62847,0:0:0
144,104,63200,6,0,B|96:176|160:256,2,160
248,176,64258,1,0,0:0:0
344,96,64611,2,0,B|400:160|368:264,2,160
248,176,65670,2,0,B|272:256,2,80
376,168,66376,5,0,0:0:0
504,168,66729,1,0,0:0:0
440,56,67082,1,0,0:0:0
312,56,67435,2,0,B|240:112|272:232,1,160
384,152,68141,2,0,B|448:232|416:312,1,160
72,112,68847,6,0,B|152:72|232:112,1,160,4|0,0:0|0:0,0:0:0
336,272,68849,5,0,0:0:0
304,208,69553,2,0,B|224:248|144:208,1,160
80,320,70258,2,0,B|160:360|240:320,1,160,0|0,0:0|0:0,0:0:0
296,320,70788,1,0,0:0:0
296,320,71317,1,0,0:0:0
424,296,71670,6,0,B|424:120,1,160,2|0,0:0|0:0,0:0:0
320,64,72376,2,0,B|320:232,1,160
216,296,73082,2,0,B|216:128,1,160
216,72,73611,1,0,0:0:0
216,72,74141,1,0,0:0:0
88,96,74494,5,2,0:0:0
112,224,74847,1,0,0:0:0
240,200,75200,1,2,0:0:0
240,200,75376,1,0,0:0:0
216,72,75729,2,0,B|248:48|296:56,1,80,0|2,0:0|0:0,0:0:0
296,120,76082,2,0,B|336:128|376:104,1,80
376,232,76611,5,2,0:0:0
256,280,76964,1,0,0:0:0
136,232,77317,1,4,0:0:0
136,232,78729,6,0,B|88:232,16,40,0|0|0|0|0|0|0|0|0|0|0|0|0|0|0|0|4,0:0|0:0|0:0|0:0|0:0|0:0|0:0|0:0|0:0|0:0|0:0|0:0|0:0|0:0|0:0|0:0|0:0,0:0:0
104,112,80494,5,8,0:0:0
104,112,80670,2,0,B|192:136|264:72,1,160,8|0,0:0|0:0,0:0:0
320,72,81200,1,8,0:0:0
376,104,81376,2,0,B|448:152|440:248,1,160,2|0,0:0|0:0,0:0:0
440,304,81905,1,8,0:0:0
440,304,82082,1,8,0:0:0
256,344,82611,1,8,0:0:0
160,264,82964,6,0,B|192:184|160:104,1,160,2|8,0:0|0:0,0:0:0
96,104,83494,2,0,B|64:184|96:264,1,160,8|2,0:0|0:0,0:0:0
160,264,84023,1,8,0:0:0
256,176,84376,1,4,0:0:0
376,144,84729,1,8,0:0:0
408,264,85082,1,4,0:0:0
288,296,85435,1,8,0:0:0
160,264,85788,5,2,0:0:0
80,168,86141,1,8,0:0:0
80,168,86317,2,0,B|128:152|192:184|240:168,1,160,8|2,0:0|0:0,0:0:0
304,168,86847,1,8,0:0:0
432,168,87200,1,0,0:0:0
368,280,87553,1,8,0:0:0
368,280,87729,1,8,0:0:0
368,88,88258,1,8,0:0:0
240,88,88611,5,2,0:0:0
112,88,88964,1,8,0:0:0
112,88,89141,1,8,0:0:0
176,192,89494,1,0,0:0:0
176,192,89670,1,8,0:0:0
176,192,89847,1,4,0:0:0
176,192,90023,6,0,B|168:216|184:240|176:272,7,80,0|0|8|8|0|0|8|0,0:0|0:0|0:0|0:0|0:0|0:0|0:0|0:0,0:0:0
208,328,91435,6,0,B|288:360|368:328,1,160,4|8,0:0|0:0,0:0:0
440,224,92141,2,0,B|360:192|280:224,1,160,2|8,0:0|0:0,0:0:0
216,224,92670,2,0,B|136:256|48:224,1,160,2|0,0:0|0:0,0:0:0
59,227,93200,1,8,0:0:0
59,227,93376,1,8,0:0:0
56,96,93729,1,4,0:0:0
56,96,93905,1,8,0:0:0
184,96,94258,6,0,B|352:96,1,160,2|8,0:0|0:0,0:0:0
424,200,94964,2,0,B|264:200,1,160,2|8,0:0|0:0,0:0:0
200,200,95494,2,0,B|216:304|144:336,1,160,2|0,0:0|0:0,0:0:0
80,344,96023,1,8,0:0:0
80,216,96376,1,0,0:0:0
80,88,96729,1,8,0:0:0
208,88,97082,5,4,0:0:0
208,216,97435,1,8,0:0:0
208,216,97611,2,0,B|384:216,1,160,8|0,0:0|0:0,0:0:0
432,216,98141,1,8,0:0:0
488,328,98494,2,0,B|328:328,1,160,2|8,0:0|0:0,0:0:0
264,328,99023,1,8,0:0:0
264,328,99553,1,8,0:0:0
176,240,99905,5,0,0:0:0
264,144,100258,1,8,0:0:0
264,144,100435,1,8,0:0:0
352,240,100788,1,2,0:0:0
352,240,100964,5,8,0:0:0
264,328,101317,1,0,0:0:0
176,240,101670,1,8,0:0:0
176,240,101847,1,8,0:0:0
176,240,102023,5,0,0:0:0
256,136,102376,1,0,0:0:0
336,40,102729,2,0,B|432:24|456:120,1,160,2|8,0:0|0:0,0:0:0
392,232,103435,2,0,B|408:328|312:352,1,160,2|8,0:0|0:0,0:0:0
197,351,104141,2,0,B|104:328|120:232,1,160,2|8,0:0|0:0,0:0:0
56,117,104847,2,0,B|80:24|176:40,2,160,2|8|2,0:0|0:0|0:0,0:0:0
160,192,105905,5,8,0:0:0
256,104,106258,1,0,0:0:0
352,192,106611,2,0,B|432:192,2,80,8|0|2,0:0|0:0|0:0,0:0:0
160,368,107670,5,0,0:0:0
32,368,108023,1,8,0:0:0
96,256,108376,2,0,B|16:192|96:120,1,160,2|8,0:0|0:0,0:0:0
192,40,109082,2,0,B|256:-40|328:40,1,160,2|8,0:0|0:0,0:0:0
400,144,109788,1,2,0:0:0
256,360,110494,6,0,B|256:280,4,80,2|0|8|0|4,0:0|0:0|0:0|0:0|0:0,0:0:0
376,136,111905,6,0,B|448:72,4,80,2|0|8|0|4,0:0|0:0|0:0|0:0|0:0,0:0:0
256,88,112964,5,8,0:0:0
256,88,113141,1,0,0:0:0
256,88,113317,2,0,B|184:24|112:88,1,160,2|8,0:0|0:0,0:0:0
112,344,114376,6,0,B|24:344,2,80,8|0|2,0:0|0:0|0:0,0:0:0
232,344,115082,2,0,B|400:344,1,160,8|4,0:0|0:0,0:0:0
384,216,115788,5,8,0:0:0
384,216,115964,1,0,0:0:0
384,216,116141,2,0,B|320:144|392:72,1,160,2|8,0:0|0:0,0:0:0
136,48,117200,6,0,B|32:48,2,80,8|0|0,0:0|0:0|0:0,0:0:0
216,144,117905,2,0,B|40:144,1,160,8|4,0:0|0:0,0:0:0
152,224,118611,5,8,0:0:0
152,224,118788,1,0,0:0:0
152,224,118964,2,0,B|64:288|152:352,2,160,2|8|0,0:0|0:0|0:0,0:0:0
232,128,120023,5,8,0:0:0
232,128,120200,1,0,0:0:0
232,128,120376,2,0,B|296:40|360:128,2,160,2|8|4,0:0|0:0|0:0,0:0:0
296,240,121435,5,8,0:0:0
296,240,121611,1,0,0:0:0
296,240,121788,2,0,B|360:328|424:240,2,160,2|8|0,0:0|0:0|0:0,0:0:0
472,48,123200,6,0,B|384:48,4,80,2|0|8|0|4,0:0|0:0|0:0|0:0|0:0,0:0:0
256,192,124611,6,0,B|256:280,4,80,2|0|8|0|4,0:0|0:0|0:0|0:0|0:0,0:0:0
46,42,125921,6,0,B|112:88,4,80,2|0|8|0|4,0:0|0:0|0:0|0:0|0:0,0:0:0
112,296,127149,6,0,B|32:352,4,80,2|0|8|0|4,0:0|0:0|0:0|0:0|0:0,0:0:0
256,80,128307,6,0,B|256:168,4,80,2|0|8|0|4,0:0|0:0|0:0|0:0|0:0,0:0:0
304,224,129142,6,0,B|400:224,2,80,2|0|0,0:0|0:0|0:0,0:0:0
304,224,129688,1,4,0:0:0
304,328,129960,6,0,B|376:368,4,80,2|0|2|0|4,0:0|0:0|0:0|0:0|0:0,0:0:0
208,240,130779,6,0,B|112:240,2,80,2|0|0,0:0|0:0|0:0,0:0:0
208,240,131324,1,4,0:0:0
208,136,131597,6,0,B|136:96,4,80,2|0|2|0|4,0:0|0:0|0:0|0:0|0:0,0:0:0
328,64,132687,5,8,0:0:0
456,64,133232,1,2,0:0:0
392,176,133778,2,0,B|328:248|392:320,1,160,8|4,0:0|0:0,0:0:0
264,344,134869,5,8,0:0:0
136,344,135414,5,2,0:0:0
40,264,135960,2,4,B|104:192|40:120,1,160,8|0,0:0|0:0,0:0:0
256,80,140596,5,0,0:0:0
336,104,140869,2,0,B|413:142|409:240,2,160
256,80,142232,1,0,0:0:0
176,72,142505,1,0,0:0:0
96,208,143051,6,0,B|184:232|183:325,1,160
256,280,143869,1,0,0:0:0
328,325,144141,2,0,B|328:232|415:208,1,160
328,72,145232,6,0,B|256:8|184:72,2,160
256,120,146596,1,0,0:0:0
256,200,146869,1,0,0:0:0
120,280,147414,6,0,B|80:296|40:296,2,80
190,242,148232,1,0,0:0:0
256,200,148505,1,0,0:0:0
400,72,149323,5,0,0:0:0
464,120,149596,2,0,B|504:160|504:224|464:264,1,160
416,192,150414,1,0,0:0:0
416,192,150687,2,0,B|208:192,1,160
48,120,151778,6,0,B|8:160|8:224|48:264,1,160
96,192,152596,1,0,0:0:0
96,192,152869,2,0,B|304:192,1,160
256,192,153960,12,0,155869,0:0:0
344,304,157939,5,0,0:0:0
272,264,157949,6,0,B|360:256|424:168|400:96,2,240,2|0|0,0:0|0:0|0:0,0:0:0
256,136,159663,2,0,B|168:144|104:232|128:304,2,240,2|0|0,0:0|0:0|0:0,0:0:0
272,264,161377,6,0,B|56:152,2,240,2|0|0,0:0|0:0|0:0,0:0:0
400,248,163091,1,2,0:0:0
312,152,163520,1,2,0:0:0
312,152,163734,2,0,B|164:72,1,160,2|0,0:0|0:0,0:0:0
184,300,164908,6,0,B|120:312|120:312|72:288|72:236,2,160,2|0|4,0:0|0:0|0:0,0:0:0
256,196,166193,1,0,0:0:0
320,84,166622,2,0,B|400:84,2,80,2|0|0,0:0|0:0|0:0,0:0:0
256,84,167265,1,0,0:0:0
192,84,167479,2,0,B|96:96|80:180,1,160
144,292,168336,6,0,B|240:280|256:196,1,160,2|0,0:0|0:0,0:0:0
320,84,169193,2,0,B|404:100|416:196,2,160,0|0|2,0:0|0:0|0:0,0:0:0
256,196,170479,2,0,B|256:276,2,80,0|0|4,0:0|0:0|0:0,0:0:0
256,132,171122,1,0,0:0:0
256,68,171336,1,0,0:0:0
176,168,171765,6,0,B|140:208|140:208|96:232|36:220,2,160,2|0|4,0:0|0:0|0:0,0:0:0
176,296,173050,1,0,0:0:0
300,256,173479,2,0,B|340:268|380:256,2,80,2|0|0,0:0|0:0|0:0,0:0:0
272,200,174122,1,0,0:0:0
260,136,174336,2,0,B|340:108|416:136,1,160
476,248,175193,6,0,B|452:328|360:344,1,160,2|0,0:0|0:0,0:0:0
295,344,175836,2,0,B|155:319|119:199,1,240,0|0,0:0|0:0,0:0:0
104,136,176693,1,2,0:0:0
292,88,177336,1,0,0:0:0
292,88,177550,2,0,B|384:104|408:184,2,160,4|4|4,0:0|0:0|0:0,0:0:0
292,88,178622,5,0,0:0:0
40,48,179479,6,2,B|75:55|109:90|123:138|112:172,1,160,2|8,0:0|0:0,0:0:0
136,336,180336,2,2,B|171:328|205:293|219:245|208:211,1,160,2|8,0:0|0:0,0:0:0
296,72,181193,2,0,B|224:104,1,80,0|2,0:0|0:0,0:0:0
168,128,181622,1,8,0:0:0
320,176,182050,2,0,B|368:152|368:152|435:177|448:112,2,160,2|8|4,0:0|0:0|0:0,0:0:0
256,184,183122,6,0,B|212:204|215:251,1,80,0|8,0:0|0:0,0:0:0
215,308,183550,1,2,0:0:0
265,351,183765,1,2,0:0:0
392,320,184193,1,8,0:0:0
464,208,184622,2,0,B|481:167|439:140|439:140|453:92|414:72,3,160,2|8|2|8,0:0|0:0|0:0|0:0,0:0:0
256,40,186336,6,2,B|220:28|172:42|137:76|129:111,1,160,2|2,0:0|0:0,0:0:0
256,192,187193,2,2,B|291:180|339:194|374:228|381:263,1,160,2|2,0:0|0:0,0:0:0
256,344,188050,1,0,0:0:0
192,336,188265,2,0,B|148:341|120:304,1,80,2|8,0:0|0:0,0:0:0
144,176,188907,2,2,B|112:224|112:224|55:230|41:287,2,160,2|2|4,0:0|0:0|0:0,0:0:0
160,112,189979,6,0,B|176:64|224:64,1,80,0|8,0:0|0:0,0:0:0
280,56,190407,1,0,0:0:0
344,64,190622,2,0,B|392:93|440:64|440:64|472:112,1,160,8|8,0:0|0:0,0:0:0
352,168,191479,6,0,B|272:192,1,80,0|2,0:0|0:0,0:0:0
216,216,191907,2,0,B|184:288,1,80,8|2,0:0|0:0,0:0:0
200,352,192336,1,0,0:0:0
328,320,192765,5,0,0:0:0
380,204,193193,2,0,B|424:204|424:204|456:204|480:220|492:236,2,120,2|2|0,0:0|0:0|0:0,0:0:0
184,64,194479,1,0,0:0:0
132,180,194907,2,0,B|88:180|88:180|56:180|32:164|20:148,2,120,2|2|0,0:0|0:0|0:0,0:0:0
212,180,195765,6,0,B|212:208|212:232|256:264|300:228|300:208|300:180,1,160,2|0,0:0|0:0,0:0:0
424,212,196622,2,0,B|424:280|376:316|376:316|344:340,1,160,2|0,0:0|0:0,0:0:0
169,341,197479,2,0,B|136:316|136:316|88:280|88:212,1,160,2|0,0:0|0:0,0:0:0
180,124,198336,2,0,B|256:100|256:100|332:124,1,160,2|2,0:0|0:0,0:0:0
256,228,199193,5,0,0:0:0
256,228,199622,1,0,0:0:0
340,324,200050,6,0,B|416:324|480:252|452:172|400:136|400:136|356:104,1,320,2|0,0:0|0:0,0:0:0
256,20,201336,1,0,0:0:0
157,103,201765,2,0,B|112:136|112:136|60:172|32:252|96:324|172:324,1,320,2|0,0:0|0:0,0:0:0
256,228,203050,1,0,0:0:0
376,268,203479,6,0,B|388:168|388:168|356:116,2,160,2|0|0,0:0|0:0|0:0,0:0:0
256,312,204765,1,0,0:0:0
136,268,205193,2,0,B|124:168|124:168|156:116,2,160,4|0|4,0:0|0:0|0:0,0:0:0
260,180,206479,5,2,0:0:0
448,296,206907,6,0,B|400:368|288:328,2,160
416,168,208193,1,0,0:0:0
392,112,208407,1,0,0:0:0
360,56,208622,6,0,B|192:16|32:64,2,320
280,152,210765,1,0,0:0:0
152,128,211193,2,0,B|48:256,1,160
160,328,212050,6,0,B|328:384|480:320,2,320
256,240,214193,1,0,0:0:0
376,280,214622,2,0,B|432:280|448:224|432:176|368:176,1,160
304,72,215479,6,0,B|216:104|120:80,2,160,0|2|0,0:0|0:0|0:0,0:0:0
432,88,216765,1,2,0:0:0
488,208,217193,2,0,B|416:360,1,160,0|2,0:0|0:0,0:0:0
392,224,218050,2,0,B|320:368,1,160,0|2,0:0|0:0,0:0:0
256,256,218907,5,0,0:0:0
256,96,219765,1,2,0:0:0
104,152,220622,6,0,B|48:224|72:344,1,200,0|8,0:0|0:0,0:0:0
192,296,221479,1,0,0:0:0
192,296,222122,1,8,0:0:0
296,264,222482,6,0,B|368:304|464:288,1,160
472,232,223124,5,0,0:0:0
464,168,223339,2,0,B|304:160,1,160
256,216,224187,6,2,B|232:296|136:304,1,160
256,352,225758,1,0,0:0:0
256,192,225972,12,0,228758,0:0:0
