osu file format v10

[General]
AudioFilename: The GAG Quartet - le Internet Medley.mp3
AudioLeadIn: 0
PreviewTime: 4216
Countdown: 1
SampleSet: None
StackLeniency: 0.7
Mode: 0
LetterboxInBreaks: 1

[Editor]
Bookmarks: 4216,33822,68937,101319,136505,140051,157846,165550,172408,172943,175193,175622,179211,192336,193300,206800
DistanceSpacing: 0.8
BeatDivisor: 4
GridSize: 4

[Metadata]
Title:le Internet Medley
TitleUnicode:le Internet Medley
Artist:The GAG Quartet
ArtistUnicode:The GAG Quartet
Creator:Bass-chan
Version:Insanenewtiming
Source:
Tags:collab kert gonzvlo aleks719 aleks mustaash doomsday agnes deif blue dragon nogard lilac lily osuplayer111 andrea sushi reiji-rj tony gyt copter-kun onosakihito ozzyozrock firce777 firce kurisuchianu zlew mmzz backfire sherrie__fay nyan cat nyan cat metal version ievan's polka loituma keyboard cat chacarron macarron el mudo numa numa yey o-zone dragostea din tei rebecca black friday rick astley rickroll never gonna give you up tay zonday chocolate rain imma firin mah lazor all your base are belong to us dramatic chipmunk
BeatmapID:188599
BeatmapSetID:39932

[Difficulty]
HPDrainRate:7
CircleSize:4
OverallDifficulty:8
ApproachRate:8
SliderMultiplier:2.4
SliderTickRate:2

[Events]
//Background and Video events
Video,0,"le Internet Medley.avi"
0,0,"lebg.jpg"
//Break Periods
//Storyboard Layer 0 (Background)
Sprite,Background,Centre,"lebg.jpg",320,240 S,0,0,,0.625 M,0,186499,,321,240 F,0,225750,228321,1,0.4 F,0,228321,234353,0.4 F,0,234353,235210,0.4,0
//Storyboard Layer 1 (Fail)
//Storyboard Layer 2 (Pass)
//Storyboard Layer 3 (Foreground)
Sprite,Foreground,Centre,"SB\k.png",500,452 L,0,17 M,0,2501,2608,500,452,500,448 M,0,2608,2715,500,448,500,452 M,0,2715,4216,500,452 S,0,787,894,1,1.18 S,0,894,1001,1.18,1 S,0,1001,,1 C,0,2501,,255,0,0
Sprite,Foreground,Centre,"SB\e.png",536,452 L,0,17 M,0,2930,3037,536,452,536,448 M,0,3037,3144,536,448,536,452 M,0,3144,4644,536,452 S,0,1215,1323,1,1.18 S,0,1323,1430,1.18,1 S,0,1430,,1 C,0,2930,,255,255,0
Sprite,Foreground,Centre,"SB\r.png",572,452 L,0,17 M,0,3358,3466,572,452,572,448 M,0,3466,3573,572,448,572,452 M,0,3573,5073,572,452 S,0,1644,1751,1,1.18 S,0,1751,1858,1.18,1 S,0,1858,,1 C,0,3358,,128,255,0
Sprite,Foreground,Centre,"SB\t.png",608,452 L,0,17 M,0,3787,3894,608,452,608,448 M,0,3894,4001,608,448,608,452 M,0,4001,5501,608,452 S,0,2073,2180,1,1.18 S,0,2180,2287,1.18,1 S,0,2287,,1 C,0,3787,,0,128,255
Sprite,Foreground,Centre,"SB\l.png",320,240 C,0,33822,,51,242,152 M,1,33822,35022,320,452,356,452 F,0,33822,68849,1 F,0,68849,69202,1,0 S,0,68849,69202,1,1.12
Sprite,Foreground,Centre,"SB\a.png",320,452 C,0,33822,,51,242,152 F,0,33822,68849,1 F,0,68849,69202,1,0 S,0,68849,69202,1,1.12
Sprite,Foreground,Centre,"SB\e.png",320,240 C,0,33822,,12,175,98 M,1,33822,35022,320,452,392,452 F,0,33822,68849,1 F,0,68849,69202,1,0 S,0,68849,69202,1,1.12
Sprite,Foreground,Centre,"SB\k.png",320,240 M,1,33822,35022,320,452,428,452 F,0,33822,68849,1 F,0,68849,69202,1,0 S,0,68849,69202,1,1.12
Sprite,Foreground,Centre,"SB\s.png",320,240 M,1,33822,35022,320,452,464,452 F,0,33822,68849,1 F,0,68849,69202,1,0 S,0,68849,69202,1,1.12
Sprite,Foreground,Centre,"SB\7.png",320,240 C,0,33822,,12,175,98 M,1,33822,35022,320,452,500,452 F,0,33822,68849,1 F,0,68849,69202,1,0 S,0,68849,69202,1,1.12
Sprite,Foreground,Centre,"SB\1.png",320,240 C,0,33822,,51,242,152 M,1,33822,35022,320,452,536,452 F,0,33822,68849,1 F,0,68849,69202,1,0 S,0,68849,69202,1,1.12
Sprite,Foreground,Centre,"SB\9.png",320,240 C,0,33822,,51,242,152 M,1,33822,35022,320,452,572,452 F,0,33822,68849,1 F,0,68849,69202,1,0 S,0,68849,69202,1,1.12
Sprite,Foreground,Centre,"SB\polkkkka.png",320,240 L,0,30 M,1,38622,38772,608,450,613,458 R,1,38622,38772,0,0.5 M,2,38772,39222,613,458,608,450 R,2,38772,39222,0.5,0 L,0,31 M,2,57545,57731,608,450,613,458 R,2,57545,57731,0,0.5 M,1,57731,57907,613,458,608,450 R,1,57731,57907,0.5,0 M,1,33822,35022,320,450,608,450 F,0,33822,68849,1 M,0,35022,38622,608,450 M,0,56622,56737,608,450,613,458 R,0,56622,56737,0,0.5 M,0,56737,56852,613,458,608,450 R,0,56737,56852,0.5,0 M,0,56852,56968,608,450,613,458 R,0,56852,56968,0,0.5 M,0,56968,57083,613,458,608,450 R,0,56968,57083,0.5,0 M,0,57083,57198,608,450,613,458 R,0,57083,57198,0,0.5 M,0,57198,57314,613,458,608,450 R,0,57198,57314,0.5,0 M,0,57314,57429,608,450,613,458 R,0,57314,57429,0,0.5 M,0,57429,57545,613,458,608,450 R,0,57429,57545,0.5,0 F,0,68849,69202,1,0 S,0,68849,69202,1,1.12
Sprite,Foreground,Centre,"SB\m.png",320,240 L,0,11 S,0,71672,71760,1,0.9 S,0,71760,71849,0.9,1 S,0,71849,74496,1 F,0,68849,69202,0,1 S,0,68849,69202,0.8,1 S,0,69202,71672,1 M,0,69202,101319,348,452 F,0,69202,101319,1 M,0,101319,101407,348,452,385,448 F,0,101319,102025,1,0 M,0,101407,101496,349,448,381,452 M,0,101496,101584,345,452,378,447 M,0,101584,101672,342,447,386,454 M,0,101672,101760,350,454,388,448 M,0,101760,101849,352,448,384,449 M,0,101849,101937,348,449,382,453 M,0,101937,102025,346,453,386,450
Sprite,Foreground,Centre,"SB\u.png",320,240 L,0,12 S,0,69202,69290,1,0.9 S,0,69290,69378,0.9,1 S,0,69378,72025,1 F,0,68849,69202,0,1 S,0,68849,69202,0.8,1 C,0,69202,,190,190,190 M,0,69202,101319,392,452 F,0,69202,101319,1 M,0,101319,101407,392,452,428,453 F,0,101319,102025,1,0 M,0,101407,101496,392,453,430,446 M,0,101496,101584,394,446,426,451 M,0,101584,101672,390,451,421,452 M,0,101672,101760,385,452,427,454 M,0,101760,101849,391,454,434,449 M,0,101849,101937,398,449,426,453 M,0,101937,102025,390,453,428,453
Sprite,Foreground,Centre,"SB\s.png",320,240 L,0,12 S,0,69555,69643,1,0.9 S,0,69643,69731,0.9,1 S,0,69731,72378,1 F,0,68849,69202,0,1 S,0,68849,69202,0.8,1 S,0,69202,69555,1 M,0,69202,101319,428,452 F,0,69202,101319,1 M,0,101319,101407,428,452,458,450 F,0,101319,102025,1,0 M,0,101407,101496,422,450,464,454 M,0,101496,101584,428,454,470,446 M,0,101584,101672,434,446,459,451 M,0,101672,101760,423,451,465,453 M,0,101760,101849,429,453,461,449 M,0,101849,101937,425,449,459,455 M,0,101937,102025,423,455,462,450
Sprite,Foreground,Centre,"SB\t.png",320,240 L,0,12 S,0,69907,69996,1,0.9 S,0,69996,70084,0.9,1 S,0,70084,72731,1 F,0,68849,69202,0,1 S,0,68849,69202,0.8,1 S,0,69202,69907,1 M,0,69202,101319,464,452 F,0,69202,101319,1 M,0,101319,101407,464,452,492,452 F,0,101319,102025,1,0 M,0,101407,101496,456,452,500,446 M,0,101496,101584,464,446,493,449 M,0,101584,101672,457,449,498,455 M,0,101672,101760,462,455,508,452 M,0,101760,101849,472,452,483,456 M,0,101849,101937,447,456,494,450 M,0,101937,102025,458,450,500,454
Sprite,Foreground,Centre,"SB\a.png",320,240 L,0,11 S,0,70260,70349,1,0.9 S,0,70349,71231,0.9 S,0,71231,71319,0.9,1 S,0,71319,73084,1 F,0,68849,69202,0,1 S,0,68849,69202,0.8,1 S,0,69202,70260,1 M,0,69202,101319,500,452 F,0,69202,101319,1 C,0,70260,,190,190,190 M,0,101319,101407,500,452,529,458 F,0,101319,102025,1,0 M,0,101407,101496,493,458,534,440 M,0,101496,101584,498,440,518,448 M,0,101584,101672,482,448,529,452 M,0,101672,101760,493,452,523,459 M,0,101760,101849,487,459,544,452 M,0,101849,101937,508,452,532,452 M,0,101937,102025,496,452,529,452
Sprite,Foreground,Centre,"SB\a.png",320,240 L,0,11 S,0,70613,70702,1,0.9 S,0,70702,70790,0.9,1 S,0,70790,73437,1 F,0,68849,69202,0,1 S,0,68849,69202,0.8,1 S,0,69202,70613,1 M,0,69202,101319,536,452 F,0,69202,101319,1 M,0,101319,101407,536,452,560,452 F,0,101319,102025,1,0 M,0,101407,101496,524,452,569,453 M,0,101496,101584,533,453,559,452 M,0,101584,101672,523,452,564,444 M,0,101672,101760,528,444,555,457 M,0,101760,101849,519,457,568,456 M,0,101849,101937,532,456,582,456 M,0,101937,102025,546,456,564,454
Sprite,Foreground,Centre,"SB\s.png",320,240 L,0,10 S,0,70790,70878,1,0.9 S,0,70878,71231,0.9 S,0,71231,71319,0.9,1 S,0,71319,73613,1 L,1232,10 C,2,102731,103437,255,0,0,255,255,255 C,2,103437,104143,255,255,255,0,0,255 C,2,104143,104849,0,0,255,255,0,0 F,0,68849,69202,0,1 S,0,68849,69202,0.8,1 S,0,69202,70790,1 M,0,69202,101317,572,452 F,0,69202,101317,1 S,0,99020,99113,1,0.9 S,0,99113,99466,0.9 S,0,99466,99554,0.9,1 S,0,99554,101319,1 M,0,101317,101405,572,452,578,434 F,0,101317,102025,1,0 S,0,101319,101672,1 M,0,101405,101494,578,434,561,445 M,0,101494,101582,561,445,580,458 M,0,101582,101672,580,458,572,452 M,0,101672,101758,572,452,562,445 C,2,101672,102025,255,255,255,255,0,0 M,0,101758,101847,562,445,553,459 M,0,101847,101935,553,459,578,439 M,0,101935,102025,578,439,572,452
Sprite,Foreground,Centre,"SB\y.png",320,240 L,1232,10 C,2,102731,103437,255,0,0,255,255,255 C,2,103437,104143,255,255,255,0,0,255 C,2,104143,104849,0,0,255,255,0,0 F,0,101670,102025,0,1 M,0,101672,102025,608,452 C,2,101672,102025,255,255,255,255,0,0 F,0,102025,102113,1 F,0,102113,136506,1 F,0,136506,137597,1,0
Sprite,Foreground,Centre,"SB\d.png",320,240 L,0,10 C,2,102731,103437,255,255,255,0,0,255 C,2,103437,104143,0,0,255,255,0,0 C,2,104143,104849,255,0,0,255,255,255 M,0,101319,101407,349,443,346,454 F,0,101319,102025,0,1 M,0,101407,101496,346,454,351,450 M,0,101496,101584,351,450,343,452 M,0,101584,101672,343,452,351,439 M,0,101672,101760,351,439,348,456 M,0,101760,101849,348,456,342,454 M,0,101849,101937,342,454,340,446 M,0,101937,102025,340,446,340,452 F,0,102025,136506,1 F,0,136506,137597,1,0
Sprite,Foreground,Centre,"SB\h.png",320,240 L,0,10 S,0,70790,70878,1,0.9 S,0,70878,71231,0.9 S,0,71231,71319,0.9,1 S,0,71319,73613,1 F,0,68849,69202,0,1 S,0,68849,69202,0.8,1 S,0,69202,70790,1 F,0,69202,101052,1 M,0,69202,101672,608,452 S,0,99020,99113,1,0.9 S,0,99113,99466,0.9 S,0,99466,99554,0.9,1 S,0,99554,101319,1 F,0,101052,102025,1,0 S,0,101319,101496,1,1.18 S,0,101496,101672,1.18,1
Sprite,Foreground,Centre,"SB\o.png",320,240 L,176,10 C,2,102731,103437,255,255,255,0,0,255 C,2,103437,104143,0,0,255,255,0,0 C,2,104143,104849,255,0,0,255,255,255 M,0,101319,101407,385,457,385,446 F,0,101319,102025,0,1 M,0,101407,101496,385,446,396,452 M,0,101496,101584,396,452,382,454 M,0,101584,101672,382,454,393,442 M,0,101672,101760,393,442,395,459 M,0,101760,101849,395,459,378,454 M,0,101849,101937,378,454,393,454 M,0,101937,102025,393,454,376,452 F,0,102025,136506,1 F,0,136506,137597,1,0
Sprite,Foreground,Centre,"SB\o.png",320,240 L,352,10 C,2,102731,103437,0,0,255,255,0,0 C,2,103437,104143,255,0,0,255,255,255 C,2,104143,104849,255,255,255,0,0,255 M,0,101319,101407,409,462,425,458 F,0,101319,102025,0,1 C,2,101379,102025,255,255,255,0,0,255 M,0,101407,101496,425,458,411,445 M,0,101496,101584,411,445,432,443 M,0,101584,101672,432,443,414,455 M,0,101672,101760,414,455,437,457 M,0,101760,101849,437,457,419,438 M,0,101849,101937,419,438,436,453 M,0,101937,102025,436,453,412,452 F,0,102025,136506,1 F,0,136506,137597,1,0
Sprite,Foreground,Centre,"SB\m.png",320,240 L,528,10 C,2,102731,103437,0,0,255,255,0,0 C,2,103437,104143,255,0,0,255,255,255 C,2,104143,104849,255,255,255,0,0,255 M,0,101319,101407,461,443,448,446 F,0,101319,102025,0,1 C,2,101379,102025,255,255,255,0,0,255 M,0,101407,101496,448,446,466,450 M,0,101496,101584,466,450,450,442 M,0,101584,101672,450,442,477,446 M,0,101672,101760,477,446,450,458 M,0,101760,101849,450,458,464,459 M,0,101849,101937,464,459,459,443 M,0,101937,102025,459,443,456,452 F,0,102025,136506,1 F,0,136506,137597,1,0
Sprite,Foreground,Centre,"SB\s.png",320,240 L,704,10 C,2,102731,103437,0,0,255,255,0,0 C,2,103437,104143,255,0,0,255,255,255 C,2,104143,104849,255,255,255,0,0,255 M,0,101319,101407,508,460,508,444 F,0,101319,102025,0,1 C,2,101379,102025,255,255,255,0,0,255 M,0,101407,101496,508,444,496,445 M,0,101496,101584,496,445,491,456 M,0,101584,101672,491,456,508,453 M,0,101672,101760,508,453,492,450 M,0,101760,101849,492,450,500,460 M,0,101849,101937,500,460,497,444 M,0,101937,102025,497,444,500,452 F,0,102025,136506,1 F,0,136506,137597,1,0
Sprite,Foreground,Centre,"SB\d.png",320,240 L,880,10 C,2,102731,103437,255,0,0,255,255,255 C,2,103437,104143,255,255,255,0,0,255 C,2,104143,104849,0,0,255,255,0,0 M,0,101319,101407,523,452,522,461 F,0,101319,102025,0,1 C,2,101379,102025,255,255,255,255,0,0 M,0,101407,101496,522,461,522,440 M,0,101496,101584,522,440,539,437 M,0,101584,101672,539,437,542,454 M,0,101672,101760,542,454,525,454 M,0,101760,101849,525,454,548,453 M,0,101849,101937,548,453,528,462 M,0,101937,102025,528,462,536,452 F,0,102025,136506,1 F,0,136506,137597,1,0
Sprite,Foreground,Centre,"SB\a.png",320,240 L,1056,10 C,2,102731,103437,255,0,0,255,255,255 C,2,103437,104143,255,255,255,0,0,255 C,2,104143,104849,0,0,255,255,0,0 M,0,101319,101407,558,456,558,441 F,0,101319,102025,0,1 C,2,101379,102025,255,255,255,255,0,0 M,0,101407,101496,558,441,573,449 M,0,101496,101584,573,449,554,455 M,0,101584,101672,554,455,562,441 M,0,101672,101760,562,441,568,456 M,0,101760,101849,568,456,556,457 M,0,101849,101937,556,457,575,459 M,0,101937,102025,575,459,572,452 F,0,102025,136506,1 F,0,136506,137597,1,0
Sprite,Foreground,Centre,"SB\s.png",466,452 L,0,10 S,2,140870,141142,0.8,1.18 S,1,141142,142233,1.18,0.8 F,0,140051,140870,0,1 C,0,140870,,128,255,0 F,0,153415,154506,1,0
Sprite,Foreground,Centre,"SB\u.png",502,452 L,272,10 S,2,140870,141142,0.8,1.18 S,1,141142,142233,1.18,0.8 F,0,140051,140870,0,1 C,0,140870,,100,200,0 F,0,153688,154779,1,0
Sprite,Foreground,Centre,"SB\s.png",538,452 L,544,10 S,2,140870,141142,0.8,1.18 S,1,141142,142233,1.18,0.8 F,0,140051,140870,0,1 C,0,140870,,80,160,0 F,0,153960,155051,1,0
Sprite,Foreground,Centre,"SB\h.png",574,452 L,816,10 S,2,140870,141142,0.8,1.18 S,1,141142,142233,1.18,0.8 F,0,140051,140870,0,1 C,0,140870,,60,130,0 F,0,154233,155324,1,0
Sprite,Foreground,Centre,"SB\i.png",608,452 L,1088,10 S,2,140870,141142,0.8,1.18 S,1,141142,142233,1.18,0.8 F,0,140051,140870,0,1 C,0,140870,,50,100,0 F,0,154506,155597,1,0
Sprite,Foreground,Centre,"SB\n.png",320,240 L,0,31 S,0,165765,165872,1,1.2 S,0,165872,165979,1.2,1 S,0,165979,166193,1 C,0,157939,,225,255,255 M,0,157939,158796,508,452 M,1,179050,179479,508,452,260,452
Sprite,Foreground,Centre,"SB\a.png",320,240 L,0,31 S,0,165765,165872,1,1.2 S,0,165872,165979,1.2,1 S,0,165979,166193,1 C,0,157939,,205,255,255 M,1,157939,158796,508,452,474,452 M,1,179050,179479,474,452,260,452
Sprite,Foreground,Centre,"SB\h.png",320,240 L,0,31 S,0,165765,165872,1,1.2 S,0,165872,165979,1.2,1 S,0,165979,166193,1 C,0,157939,,185,255,255 M,1,157939,158796,508,452,440,452 M,1,179050,179479,440,452,260,452
Sprite,Foreground,Centre,"SB\c.png",320,240 L,0,31 S,0,165765,165872,1,1.2 S,0,165872,165979,1.2,1 S,0,165979,166193,1 C,0,157939,,165,250,255 M,1,157939,158796,508,452,407,452 M,1,179050,179479,407,452,260,452
Sprite,Foreground,Centre,"SB\line.png",320,240 L,0,31 S,0,165765,165872,1,1.2 S,0,165872,165979,1.2,1 S,0,165979,166193,1 C,0,157939,,145,230,255 M,1,157939,158796,508,452,384,452 M,1,179050,179479,384,452,260,452
Sprite,Foreground,Centre,"SB\s.png",320,240 L,0,31 S,0,165765,165872,1,1.2 S,0,165872,165979,1.2,1 S,0,165979,166193,1 C,0,157939,,125,210,255 M,1,157939,158796,508,452,361,452 M,1,179050,179479,361,452,260,452
Sprite,Foreground,Centre,"SB\s.png",320,240 L,0,31 S,0,165765,165872,1,1.2 S,0,165872,165979,1.2,1 S,0,165979,166193,1 C,0,157939,,105,190,255 M,1,157939,158796,508,452,328,452 M,1,179050,179479,328,452,260,452
Sprite,Foreground,Centre,"SB\a.png",320,240 L,0,31 S,0,165765,165872,1,1.2 S,0,165872,165979,1.2,1 S,0,165979,166193,1 C,0,157939,,85,170,255 M,1,157939,158796,508,452,294,452 M,1,179050,179479,294,452,260,452
Sprite,Foreground,Centre,"SB\n.png",320,240 L,-25,33 S,0,192765,192872,1,1.2 S,0,192872,192979,1.2,1 S,0,192979,193193,1 C,0,192336,0,255,255,0 M,1,192336,192765,428,452,608,452 F,0,206908,207336,1,0
Sprite,Foreground,Centre,"SB\o.png",320,240 L,-25,33 S,0,192765,192872,1,1.2 S,0,192872,192979,1.2,1 S,0,192979,193193,1 C,0,192336,0,255,222,50 M,1,192336,192765,428,452,572,452 F,0,206908,207336,1,0
Sprite,Foreground,Centre,"SB\g.png",320,240 L,-25,33 S,0,192765,192872,1,1.2 S,0,192872,192979,1.2,1 S,0,192979,193193,1 C,0,192336,0,255,190,100 M,1,192336,192765,428,452,536,452 F,0,206908,207336,1,0
Sprite,Foreground,Centre,"SB\a.png",320,240 L,-25,33 S,0,192765,192872,1,1.2 S,0,192872,192979,1.2,1 S,0,192979,193193,1 C,0,192336,0,255,170,130 M,1,192336,192765,428,452,500,452 F,0,206908,207336,1,0
Sprite,Foreground,Centre,"SB\r.png",320,240 L,-25,33 S,0,192765,192872,1,1.2 S,0,192872,192979,1.2,1 S,0,192979,193193,1 C,0,192336,0,255,150,160 M,1,192336,192765,428,452,464,452 F,0,206908,207336,1,0
Sprite,Foreground,Centre,"SB\e.png",320,240 L,-25,33 S,0,192765,192872,1,1.2 S,0,192872,192979,1.2,1 S,0,192979,193193,1 C,0,192336,,205,255,255 M,1,192336,192765,260,452,368,452 F,0,206908,207336,1,0
Sprite,Foreground,Centre,"SB\u.png",320,240 L,-25,33 S,0,192765,192872,1,1.2 S,0,192872,192979,1.2,1 S,0,192979,193193,1 C,0,192336,,165,250,255 M,1,192336,192765,260,452,332,452 F,0,206908,207336,1,0
Sprite,Foreground,Centre,"SB\l.png",320,240 L,-25,33 S,0,192765,192872,1,1.2 S,0,192872,192979,1.2,1 S,0,192979,193193,1 C,0,192336,,85,170,255 M,1,192336,192765,260,452,296,452 F,0,206908,207336,1,0
Sprite,Foreground,Centre,"SB\b.png",380,452 L,0,96 S,0,165765,165872,1,1.2 S,0,165872,165979,1.2,1 S,0,165979,166193,1 C,0,157233,,0,128,255 F,0,157233,157939,0,1 M,1,157939,158796,508,452,260,452 F,0,157939,206908,1 M,0,158796,179479,260,452 M,0,179479,179908,260,452 F,0,206908,207336,1,0
Sprite,Foreground,Centre,"SB\f.png",320,240 L,-25,30 S,0,179479,179586,1,1.2 S,0,179586,179693,1.2,1 S,0,179693,179908,1 M,1,179479,179908,588,452,536,452 C,0,179749,,255,235,245 M,1,191908,192336,536,452,428,452
Sprite,Foreground,Centre,"SB\i.png",320,240 L,-25,30 S,0,179479,179586,1,1.2 S,0,179586,179693,1.2,1 S,0,179693,179908,1 M,1,179479,179908,588,452,500,452 C,0,179749,,255,200,230 M,1,191908,192336,500,452,428,452
Sprite,Foreground,Centre,"SB\e.png",320,240 L,-25,30 S,0,179479,179586,1,1.2 S,0,179586,179693,1.2,1 S,0,179693,179908,1 M,1,179479,179908,588,452,464,452 C,0,179749,,255,170,210 M,1,191908,192336,464,452,428,452
Sprite,Foreground,Centre,"SB\d.png",320,240 L,0,96 S,0,165765,165872,1,1.2 S,0,165872,165979,1.2,1 S,0,165979,166193,1 C,0,157233,,255,128,192 F,0,157233,157939,0,1 M,0,157233,179479,588,452 M,1,179479,179908,588,452,428,452 F,0,206908,207336,1,0
Sprite,Foreground,Centre,"SB\l.png",464,452 L,0,14 S,0,208622,208729,1,1.18 S,0,208729,208836,1.18,1 S,0,208836,209479,1 L,0,15 S,0,225964,226071,1.2,1.25 S,0,226071,226178,1.25,1.2 C,0,207765,,255,0,0 F,0,207765,208622,0,1 F,0,208622,229178,1 S,0,220620,222478,1 C,0,220622,222478,102,102,102 S,0,222478,222585,1,1.1 C,0,222479,,255,0,0 S,0,222585,222692,1.1,1 S,0,222692,222799,1,1.1 S,0,222799,222906,1.1,1 S,0,222906,223013,1,1.1 S,0,223013,223120,1.1,1 S,0,223120,223228,1,1.1 S,0,223228,223335,1.1,1 S,0,223335,223442,1,1.1 S,0,223442,223549,1.1,1 S,0,223549,223656,1,1.1 S,0,223656,223763,1.1,1 S,0,223763,223870,1,1.1 S,0,223870,223978,1.1,1 S,0,223978,224079,1,1.1 S,0,224079,224192,1.1,1 S,0,224192,224294,1,1.1 S,0,224294,224401,1.1,1 S,0,224401,224897,1 S,0,224897,225004,1,1.2 S,0,225004,225111,1.2,1 S,0,225111,225750,1 S,0,225750,225857,1,1.2 S,0,225857,225964,1.2 F,0,229178,229607,1,0 S,0,229178,229607,1.21791,1.5
Sprite,Foreground,Centre,"SB\i.png",320,240 L,0,14 S,0,208836,208943,1,1.18 S,0,208943,209050,1.18,1 S,0,209050,209693,1 L,0,15 S,0,225964,226071,1.2,1.25 S,0,226071,226178,1.25,1.2 C,0,207765,,255,128,0 F,0,207765,208622,0,1 M,0,208622,,500,452 F,0,208622,229178,1 S,0,220620,222478,1 C,0,220622,222478,128,128,128 S,0,222478,222585,1,1.1 C,0,222479,,255,128,0 S,0,222585,222692,1.1,1 S,0,222692,222799,1,1.1 S,0,222799,222906,1.1,1 S,0,222906,223013,1,1.1 S,0,223013,223120,1.1,1 S,0,223120,223228,1,1.1 S,0,223228,223335,1.1,1 S,0,223335,223442,1,1.1 S,0,223442,223549,1.1,1 S,0,223549,223656,1,1.1 S,0,223656,223763,1.1,1 S,0,223763,223870,1,1.1 S,0,223870,223978,1.1,1 S,0,223978,224079,1,1.1 S,0,224079,224192,1.1,1 S,0,224192,224294,1,1.1 S,0,224294,224401,1.1,1 S,0,224401,224897,1 S,0,224897,225004,1,1.2 S,0,225004,225111,1.2,1 S,0,225111,225750,1 S,0,225750,225857,1,1.2 S,0,225857,225964,1.2 F,0,229178,229607,1,0 S,0,229178,229607,1.21791,1.5
Sprite,Foreground,Centre,"SB\l.png",320,240 L,214,14 S,0,208836,208943,1,1.18 S,0,208943,209050,1.18,1 S,0,209050,209693,1 L,0,15 S,0,225964,226071,1.2,1.25 S,0,226071,226178,1.25,1.2 C,0,207765,,255,255,0 F,0,207765,208622,0,1 M,0,208622,,536,452 F,0,208622,229178,1 S,0,220620,222478,1 C,0,220622,222478,153,153,153 S,0,222478,222585,1,1.1 C,0,222479,,255,255,0 S,0,222585,222692,1.1,1 S,0,222692,222799,1,1.1 S,0,222799,222906,1.1,1 S,0,222906,223013,1,1.1 S,0,223013,223120,1.1,1 S,0,223120,223228,1,1.1 S,0,223228,223335,1.1,1 S,0,223335,223442,1,1.1 S,0,223442,223549,1.1,1 S,0,223549,223656,1,1.1 S,0,223656,223763,1.1,1 S,0,223763,223870,1,1.1 S,0,223870,223978,1.1,1 S,0,223978,224079,1,1.1 S,0,224079,224192,1.1,1 S,0,224192,224294,1,1.1 S,0,224294,224401,1.1,1 S,0,224401,224897,1 S,0,224897,225004,1,1.2 S,0,225004,225111,1.2,1 S,0,225111,225750,1 S,0,225750,225857,1,1.2 S,0,225857,225964,1.2 F,0,229178,229607,1,0 S,0,229178,229607,1.21791,1.5
Sprite,Foreground,Centre,"SB\a.png",320,240 L,321,14 S,0,208836,208943,1,1.18 S,0,208943,209050,1.18,1 S,0,209050,209693,1 L,0,15 S,0,225964,226071,1.2,1.25 S,0,226071,226178,1.25,1.2 C,0,207765,,128,255,0 F,0,207765,208622,0,1 M,0,208622,,572,452 F,0,208622,229178,1 S,0,220620,222478,1 C,0,220622,222478,128,128,128 S,0,222478,222585,1,1.1 C,0,222479,,128,255,0 S,0,222585,222692,1.1,1 S,0,222692,222799,1,1.1 S,0,222799,222906,1.1,1 S,0,222906,223013,1,1.1 S,0,223013,223120,1.1,1 S,0,223120,223228,1,1.1 S,0,223228,223335,1.1,1 S,0,223335,223442,1,1.1 S,0,223442,223549,1.1,1 S,0,223549,223656,1,1.1 S,0,223656,223763,1.1,1 S,0,223763,223870,1,1.1 S,0,223870,223978,1.1,1 S,0,223978,224079,1,1.1 S,0,224079,224192,1.1,1 S,0,224192,224294,1,1.1 S,0,224294,224401,1.1,1 S,0,224401,224897,1 S,0,224897,225004,1,1.2 S,0,225004,225111,1.2,1 S,0,225111,225750,1 S,0,225750,225857,1,1.2 S,0,225857,225964,1.2 F,0,229178,229607,1,0 S,0,229178,229607,1.21791,1.5
Sprite,Foreground,Centre,"SB\c.png",320,240 L,535,14 S,0,208836,208943,1,1.18 S,0,208943,209050,1.18,1 S,0,209050,209693,1 L,0,15 S,0,225964,226071,1.2,1.25 S,0,226071,226178,1.25,1.2 C,0,207765,,0,128,255 F,0,207765,208622,0,1 M,0,208622,,608,452 F,0,208622,229178,1 S,0,220620,222478,1 C,0,220622,222478,102,102,102 S,0,222478,222585,1,1.1 C,0,222479,,0,128,255 S,0,222585,222692,1.1,1 S,0,222692,222799,1,1.1 S,0,222799,222906,1.1,1 S,0,222906,223013,1,1.1 S,0,223013,223120,1.1,1 S,0,223120,223228,1,1.1 S,0,223228,223335,1.1,1 S,0,223335,223442,1,1.1 S,0,223442,223549,1.1,1 S,0,223549,223656,1,1.1 S,0,223656,223763,1.1,1 S,0,223763,223870,1,1.1 S,0,223870,223978,1.1,1 S,0,223978,224079,1,1.1 S,0,224079,224192,1.1,1 S,0,224192,224294,1,1.1 S,0,224294,224401,1.1,1 S,0,224401,224897,1 S,0,224897,225004,1,1.2 S,0,225004,225111,1.2,1 S,0,225111,225750,1 S,0,225750,225857,1,1.2 S,0,225857,225964,1.2 F,0,229178,229607,1,0 S,0,229178,229607,1.21791,1.5
Sprite,Foreground,Centre,"SB\border.png",320,240 F,0,228329,229186,0,1 F,0,229186,230901,1 M,0,229186,231758,320,30 F,0,230901,234353,1 F,0,234353,235210,1,0
Sprite,Foreground,Centre,"SB\EI credits.png",320,240 F,0,228329,229186,0,1 F,0,229186,230901,1 F,0,230901,234353,1 F,0,234353,235210,1,0
Sprite,Foreground,Centre,"SB\border.png",320,240 F,0,228329,229186,0,1 F,0,229186,230901,1 M,0,229186,231758,320,450 F,0,230901,234353,1 F,0,234353,235210,1,0
//Storyboard Sound Samples
//Background Colour Transformations
3,100,163,162,255

[TimingPoints]
814,428.571428571429,4,2,0,80,1,0
3361,428.571428571429,4,2,0,80,1,0
4218,428.571428571429,4,1,0,80,1,0
4323,-100,4,1,0,5,0,0
4430,-100,4,1,0,80,0,0
31646,452.830188679245,4,1,0,80,1,0
32098,530.973451327434,4,1,0,80,1,0
32628,591.133004926108,4,1,0,80,1,0
33219,571.428571428571,4,1,0,80,1,0
33819,600,4,1,0,80,1,0
33819,-133.333333333333,4,1,0,100,0,0
36219,-100,4,1,0,100,0,0
56619,461.538461538462,4,1,0,100,1,0
57555,352.941176470588,4,1,0,100,1,0
101937,-133.333333333333,4,1,0,50,0,0
102643,-133.333333333333,4,2,0,50,0,0
102736,352.941176470588,4,1,0,50,1,0
102736,-133.333333333333,4,1,0,50,0,0
111201,352.941176470588,4,1,0,50,1,0
112612,-133.333333333333,4,1,0,50,0,0
123191,352.941176470588,4,1,0,50,1,0
123906,342.857142857143,4,1,0,60,1,0
124591,339.943342776204,4,1,0,60,1,0
125270,326.975476839237,4,1,0,70,1,0
125923,314.13612565445,4,1,0,70,1,0
126554,300,4,1,0,90,1,0
127754,279.06976744186,4,1,0,100,1,0
128870,272.727272727273,3,1,0,100,1,0
132142,545.454545454546,4,1,0,100,1,0
136369,-100,4,1,0,50,0,0
136642,-100,4,1,0,70,0,0
136983,-100,4,1,0,40,0,0
137187,-100,4,1,0,70,0,0
137460,-100,4,1,0,40,0,0
137664,-100,4,1,0,70,0,0
138073,-100,4,1,0,40,0,0
138346,-100,4,1,0,70,0,0
140051,-100,4,2,0,70,0,0
153892,-74.0740740740741,4,2,0,70,0,0
156414,-74.0740740740741,4,1,0,50,0,0
156960,-74.0740740740741,4,2,0,70,0,0
157949,428.571428571429,4,2,0,50,1,0
158591,428.571428571429,4,2,0,50,1,0
164908,428.571428571429,4,1,0,100,1,0
165550,-100,4,1,0,50,0,0
165765,428.571428571429,4,1,0,100,1,1
165765,-100,4,1,0,80,0,1
170586,-100,4,1,0,40,0,1
171015,-100,4,1,0,80,0,1
177443,-100,4,1,0,40,0,1
177872,-100,4,1,0,50,0,1
178086,-100,4,1,0,60,0,1
178515,-100,4,1,0,80,0,1
179372,-100,4,1,0,80,0,1
179800,-100,4,1,0,40,0,1
180015,-100,4,1,0,80,0,1
180658,-100,4,1,0,40,0,1
180872,-100,4,1,0,80,0,1
182318,-100,4,1,0,10,0,1
182425,-100,4,1,0,80,0,1
184515,-100,4,1,0,40,0,1
184729,-100,4,1,0,80,0,1
185158,-100,4,2,0,80,0,1
185372,-100,4,1,0,40,0,1
185586,-100,4,1,0,80,0,1
186015,-100,4,2,0,80,0,1
186229,-100,4,1,0,80,0,1
186658,-100,4,1,0,40,0,1
186872,-100,4,1,0,80,0,1
187515,-100,4,1,0,40,0,1
187729,-100,4,1,0,80,0,1
191586,-100,4,1,0,40,0,1
192229,-100,4,1,0,80,0,1
192443,-100,4,1,0,40,0,1
192770,-100,4,2,0,100,0,1
206908,-100,4,1,0,100,0,0
222482,428.571428571429,4,1,0,100,1,0
224186,714.285714285714,4,1,0,100,1,0
224900,857.142857142857,4,1,0,100,1,0
225750,428.571428571429,4,1,0,100,1,0

[Colours]
Combo1 : 0,0,255
Combo2 : 255,0,0

[HitObjects]
420,284,814,2,0,B|488:256,2,60
288,340,1242,2,0,B|176:292,1,120,2|0,0:0|0:0,0:0:0
104,300,1564,6,0,B|80:356,2,60,0|0|2,0:0|0:0|0:0,0:0:0
132,236,1885,2,0,B|156:180,2,60,0|0|2,0:0|0:0|0:0,0:0:0
60,244,2099,1,0,0:0:0
28,180,2314,1,0,0:0:0
36,108,2421,1,0,0:0:0
72,44,2528,6,0,B|160:28|224:92,1,120,2|0,0:0|0:0,0:0:0
248,104,2849,1,0,0:0:0
248,104,2956,1,0,0:0:0
500,88,3171,2,0,B|414:113|400:164,1,120
384,224,3468,1,0,0:0:0
400,292,3575,2,0,B|444:336,2,60,0|0|2,0:0|0:0|0:0,0:0:0
328,272,3896,5,2,0:0:0
256,284,4003,1,2,0:0:0
190,314,4111,1,2,0:0:0
129,358,4218,6,0,B|103:292,1,60,4|0,0:0|0:0,0:0:0
88,232,4432,2,0,B|88:160|136:116,1,120,2|8,0:0|0:0,0:0:0
192,88,4753,2,0,B|308:44,1,120
372,20,5075,1,2,0:0:0
444,32,5182,1,0,0:0:0
484,92,5289,2,0,B|516:164|516:164|516:208,2,120,0|8|2,0:0|0:0|0:0,0:0:0
408,216,5932,6,0,B|376:160|320:136,1,120
252,124,6253,1,0,0:0:0
184,152,6360,2,0,B|120:204,1,60,8|0,0:0|0:0,0:0:0
68,168,6575,2,0,B|44:252,1,60,0|0,0:0|0:0,0:0:0
116,260,6789,6,0,B|140:320,3,60,2|0|2|0,0:0|0:0|0:0|0:0,0:0:0
418,204,7218,2,0,B|396:260,3,60,8|0|8|0,0:0|0:0|0:0|0:0,0:0:0
364,324,7646,5,0,0:0:0
256,192,7860,1,2,0:0:0
340,44,8075,2,0,B|400:52,1,60,10|0,0:0|0:0,0:0:0
384,124,8289,2,0,B|439:147,1,60,2|0,0:0|0:0,0:0:0
484,340,8503,6,0,B|424:332,1,60,0|0,0:0|0:0,0:0:0
440,260,8718,2,0,B|385:237,1,60,0|0,0:0|0:0,0:0:0
332,188,8932,1,10,0:0:0
288,132,9039,1,0,0:0:0
232,88,9146,1,0,0:0:0
164,68,9253,1,2,0:0:0
92,76,9360,6,0,B|36:108|24:172,1,120
24,244,9682,1,2,0:0:0
84,284,9789,2,0,B|140:340,2,60,8|0|8,0:0|0:0|0:0,0:0:0
88,212,10003,2,0,B|156:180,1,60
216,184,10218,1,2,0:0:0
288,208,10432,5,4,0:0:0
476,56,10646,1,0,0:0:0
440,288,10860,1,2,0:0:0
324,76,11075,5,0,0:0:0
180,60,11289,2,0,B|112:64|72:112,1,120,2|8,0:0|0:0,0:0:0
108,172,11610,2,0,B|168:276,1,120
232,308,11932,1,2,0:0:0
300,280,12039,1,0,0:0:0
344,224,12146,1,0,0:0:0
437,109,12360,2,0,B|396:64|332:60,1,120,8|2,0:0|0:0,0:0:0
248,180,12789,6,0,B|140:264,1,120,0|2,0:0|0:0,0:0:0
84,276,13110,1,0,0:0:0
36,220,13217,1,8,0:0:0
32,148,13325,1,0,0:0:0
72,88,13432,1,2,0:0:0
140,60,13539,1,0,0:0:0
208,80,13646,6,0,B|284:120,1,60,2|0,0:0|0:0,0:0:0
324,140,13860,2,0,B|400:180,1,60,0|0,0:0|0:0,0:0:0
472,144,14075,6,0,B|432:220,1,60,8|0,0:0|0:0,0:0:0
412,260,14289,2,0,B|372:336,1,60,2|0,0:0|0:0,0:0:0
316,340,14503,6,0,B|196:324,1,120,0|2,0:0|0:0,0:0:0
124,200,14932,2,0,B|100:136,2,60,10|0|2,0:0|0:0|0:0,0:0:0
60,232,15146,1,0,0:0:0
84,300,15360,5,0,0:0:0
152,268,15467,1,0,0:0:0
220,240,15575,1,0,0:0:0
292,240,15682,5,0,0:0:0
360,268,15789,1,10,0:0:0
428,300,15896,1,0,0:0:0
452,232,16003,2,0,B|458:172,1,60,0|2,0:0|0:0,0:0:0
468,100,16218,6,0,B|448:78|419:66|419:66|387:61|359:71,1,120,0|0,0:0|0:0,0:0:0
364,144,16539,1,0,0:0:0
316,200,16646,1,8,0:0:0
256,240,16753,2,0,B|256:308,2,60,0|8|0,0:0|0:0|0:0,0:0:0
196,200,17075,5,0,0:0:0
148,144,17182,1,2,0:0:0
152,71,17289,2,0,B|124:61|92:66|92:66|63:78|43:100,2,120,4|0|2,0:0|0:0|0:0,0:0:0
56,252,17932,6,0,B|212:188,1,120,2|0,0:0|0:0,0:0:0
236,180,18253,1,0,0:0:0
304,152,18360,2,0,B|460:88,1,120,2|0,0:0|0:0,0:0:0
484,80,18682,1,0,0:0:0
472,152,18789,6,0,B|496:212,2,60,8|0|8,0:0|0:0|0:0,0:0:0
408,188,19003,1,0,0:0:0
388,256,19218,1,2,0:0:0
416,324,19325,1,0,0:0:0
344,316,19432,2,0,B|288:336,1,60,2|0,0:0|0:0,0:0:0
220,356,19646,5,2,0:0:0
220,356,19860,1,2,0:0:0
316,248,20075,1,0,0:0:0
336,180,20182,1,0,0:0:0
316,112,20289,1,0,0:0:0
260,68,20396,1,0,0:0:0
196,104,20503,6,0,B|168:172,2,60,8|0|0,0:0|0:0|0:0,0:0:0
160,40,20717,1,0,0:0:0
88,48,20932,2,0,B|28:88,1,60,0|0,0:0|0:0,0:0:0
72,144,21146,2,0,B|56:220,1,60,0|0,0:0|0:0,0:0:0
92,268,21360,6,0,B|136:290|136:290|147:305|147:305|193:328,1,120,2|0,0:0|0:0,0:0:0
256,288,21575,1,0,0:0:0
316,248,21789,2,0,B|360:270|360:270|371:285|371:285|417:308,1,120,2|0,0:0|0:0,0:0:0
480,268,22003,1,0,0:0:0
468,196,22217,6,0,B|412:220,2,60,8|0|8,0:0|0:0|0:0,0:0:0
328,72,22432,2,0,B|308:128,2,60,0|2|0,0:0|0:0|0:0,0:0:0
260,56,22860,1,0,0:0:0
188,68,22968,1,0,0:0:0
120,48,23075,1,0,0:0:0
120,48,23289,5,6,0:0:0
80,108,23396,1,0,0:0:0
56,176,23503,2,0,B|68:240,1,60,0|0,0:0|0:0,0:0:0
136,252,23717,2,0,B|188:288,1,60,2|0,0:0|0:0,0:0:0
256,296,23932,6,0,B|236:376,2,60,8|0|8,0:0|0:0|0:0,0:0:0
320,260,24146,1,0,0:0:0
388,236,24360,2,0,B|420:276,2,30
408,168,24575,1,0,0:0:0
460,120,24682,1,0,0:0:0
428,56,24789,6,0,B|288:32,1,120,2|0,0:0|0:0,0:0:0
244,60,25110,1,0,0:0:0
176,32,25218,2,0,B|152:172,1,120,2|0,0:0|0:0,0:0:0
108,204,25539,1,0,0:0:0
72,268,25646,6,0,B|128:304,1,60,8|0,0:0|0:0,0:0:0
188,268,25860,2,0,B|252:282,1,60,8|0,0:0|0:0,0:0:0
276,216,26075,2,0,B|340:201,1,60,0|0,0:0|0:0,0:0:0
385,255,26289,2,0,B|451:263,1,60,2|0,0:0|0:0,0:0:0
472,196,26503,6,0,B|464:136|464:136|496:56,1,120,2|2,0:0|0:0,0:0:0
336,120,26932,6,0,B|312:64,1,60
180,204,27146,2,0,B|212:144,1,60
368,308,27360,2,0,B|324:268,2,60,8|0|0,0:0|0:0|0:0,0:0:0
208,332,27682,5,0,0:0:0
228,264,27789,1,0,0:0:0
276,212,27896,1,0,0:0:0
340,180,28003,1,0,0:0:0
392,132,28110,1,0,0:0:0
428,68,28217,5,2,0:0:0
396,256,28432,1,0,0:0:0
396,256,28539,1,0,0:0:0
396,256,28646,1,2,0:0:0
260,120,28860,1,0,0:0:0
260,120,28968,1,0,0:0:0
260,120,29075,1,2,0:0:0
116,256,29289,5,8,0:0:0
116,256,29396,1,0,0:0:0
84,68,29503,1,0,0:0:0
84,68,29717,1,10,0:0:0
256,340,29932,5,2,0:0:0
436,256,30146,6,0,B|476:308,2,60,8|0|0,0:0|0:0|0:0,0:0:0
392,196,30468,1,0,0:0:0
368,128,30575,1,8,0:0:0
384,56,30682,1,0,0:0:0
436,104,30789,5,2,0:0:0
368,128,30896,1,2,0:0:0
302,157,31003,1,10,0:0:0
236,184,31110,1,0,0:0:0
176,140,31217,6,0,B|64:184,1,120,10|2,0:0|0:0,0:0:0
120,312,31646,6,0,B|240:312,1,120,0|0,0:0|0:0,0:0:0
164,240,32098,2,0,B|268:240|268:240|292:248,1,120,0|0,0:0|0:0,0:0:0
208,168,32628,2,0,B|296:168|296:168|336:192,1,120,0|0,0:0|0:0,0:0:0
248,96,33219,6,0,B|316:96|316:96|340:104|340:104|368:128,1,120,0|0,0:0|0:0,0:0:0
468,292,33819,6,0,B|388:332|388:332|300:308|300:308|160:344|48:244|96:108,1,539.999983906746,4|2,0:0|0:0,0:0:0
