osu file format v10

[General]
AudioFilename: The GAG Quartet - le Internet Medley.mp3
AudioLeadIn: 0
PreviewTime: 4216
Countdown: 1
SampleSet: None
StackLeniency: 0.7
Mode: 0
LetterboxInBreaks: 1
StoryFireInFront: 0

[Editor]
Bookmarks: 4162,4178,33086,68937,101319,136505,157846,179211,192336,206800
DistanceSpacing: 0.8
BeatDivisor: 4
GridSize: 8

[Metadata]
Title:le Internet Medley
TitleUnicode:
Artist:The GAG Quartet
ArtistUnicode:
Creator:Bass-chan
Version:Hard
Source:
Tags:collab kert gonzvlo aleks719 aleks mustaash doomsday agnes deif blue dragon nogard lilac lily osuplayer111 andrea sushi reiji-rj tony gyt copter-kun onosakihito ozzyozrock firce777 firce kurisuchianu zlew mmzz backfire sherrie__fay nyan cat nyan cat metal version ievan's polka loituma keyboard cat chacarron macarron el mudo numa numa yey o-zone dragostea din tei rebecca black friday rick astley rickroll never gonna give you up tay zonday chocolate rain imma firin mah lazor all your base are belong to us dramatic chipmunk
BeatmapID:188598
BeatmapSetID:39932

[Difficulty]
HPDrainRate:3
CircleSize:4
OverallDifficulty:7
ApproachRate:7
SliderMultiplier:2
SliderTickRate:2

[Events]
//Background and Video events
Video,0,"le Internet Medley.avi"
0,0,"lebg.jpg"
//Break Periods
//Storyboard Layer 0 (Background)
Sprite,Background,Centre,"lebg.jpg",320,240 S,0,0,,0.625 M,0,186499,,321,240 F,0,207341,225750,0.9948801,1 F,0,225750,228321,1,0.4 F,0,228321,234353,0.4 F,0,234353,235210,0.4,0
//Storyboard Layer 1 (Fail)
//Storyboard Layer 2 (Pass)
//Storyboard Layer 3 (Foreground)
Sprite,Foreground,Centre,"SB\o.png",320,240 C,0,2501,,255,0,0 M,0,2501,2608,246,452,246,449 M,0,2608,2715,246,449,246,452 M,0,2715,4216,246,452 S,0,31644,32088,1,0 R,0,31644,32088,0,3.142
Sprite,Foreground,Centre,"SB\s.png",320,240 L,321,64 M,0,4216,4323,282,452,282,449 M,0,4323,4430,282,449,282,452 M,0,4430,4644,282,452 C,0,2608,,255,128,0 M,0,2608,2715,282,452,282,449 M,0,2715,2823,282,449,282,452 M,0,2823,4216,282,452 S,0,31644,32088,1,0 R,0,31644,32088,0,3.142
Sprite,Foreground,Centre,"SB\u.png",320,240 L,214,64 M,0,4216,4323,318,452,318,449 M,0,4323,4430,318,449,318,452 M,0,4430,4644,318,452 C,0,2715,,255,255,0 M,0,2715,2823,318,452,318,449 M,0,2823,2930,318,449,318,452 M,0,2930,4216,318,452 S,0,31644,32088,1,0 R,0,31644,32088,0,3.142
Sprite,Foreground,Centre,"SB\p.png",320,40 L,107,64 M,0,4216,4323,354,452,354,449 M,0,4323,4430,354,449,354,452 M,0,4430,4644,354,452 C,0,2823,,128,255,0 M,0,2823,2930,354,452,354,449 M,0,2930,3037,354,449,354,452 M,0,3037,4216,354,452 S,0,31644,32088,1,0 R,0,31644,32088,0,3.142
Sprite,Foreground,Centre,"SB\l.png",320,240 L,0,64 M,0,4216,4323,390,452,390,449 M,0,4323,4430,390,449,390,452 M,0,4430,4644,390,452 C,0,2930,,0,128,255 M,0,2930,3037,390,452,390,449 M,0,3037,3144,390,449,390,452 M,0,3144,4216,390,452 S,0,31644,32088,1,0 R,0,31644,32088,0,3.142
Sprite,Foreground,Centre,"SB\a.png",320,240 L,0,64 M,0,4216,4323,426,452,426,449 M,0,4323,4430,426,449,426,452 M,0,4430,4644,426,452 C,0,3037,,0,128,255 M,0,3037,3144,426,452,426,449 M,0,3144,3251,426,449,426,452 M,0,3251,4216,426,452 S,0,31644,32088,1,0 R,0,31644,32088,0,3.142
Sprite,Foreground,Centre,"SB\y.png",320,240 L,107,64 M,0,4216,4323,462,452,462,449 M,0,4323,4430,462,449,462,452 M,0,4430,4644,462,452 C,0,3144,,128,255,0 M,0,3144,3251,462,452,462,449 M,0,3251,3358,462,449,462,452 M,0,3358,4216,462,452 S,0,31644,32088,1,0 R,0,31644,32088,0,3.142
Sprite,Foreground,Centre,"SB\e.png",320,240 L,214,64 M,0,4216,4323,498,452,498,449 M,0,4323,4430,498,449,498,452 M,0,4430,4644,498,452 C,0,3251,,255,255,0 M,0,3251,3358,498,452,498,449 M,0,3358,3466,498,449,498,452 M,0,3466,4216,498,452 S,0,31644,32088,1,0 R,0,31644,32088,0,3.142
Sprite,Foreground,Centre,"SB\r.png",320,240 L,321,64 M,0,4216,4323,534,452,534,449 M,0,4323,4430,534,449,534,452 M,0,4430,4644,534,452 C,0,3358,,255,128,0 M,0,3358,3466,534,452,534,449 M,0,3466,3573,534,449,534,452 M,0,3573,4216,534,452 S,0,31644,32088,1,0 R,0,31644,32088,0,3.142
Sprite,Foreground,Centre,"SB\1.png",320,240 L,0,4 M,0,787,894,246,452,246,449 M,0,894,1001,246,449,246,452 M,0,1001,1215,246,452 C,0,787,32088,255,0,0 M,1,2499,4216,246,452,564,452 S,0,31644,32088,1,0 R,0,31644,32088,0,3.142
Sprite,Foreground,Centre,"SB\1.png",320,240 L,0,4 M,0,894,1001,272,452,272,449 M,0,1001,1108,272,449,272,452 M,0,1108,1323,272,452 C,0,894,32088,255,255,0 M,1,2610,4216,272,452,586,452 S,0,31644,32088,1,0 R,0,31644,32088,0,3.142
Sprite,Foreground,Centre,"SB\1.png",320,240 L,0,4 M,0,1001,1108,298,452,298,449 M,0,1108,1215,298,449,298,452 M,0,1215,1430,298,452 C,0,1001,32088,128,255,0 M,1,2717,4216,298,452,608,452 S,0,31644,32088,1,0 R,0,31644,32088,0,3.142
Sprite,Foreground,Centre,"SB\a.png",320,240 M,0,33822,,423,452 C,0,33822,,128,255,128 S,1,33822,35022,0,1 R,1,33822,35022,3.142,0 F,0,68849,69202,1,0 S,0,68849,69202,1,1.12
Sprite,Foreground,Centre,"SB\g.png",320,240 M,0,33822,,459,452 C,0,33822,,65,220,120 S,1,33822,35022,0,1 R,1,33822,35022,3.142,0 F,0,68849,69202,1,0 S,0,68849,69202,1,1.12
Sprite,Foreground,Centre,"SB\n.png",320,240 M,0,33822,,495,452 S,1,33822,35022,0,1 R,1,33822,35022,3.142,0 F,0,68849,69202,1,0 S,0,68849,69202,1,1.12
Sprite,Foreground,Centre,"SB\e.png",320,240 M,0,33822,,531,452 C,0,33822,,65,220,120 S,1,33822,35022,0,1 R,1,33822,35022,3.142,0 F,0,68849,69202,1,0 S,0,68849,69202,1,1.12
Sprite,Foreground,Centre,"SB\s.png",320,240 M,0,33822,,567,452 C,0,33822,,128,255,128 S,1,33822,35022,0,1 R,1,33822,35022,3.142,0 F,0,68849,69202,1,0 S,0,68849,69202,1,1.12
Sprite,Foreground,Centre,"SB\polkkkka.png",320,240 L,0,30 M,1,38622,38772,603,450,608,458 R,1,38622,38772,0,0.5 M,2,38772,39222,608,458,603,450 R,2,38772,39222,0.5,0 L,0,31 M,2,57545,57731,603,450,608,458 R,2,57545,57731,0,0.5 M,1,57731,57907,608,458,603,450 R,1,57731,57907,0.5,0 S,1,33822,35022,0,1 R,1,33822,35022,3.142,0 F,0,33822,68849,1 M,0,35022,38622,603,450 M,0,56622,56737,603,450,608,458 R,0,56622,56737,0,0.5 M,0,56737,56852,608,458,603,450 R,0,56737,56852,0.5,0 M,0,56852,56968,603,450,608,458 R,0,56852,56968,0,0.5 M,0,56968,57083,608,458,603,450 R,0,56968,57083,0.5,0 M,0,57083,57198,603,450,608,458 R,0,57083,57198,0,0.5 M,0,57198,57314,608,458,603,450 R,0,57198,57314,0.5,0 M,0,57314,57429,603,450,608,458 R,0,57314,57429,0,0.5 M,0,57429,57545,608,458,603,450 R,0,57429,57545,0.5,0 F,0,68849,69202,1,0 S,0,68849,69202,1,1.12
Sprite,Foreground,Centre,"SB\r.png",372,452 L,0,11 S,0,68849,68937,1,0.8 S,0,68937,69025,0.8,1 S,0,69025,71672,1 S,0,99902,100084,1,1.18 F,0,99907,100084,1,0
Sprite,Foreground,Centre,"SB\e.png",408,452 L,353,11 S,0,68849,68937,1,0.8 S,0,68937,69025,0.8,1 S,0,69025,71672,1 S,0,100255,100437,1,1.18 F,0,100260,100437,1,0
Sprite,Foreground,Centre,"SB\i.png",444,452 L,706,11 C,0,68849,,192,192,192 S,0,68849,68937,1,0.8 S,0,68937,69025,0.8,1 S,0,69025,71672,1 S,0,100608,100790,1,1.18 F,0,100613,100790,1,0
Sprite,Foreground,Centre,"SB\j.png",480,452 L,1059,11 S,0,68849,68937,1,0.8 S,0,68937,69025,0.8,1 S,0,69025,71672,1 S,0,100961,101143,1,1.18 F,0,100966,101143,1,0
Sprite,Foreground,Centre,"SB\i.png",516,452 L,1412,11 S,0,68849,68937,1,0.8 S,0,68937,69025,0.8,1 S,0,69025,71672,1 S,0,101314,101496,1,1.18 F,0,101319,101496,1,0
Sprite,Foreground,Centre,"SB\line.png",540,452 L,1765,11 S,0,68849,68937,1,0.5 S,0,68937,69025,0.5,1 S,0,69025,71672,1 S,0,101667,101849,1,1.18 F,0,101672,101849,1,0
Sprite,Foreground,Centre,"SB\r.png",572,452 L,1941,11 C,0,68849,,192,192,192 S,0,68849,68937,1,0.8 S,0,68937,69025,0.8,1 S,0,69025,71672,1 S,0,101843,102025,1,1.18 F,0,101849,102025,1,0
Sprite,Foreground,Centre,"SB\j.png",608,452 L,2470,11 S,0,68849,68937,1,0.8 S,0,68937,69025,0.8,1 S,0,69025,71672,1 S,0,102372,102554,1,1.18 F,0,102378,102554,1,0
Sprite,Foreground,Centre,"SB\n.png",356,452 L,0,24 F,1,102731,103437,0,1 F,1,103437,104143,1,0 L,0,8 C,0,102731,104143,255,0,0,255,255,255 C,0,104143,105554,255,255,255,0,0,255 C,0,105554,106966,0,0,255,255,0,0
Sprite,Foreground,Centre,"SB\o.png",392,452 L,176,24 F,1,102731,103437,0,1 F,1,103437,104143,1,0 L,176,8 C,0,102731,104143,255,0,0,255,255,255 C,0,104143,105554,255,255,255,0,0,255 C,0,105554,106966,0,0,255,255,0,0
Sprite,Foreground,Centre,"SB\h.png",428,452 L,353,24 F,1,102731,103437,0,1 F,1,103437,104143,1,0 L,353,8 C,0,102731,104143,255,0,0,255,255,255 C,0,104143,105554,255,255,255,0,0,255 C,0,105554,106966,0,0,255,255,0,0
Sprite,Foreground,Centre,"SB\i.png",464,452 L,529,24 F,1,102731,103437,0,1 F,1,103437,104143,1,0 L,529,8 C,0,102731,104143,255,0,0,255,255,255 C,0,104143,105554,255,255,255,0,0,255 C,0,105554,106966,0,0,255,255,0,0
Sprite,Foreground,Centre,"SB\t.png",500,452 L,706,24 F,1,102731,103437,0,1 F,1,103437,104143,1,0 L,706,8 C,0,102731,104143,255,0,0,255,255,255 C,0,104143,105554,255,255,255,0,0,255 C,0,105554,106966,0,0,255,255,0,0
Sprite,Foreground,Centre,"SB\t.png",536,452 L,882,24 F,1,102731,103437,0,1 F,1,103437,104143,1,0 L,882,8 C,0,102731,104143,255,0,0,255,255,255 C,0,104143,105554,255,255,255,0,0,255 C,0,105554,106966,0,0,255,255,0,0
Sprite,Foreground,Centre,"SB\e.png",572,452 L,1059,24 F,1,102731,103437,0,1 F,1,103437,104143,1,0 L,1059,8 C,0,102731,104143,255,0,0,255,255,255 C,0,104143,105554,255,255,255,0,0,255 C,0,105554,106966,0,0,255,255,0,0
Sprite,Foreground,Centre,"SB\r.png",608,452 L,1235,24 F,1,102731,103437,0,1 F,1,103437,104143,1,0 L,1235,8 C,0,102731,104143,255,0,0,255,255,255 C,0,104143,105554,255,255,255,0,0,255 C,0,105554,106966,0,0,255,255,0,0
Sprite,Foreground,Centre,"SB\c.png",284,452 L,0,10 C,0,140869,,255,128,192 S,0,140869,141005,0.8,1 S,0,141005,141142,1,0.8 S,0,141142,142233,0.8 F,0,154505,154778,1,0 S,0,154509,154778,0.8,1.5
Sprite,Foreground,Centre,"SB\h.png",320,452 L,88,10 C,0,140869,,255,104,180 S,0,140869,141005,0.8,1 S,0,141005,141142,1,0.8 S,0,141142,142233,0.8 S,0,154597,154914,0.8,1.5 F,0,154642,154914,1,0
Sprite,Foreground,Centre,"SB\a.png",356,452 L,264,10 C,0,140869,,255,74,165 S,0,140869,141005,0.8,1 S,0,141005,141142,1,0.8 S,0,141142,142233,0.8 S,0,154773,155051,0.8,1.5 F,0,154778,155051,1,0
Sprite,Foreground,Centre,"SB\r.png",392,452 L,353,10 C,0,140869,,255,40,148 S,0,140869,141005,0.8,1 S,0,141005,141142,1,0.8 S,0,141142,142233,0.8 S,0,154862,155187,0.8,1.5 F,0,154914,155187,1,0
Sprite,Foreground,Centre,"SB\l.png",428,452 L,441,10 C,0,140869,,249,0,124 S,0,140869,141005,0.8,1 S,0,141005,141142,1,0.8 S,0,141142,142233,0.8 S,0,154950,155323,0.8,1.5 F,0,155051,155323,1,0
Sprite,Foreground,Centre,"SB\e.png",464,452 L,529,10 C,0,140869,,221,0,111 S,0,140869,141005,0.8,1 S,0,141005,141142,1,0.8 S,0,141142,142233,0.8 S,0,155038,155323,0.8,1.5 F,0,155051,155323,1,0
Sprite,Foreground,Centre,"SB\s.png",500,452 L,617,10 C,0,140869,,204,0,102 S,0,140869,141005,0.8,1 S,0,141005,141142,1,0.8 S,0,141142,142233,0.8 S,0,155126,155460,0.8,1.5 S,0,155126,155460,0.8 F,0,155187,155460,1,0
Sprite,Foreground,Centre,"SB\4.png",536,452 L,706,10 C,0,140869,,176,0,88 S,0,140869,141005,0.8,1 S,0,141005,141142,1,0.8 S,0,141142,142233,0.8 S,0,155215,155596,0.8,1.5 F,0,155323,155596,1,0
Sprite,Foreground,Centre,"SB\4.png",572,452 L,794,10 C,0,140869,,153,0,77 S,0,140869,141005,0.8,1 S,0,141005,141142,1,0.8 S,0,141142,142233,0.8 S,0,155303,155596,0.8,1.5 F,0,155323,155596,1,0
Sprite,Foreground,Centre,"SB\5.png",608,452 L,882,10 C,0,140869,,132,0,66 S,0,140869,141005,0.8,1 S,0,141005,141142,1,0.8 S,0,141142,142233,0.8 S,0,155391,155733,0.8,1.5 F,0,155460,155733,1,0
Sprite,Foreground,Centre,"SB\y.png",320,240 L,0,31 S,0,165765,165872,1,1.2 S,0,165872,165979,1.2,1 S,0,165979,166193,1 M,1,157939,158367,392,452,500,452 S,0,159439,159546,1,0.8 S,0,159546,159653,0.8,1 S,0,159653,161153,1 S,0,161153,161260,1,0.8 S,0,161260,161367,0.8,1 S,0,161367,162867,1 S,0,162867,162974,1,0.8 S,0,162974,163081,0.8,1 S,0,163081,164260,1 S,0,164260,164367,1,0.8 S,0,164367,164474,0.8,1 S,0,164474,165765,1 C,1,165765,,255,255,170 M,1,179050,179479,500,452,392,452
Sprite,Foreground,Centre,"SB\n.png",320,240 L,0,31 S,0,165765,165872,1,1.2 S,0,165872,165979,1.2,1 S,0,165979,166193,1 M,1,157939,158367,392,452,464,452 S,0,159224,159331,1,0.8 S,0,159331,159439,0.8,1 S,0,159439,160939,1 S,0,160939,161046,1,0.8 S,0,161046,161153,0.8,1 S,0,161153,162653,1 S,0,162653,162760,1,0.8 S,0,162760,162867,0.8,1 S,0,162867,163831,1 S,0,163831,163939,1,0.8 S,0,163939,164046,0.8,1 S,0,164046,165765,1 C,1,165765,,255,255,128 M,1,179050,179479,464,452,392,452
Sprite,Foreground,Centre,"SB\o.png",320,240 L,0,31 S,0,165765,165872,1,1.2 S,0,165872,165979,1.2,1 S,0,165979,166193,1 M,1,157939,158367,392,452,428,452 S,0,159010,159117,1,0.8 S,0,159117,159224,0.8,1 S,0,159224,160724,1 S,0,160724,160831,1,0.8 S,0,160831,160939,0.8,1 S,0,160939,162439,1 S,0,162439,162546,1,0.8 S,0,162546,162653,0.8,1 S,0,162653,164153,1 S,0,164153,164260,1,0.8 S,0,164260,164367,0.8,1 C,1,165765,,255,255,55 M,1,179050,179479,428,452,392,452
Sprite,Foreground,Centre,"SB\o.png",320,240 L,0,33 S,0,192765,192872,1,1.2 S,0,192872,192979,1.2,1 S,0,192979,193193,1 C,0,192765,,240,240,255 M,1,192765,193193,392,452,608,452 M,1,206479,206908,608,452,392,452
Sprite,Foreground,Centre,"SB\l.png",320,240 L,0,33 S,0,192765,192872,1,1.2 S,0,192872,192979,1.2,1 S,0,192979,193193,1 C,0,192765,,230,230,255 M,1,192765,193193,392,452,572,452 M,1,206479,206908,572,452,392,452
Sprite,Foreground,Centre,"SB\n.png",320,240 L,0,33 S,0,192765,192872,1,1.2 S,0,192872,192979,1.2,1 S,0,192979,193193,1 C,0,192765,,215,215,255 P,0,192765,,V M,1,192765,193193,392,452,536,452 M,1,206479,206908,536,452,392,452
Sprite,Foreground,Centre,"SB\z.png",320,240 L,0,33 S,0,192765,192872,1,1.2 S,0,192872,192979,1.2,1 S,0,192979,193193,1 C,0,192765,,191,191,255 M,1,192765,193193,392,452,500,452 M,1,206479,206908,500,452,392,452
Sprite,Foreground,Centre,"SB\n.png",320,240 L,0,33 S,0,192765,192872,1,1.2 S,0,192872,192979,1.2,1 S,0,192979,193193,1 C,0,192765,,172,172,255 M,1,192765,193193,392,452,464,452 M,1,206479,206908,464,452,392,452
Sprite,Foreground,Centre,"SB\o.png",320,240 L,0,33 S,0,192765,192872,1,1.2 S,0,192872,192979,1.2,1 S,0,192979,193193,1 C,0,192765,,151,151,255 M,1,192765,193193,392,452,428,452 M,1,206479,206908,428,452,392,452
Sprite,Foreground,Centre,"SB\g.png",392,452 L,-25,64 S,0,179479,179586,1,1.2 S,0,179586,179693,1.2,1 S,0,179693,179908,1 C,0,179479,,128,128,255 F,0,206908,207341,1,0 S,0,206910,207765,1,1.1536 F,0,207341,207765,0
Sprite,Foreground,Centre,"SB\y.png",320,240 L,-25,31 S,0,179479,179586,1,1.2 S,0,179586,179693,1.2,1 S,0,179693,179908,1 C,0,179479,,194,251,132 M,1,179479,179908,392,452,428,452 M,1,192336,192765,428,452,392,452 F,1,192336,192765,1,0
Sprite,Foreground,Centre,"SB\t.png",320,240 L,0,63 S,0,165765,165872,1,1.2 S,0,165872,165979,1.2,1 S,0,165979,166193,1 F,0,157233,157939,0,1 M,0,157233,179479,392,452 F,0,157939,192336,1 S,0,158796,158903,1,0.8 S,0,158903,159010,0.8,1 S,0,159010,160510,1 S,0,160510,160617,1,0.8 S,0,160617,160724,0.8,1 S,0,160724,162224,1 S,0,162224,162331,1,0.8 S,0,162331,162439,0.8,1 S,0,162439,163724,1 S,0,163724,163831,1,0.8 S,0,163831,163939,0.8,1 S,0,163939,165765,1 C,0,165765,,255,255,0 M,1,179479,179908,392,452,464,452 M,0,179479,192336,464,452 M,1,192336,192765,464,452,392,452 F,1,192336,192765,1,0
Sprite,Foreground,Centre,"SB\c.png",284,452 L,0,11 C,0,207020,207234,255,0,0 C,0,207234,207235,255,0,0,255,128,0 C,0,207235,207449,255,128,0 C,0,207449,207450,255,128,0,255,255,0 C,0,207450,207663,255,255,0 C,0,207663,207664,255,255,0,128,255,0 C,0,207664,207877,128,255,0 C,0,207877,207878,128,255,0,0,128,255 C,0,207878,208091,0,128,255 C,0,208091,208092,0,128,255,198,0,198 C,0,208092,208306,198,0,198 F,0,207020,208520,0,1 F,0,208622,225754,1 C,0,222482,222483,198,0,198,255,0,0 C,0,222483,222696,255,0,0 C,0,222696,222697,255,0,0,255,128,0 C,0,222697,222910,255,128,0 C,0,222910,222911,255,128,0,255,255,0 C,0,222911,223124,255,255,0 C,0,223124,223125,255,255,0,128,255,0 C,0,223125,223339,128,255,0 C,0,223339,223340,128,255,0,0,128,255 C,0,223340,223553,0,128,255 C,0,223553,223554,0,128,255,198,0,198 C,0,223554,223767,198,0,198 C,0,223767,223768,198,0,198,255,0,0 C,0,223768,223982,255,0,0 C,0,223982,223983,255,0,0,198,0,198 C,0,223983,224196,198,0,198 S,0,224187,224276,1,1.2 S,0,224276,224365,1.2,1 S,0,224365,224901,1 S,0,224901,225008,1,1.2 S,0,225008,225115,1.2,1 F,0,225754,229178,1,0 S,0,225754,229178,1,1.1
Sprite,Foreground,Centre,"SB\o.png",320,452 L,107,11 C,0,207020,207234,255,0,0 C,0,207234,207235,255,0,0,255,128,0 C,0,207235,207449,255,128,0 C,0,207449,207450,255,128,0,255,255,0 C,0,207450,207663,255,255,0 C,0,207663,207664,255,255,0,128,255,0 C,0,207664,207877,128,255,0 C,0,207877,207878,128,255,0,0,128,255 C,0,207878,208091,0,128,255 C,0,208091,208092,0,128,255,198,0,198 C,0,208092,208306,198,0,198 F,0,207020,208520,0,1 F,0,208622,225754,1 C,0,222482,222483,198,0,198,255,0,0 C,0,222483,222696,255,0,0 C,0,222696,222697,255,0,0,255,128,0 C,0,222697,222910,255,128,0 C,0,222910,222911,255,128,0,255,255,0 C,0,222911,223124,255,255,0 C,0,223124,223125,255,255,0,128,255,0 C,0,223125,223339,128,255,0 C,0,223339,223340,128,255,0,0,128,255 C,0,223340,223553,0,128,255 C,0,223553,223554,0,128,255,198,0,198 C,0,223554,223767,198,0,198 C,0,223767,223768,198,0,198,255,128,0 C,0,223768,223982,255,128,0 C,0,223982,223983,255,128,0,0,128,255 C,0,223983,224196,0,128,255 S,0,224187,224276,1,1.2 S,0,224276,224365,1.2,1 S,0,224365,224901,1 S,0,224901,225008,1,1.2 S,0,225008,225115,1.2,1 F,0,225754,229178,1,0 S,0,225754,229178,1,1.1
Sprite,Foreground,Centre,"SB\p.png",356,452 L,215,11 C,0,207020,207234,255,0,0 C,0,207234,207235,255,0,0,255,128,0 C,0,207235,207449,255,128,0 C,0,207449,207450,255,128,0,255,255,0 C,0,207450,207663,255,255,0 C,0,207663,207664,255,255,0,128,255,0 C,0,207664,207877,128,255,0 C,0,207877,207878,128,255,0,0,128,255 C,0,207878,208091,0,128,255 C,0,208091,208092,0,128,255,198,0,198 C,0,208092,208306,198,0,198 F,0,207020,208520,0,1 F,0,208622,225754,1 C,0,222482,222483,198,0,198,255,0,0 C,0,222483,222696,255,0,0 C,0,222696,222697,255,0,0,255,128,0 C,0,222697,222910,255,128,0 C,0,222910,222911,255,128,0,255,255,0 C,0,222911,223124,255,255,0 C,0,223124,223125,255,255,0,128,255,0 C,0,223125,223339,128,255,0 C,0,223339,223340,128,255,0,0,128,255 C,0,223340,223553,0,128,255 C,0,223553,223554,0,128,255,198,0,198 C,0,223554,223767,198,0,198 C,0,223767,223768,198,0,198,255,255,0 C,0,223768,223982,255,255,0 C,0,223982,223983,255,255,0,128,255,0 C,0,223983,224196,128,255,0 S,0,224187,224276,1,1.2 S,0,224276,224365,1.2,1 S,0,224365,224901,1 S,0,224901,225008,1,1.2 S,0,225008,225115,1.2,1 F,0,225754,229178,1,0 S,0,225754,229178,1,1.1
Sprite,Foreground,Centre,"SB\t.png",392,452 L,322,11 C,0,207020,207234,255,0,0 C,0,207234,207235,255,0,0,255,128,0 C,0,207235,207449,255,128,0 C,0,207449,207450,255,128,0,255,255,0 C,0,207450,207663,255,255,0 C,0,207663,207664,255,255,0,128,255,0 C,0,207664,207877,128,255,0 C,0,207877,207878,128,255,0,0,128,255 C,0,207878,208091,0,128,255 C,0,208091,208092,0,128,255,198,0,198 C,0,208092,208306,198,0,198 F,0,207020,208520,0,1 F,0,208622,225754,1 C,0,222482,222483,198,0,198,255,0,0 C,0,222483,222696,255,0,0 C,0,222696,222697,255,0,0,255,128,0 C,0,222697,222910,255,128,0 C,0,222910,222911,255,128,0,255,255,0 C,0,222911,223124,255,255,0 C,0,223124,223125,255,255,0,128,255,0 C,0,223125,223339,128,255,0 C,0,223339,223340,128,255,0,0,128,255 C,0,223340,223553,0,128,255 C,0,223553,223554,0,128,255,198,0,198 C,0,223554,223767,198,0,198 C,0,223767,223768,198,0,198,128,255,0 C,0,223768,223982,128,255,0 C,0,223982,223983,128,255,0,255,255,0 C,0,223983,224196,255,255,0 S,0,224187,224276,1,1.2 S,0,224276,224365,1.2,1 S,0,224365,224901,1 S,0,224901,225008,1,1.2 S,0,225008,225115,1.2,1 F,0,225754,229178,1,0 S,0,225754,229178,1,1.1
Sprite,Foreground,Centre,"SB\e.png",428,452 L,430,11 C,0,207020,207234,255,0,0 C,0,207234,207235,255,0,0,255,128,0 C,0,207235,207449,255,128,0 C,0,207449,207450,255,128,0,255,255,0 C,0,207450,207663,255,255,0 C,0,207663,207664,255,255,0,128,255,0 C,0,207664,207877,128,255,0 C,0,207877,207878,128,255,0,0,128,255 C,0,207878,208091,0,128,255 C,0,208091,208092,0,128,255,198,0,198 C,0,208092,208306,198,0,198 F,0,207020,208520,0,1 F,0,208622,225754,1 C,0,222482,222483,198,0,198,255,0,0 C,0,222483,222696,255,0,0 C,0,222696,222697,255,0,0,255,128,0 C,0,222697,222910,255,128,0 C,0,222910,222911,255,128,0,255,255,0 C,0,222911,223124,255,255,0 C,0,223124,223125,255,255,0,128,255,0 C,0,223125,223339,128,255,0 C,0,223339,223340,128,255,0,0,128,255 C,0,223340,223553,0,128,255 C,0,223553,223554,0,128,255,198,0,198 C,0,223554,223767,198,0,198 C,0,223767,223768,198,0,198,0,128,255 C,0,223768,223982,0,128,255 C,0,223982,223983,0,128,255,255,128,0 C,0,223983,224196,255,128,0 S,0,224187,224276,1,1.2 S,0,224276,224365,1.2,1 S,0,224365,224901,1 S,0,224901,225008,1,1.2 S,0,225008,225115,1.2,1 F,0,225754,229178,1,0 S,0,225754,229178,1,1.1
Sprite,Foreground,Centre,"SB\r.png",464,452 L,537,11 C,0,207020,207234,255,0,0 C,0,207234,207235,255,0,0,255,128,0 C,0,207235,207449,255,128,0 C,0,207449,207450,255,128,0,255,255,0 C,0,207450,207663,255,255,0 C,0,207663,207664,255,255,0,128,255,0 C,0,207664,207877,128,255,0 C,0,207877,207878,128,255,0,0,128,255 C,0,207878,208091,0,128,255 C,0,208091,208092,0,128,255,198,0,198 C,0,208092,208306,198,0,198 F,0,207020,208520,0,1 F,0,208622,225754,1 C,0,222482,222483,198,0,198,255,0,0 C,0,222483,222696,255,0,0 C,0,222696,222697,255,0,0,255,128,0 C,0,222697,222910,255,128,0 C,0,222910,222911,255,128,0,255,255,0 C,0,222911,223124,255,255,0 C,0,223124,223125,255,255,0,128,255,0 C,0,223125,223339,128,255,0 C,0,223339,223340,128,255,0,0,128,255 C,0,223340,223553,0,128,255 C,0,223553,223554,0,128,255,198,0,198 C,0,223554,223767,198,0,198 C,0,223982,223983,198,0,198,255,0,0 C,0,223983,224196,255,0,0 S,0,224187,224276,1,1.2 S,0,224276,224365,1.2,1 S,0,224365,224901,1 S,0,224901,225008,1,1.2 S,0,225008,225115,1.2,1 F,0,225754,229178,1,0 S,0,225754,229178,1,1.1
Sprite,Foreground,Centre,"SB\line.png",500,452 L,645,11 C,0,207020,207234,255,0,0 C,0,207234,207235,255,0,0,255,128,0 C,0,207235,207449,255,128,0 C,0,207449,207450,255,128,0,255,255,0 C,0,207450,207663,255,255,0 C,0,207663,207664,255,255,0,128,255,0 C,0,207664,207877,128,255,0 C,0,207877,207878,128,255,0,0,128,255 C,0,207878,208091,0,128,255 C,0,208091,208092,0,128,255,198,0,198 C,0,208092,208306,198,0,198 F,0,207020,208520,0,1 F,0,208622,225754,1 C,0,222482,222483,198,0,198,255,0,0 C,0,222483,222696,255,0,0 C,0,222696,222697,255,0,0,255,128,0 C,0,222697,222910,255,128,0 C,0,222910,222911,255,128,0,255,255,0 C,0,222911,223124,255,255,0 C,0,223124,223125,255,255,0,128,255,0 C,0,223125,223339,128,255,0 C,0,223339,223340,128,255,0,0,128,255 C,0,223340,223553,0,128,255 C,0,223553,223554,0,128,255,198,0,198 C,0,223554,223767,198,0,198 S,0,224187,224276,1,1.2 S,0,224276,224365,1.2,1 S,0,224365,224901,1 S,0,224901,225008,1,1.2 S,0,225008,225115,1.2,1 F,0,225754,229178,1,0 S,0,225754,229178,1,1.1
Sprite,Foreground,Centre,"SB\k.png",536,452 L,752,11 C,0,207020,207234,255,0,0 C,0,207234,207235,255,0,0,255,128,0 C,0,207235,207449,255,128,0 C,0,207449,207450,255,128,0,255,255,0 C,0,207450,207663,255,255,0 C,0,207663,207664,255,255,0,128,255,0 C,0,207664,207877,128,255,0 C,0,207877,207878,128,255,0,0,128,255 C,0,207878,208091,0,128,255 C,0,208091,208092,0,128,255,198,0,198 C,0,208092,208306,198,0,198 F,0,207020,208520,0,1 F,0,208622,225754,1 C,0,222482,222483,198,0,198,255,0,0 C,0,222483,222696,255,0,0 C,0,222696,222697,255,0,0,255,128,0 C,0,222697,222910,255,128,0 C,0,222910,222911,255,128,0,255,255,0 C,0,222911,223124,255,255,0 C,0,223124,223125,255,255,0,128,255,0 C,0,223125,223339,128,255,0 C,0,223339,223340,128,255,0,0,128,255 C,0,223340,223553,0,128,255 C,0,223553,223554,0,128,255,198,0,198 C,0,223554,223767,198,0,198 C,0,223767,223768,198,0,198,128,128,128 C,0,223768,223982,128,128,128 S,0,224187,224276,1,1.2 S,0,224276,224365,1.2,1 S,0,224365,224901,1 S,0,224901,225008,1,1.2 S,0,225008,225115,1.2,1 F,0,225754,229178,1,0 S,0,225754,229178,1,1.1
Sprite,Foreground,Centre,"SB\u.png",572,452 L,859,11 C,0,207020,207234,255,0,0 C,0,207234,207235,255,0,0,255,128,0 C,0,207235,207449,255,128,0 C,0,207449,207450,255,128,0,255,255,0 C,0,207450,207663,255,255,0 C,0,207663,207664,255,255,0,128,255,0 C,0,207664,207877,128,255,0 C,0,207877,207878,128,255,0,0,128,255 C,0,207878,208091,0,128,255 C,0,208091,208092,0,128,255,198,0,198 C,0,208092,208306,198,0,198 F,0,207020,208520,0,1 F,0,208622,225754,1 C,0,222482,222483,198,0,198,255,0,0 C,0,222483,222696,255,0,0 C,0,222696,222697,255,0,0,255,128,0 C,0,222697,222910,255,128,0 C,0,222910,222911,255,128,0,255,255,0 C,0,222911,223124,255,255,0 C,0,223124,223125,255,255,0,128,255,0 C,0,223125,223339,128,255,0 C,0,223339,223340,128,255,0,0,128,255 C,0,223340,223553,0,128,255 C,0,223553,223554,0,128,255,198,0,198 C,0,223554,223767,198,0,198 C,0,223767,223768,198,0,198,192,192,192 C,0,223768,223982,192,192,192 S,0,224187,224276,1,1.2 S,0,224276,224365,1.2,1 S,0,224365,224901,1 S,0,224901,225008,1,1.2 S,0,225008,225115,1.2,1 F,0,225754,229178,1,0 S,0,225754,229178,1,1.1
Sprite,Foreground,Centre,"SB\n.png",608,452 L,967,11 C,0,207020,207234,255,0,0 C,0,207234,207235,255,0,0,255,128,0 C,0,207235,207449,255,128,0 C,0,207449,207450,255,128,0,255,255,0 C,0,207450,207663,255,255,0 C,0,207663,207664,255,255,0,128,255,0 C,0,207664,207877,128,255,0 C,0,207877,207878,128,255,0,0,128,255 C,0,207878,208091,0,128,255 C,0,208091,208092,0,128,255,198,0,198 C,0,208092,208306,198,0,198 F,0,207020,208520,0,1 F,0,208622,225754,1 C,0,222482,222483,198,0,198,255,0,0 C,0,222483,222696,255,0,0 C,0,222696,222697,255,0,0,255,128,0 C,0,222697,222910,255,128,0 C,0,222910,222911,255,128,0,255,255,0 C,0,222911,223124,255,255,0 C,0,223124,223125,255,255,0,128,255,0 C,0,223125,223339,128,255,0 C,0,223339,223340,128,255,0,0,128,255 C,0,223340,223553,0,128,255 C,0,223553,223554,0,128,255,198,0,198 C,0,223554,223767,198,0,198 C,0,223767,223768,198,0,198,255,255,255 C,0,223768,223982,255,255,255 S,0,224187,224276,1,1.2 S,0,224276,224365,1.2,1 S,0,224365,224901,1 S,0,224901,225008,1,1.2 S,0,225008,225115,1.2,1 F,0,225754,229178,1,0 S,0,225754,229178,1,1.1
Sprite,Foreground,Centre,"SB\border.png",320,240 F,0,228329,229186,0,1 F,0,229186,230901,1 M,0,229186,231758,320,30 F,0,230901,234353,1 F,0,234353,235210,1,0
Sprite,Foreground,Centre,"SB\NH credits.png",320,240 F,0,228329,229186,0,1 F,0,229186,230901,1 F,0,230901,234353,1 F,0,234353,235210,1,0
Sprite,Foreground,Centre,"SB\border.png",320,240 F,0,228329,229186,0,1 F,0,229186,230901,1 M,0,229186,231758,320,450 F,0,230901,234353,1 F,0,234353,235210,1,0
//Storyboard Sound Samples
//Background Colour Transformations
3,100,163,162,255

[TimingPoints]
814,428.571428571429,4,2,0,80,1,0
3361,428.571428571429,4,2,0,80,1,0
4218,428.571428571429,4,1,0,80,1,0
4323,-100,4,1,0,5,0,0
4430,-100,4,1,0,80,0,0
31646,452.830188679245,4,1,0,80,1,0
32098,530.973451327434,4,1,0,80,1,0
32628,591.133004926108,4,1,0,80,1,0
33219,571.428571428571,4,1,0,80,1,0
33819,600,4,1,0,80,1,0
33819,-133.333333333333,4,1,0,100,0,0
36219,-100,4,1,0,100,0,0
56619,461.538461538462,4,1,0,100,1,0
57555,352.941176470588,4,1,0,100,1,0
101937,-133.333333333333,4,1,0,50,0,0
102643,-133.333333333333,4,2,0,50,0,0
102736,352.941176470588,4,1,0,50,1,0
102736,-133.333333333333,4,1,0,50,0,0
111201,352.941176470588,4,1,0,50,1,0
112612,-133.333333333333,4,1,0,50,0,0
123191,352.941176470588,4,1,0,50,1,0
123906,342.857142857143,4,1,0,60,1,0
124591,339.943342776204,4,1,0,60,1,0
125270,326.975476839237,4,1,0,70,1,0
125923,314.13612565445,4,1,0,70,1,0
126554,300,4,1,0,90,1,0
127754,279.06976744186,4,1,0,100,1,0
128870,272.727272727273,3,1,0,100,1,0
132142,545.454545454546,4,1,0,100,1,0
136369,-100,4,1,0,50,0,0
136642,-100,4,1,0,70,0,0
136983,-100,4,1,0,40,0,0
137187,-100,4,1,0,70,0,0
137460,-100,4,1,0,40,0,0
137664,-100,4,1,0,70,0,0
138073,-100,4,1,0,40,0,0
138346,-100,4,1,0,70,0,0
140051,-100,4,2,0,70,0,0
153892,-74.0740740740741,4,2,0,70,0,0
156414,-74.0740740740741,4,1,0,50,0,0
156960,-74.0740740740741,4,2,0,70,0,0
157949,428.571428571429,4,2,0,50,1,0
158591,428.571428571429,4,2,0,50,1,0
164908,428.571428571429,4,1,0,100,1,0
165550,-100,4,1,0,50,0,0
165765,428.571428571429,4,1,0,100,1,1
165765,-100,4,1,0,80,0,1
170586,-100,4,1,0,40,0,1
171015,-100,4,1,0,80,0,1
177443,-100,4,1,0,40,0,1
177872,-100,4,1,0,50,0,1
178086,-100,4,1,0,60,0,1
178515,-100,4,1,0,80,0,1
179372,-100,4,1,0,80,0,1
179800,-100,4,1,0,40,0,1
180015,-100,4,1,0,80,0,1
180658,-100,4,1,0,40,0,1
180872,-100,4,1,0,80,0,1
182318,-100,4,1,0,10,0,1
182425,-100,4,1,0,80,0,1
184515,-100,4,1,0,40,0,1
184729,-100,4,1,0,80,0,1
185158,-100,4,2,0,80,0,1
185372,-100,4,1,0,40,0,1
185586,-100,4,1,0,80,0,1
186015,-100,4,2,0,80,0,1
186229,-100,4,1,0,80,0,1
186658,-100,4,1,0,40,0,1
186872,-100,4,1,0,80,0,1
187515,-100,4,1,0,40,0,1
187729,-100,4,1,0,80,0,1
191586,-100,4,1,0,40,0,1
192229,-100,4,1,0,80,0,1
192443,-100,4,1,0,40,0,1
192770,-100,4,2,0,100,0,1
206908,-100,4,1,0,100,0,0
222482,428.571428571429,4,1,0,100,1,0
224186,714.285714285714,4,1,0,100,1,0
224900,857.142857142857,4,1,0,100,1,0
225750,428.571428571429,4,1,0,100,1,0

[HitObjects]
56,56,4216,2,0,B|112:56|144:96,1,100,4|0,0:0|0:0,0:0:0
72,136,4644,1,8,0:0:0
88,152,4751,2,0,B|119:191|175:191,1,100
200,184,5073,1,0,0:0:0
256,128,5287,2,0,B|312:128|344:168,1,100,0|8,0:0|0:0,0:0:0
360,248,5715,6,0,B|304:248|272:208,1,100
256,128,6144,1,0,0:0:0
232,96,6251,1,0,0:0:0
208,64,6358,1,8,0:0:0
136,104,6573,1,0,0:0:0
72,152,6787,1,0,0:0:0
96,184,6894,1,0,0:0:0
80,216,7001,1,0,0:0:0
72,256,7108,1,0,0:0:0
96,288,7215,6,0,B|152:304|152:368,1,100,8|0,0:0|0:0,0:0:0
240,272,7644,2,0,B|184:256|184:192,2,100,0|0|8,0:0|0:0|0:0,0:0:0
256,288,8180,1,0,0:0:0
320,336,8394,1,0,0:0:0
336,320,8501,2,0,B|392:320|424:272,1,100
432,192,8930,6,0,B|376:192|344:240,2,100,8|0|0,0:0|0:0|0:0,0:0:0
464,120,9573,2,0,B|488:72,2,50,0|0|8,0:0|0:0|0:0,0:0:0
384,112,10001,1,0,0:0:0
368,96,10108,1,0,0:0:0
352,80,10215,2,0,B|296:80|264:128,1,100
216,184,10644,1,8,0:0:0
176,112,10858,6,0,B|120:112|120:112|88:144,1,100
24,192,11287,1,0,0:0:0
88,240,11501,1,8,0:0:0
104,256,11608,2,0,B|135:287|135:287|191:287,1,100
208,272,11930,2,0,B|288:336,1,100
392,312,12358,6,0,B|312:248,2,100,8|0|0,0:0|0:0|0:0,0:0:0
472,312,13001,1,0,0:0:0
488,272,13108,1,0,0:0:0
480,232,13215,1,8,0:0:0
456,200,13323,1,0,0:0:0
416,192,13430,2,0,B|384:144|416:96,1,100
312,48,13858,2,0,B|344:96|312:144,2,100,0|8|0,0:0|0:0|0:0,0:0:0
248,96,14501,6,0,B|144:96,1,100
88,152,14930,2,0,B|48:184,1,50,8|0,0:0|0:0,0:0:0
80,256,15251,2,0,B|120:224,1,50
176,168,15573,2,0,B|232:168|256:216,1,100,0|8,0:0|0:0,0:0:0
192,264,16001,1,0,0:0:0
256,312,16215,1,0,0:0:0
320,264,16430,5,0,0:0:0
344,256,16537,1,0,0:0:0
368,248,16644,2,0,B|416:224|416:224|432:176,1,100,8|0,0:0|0:0,0:0:0
416,104,17073,2,0,B|368:128|368:128|352:176,2,100,0|0|8,0:0|0:0|0:0,0:0:0
368,40,17715,1,0,0:0:0
296,80,17930,5,4,0:0:0
272,160,18144,1,0,0:0:0
248,152,18251,1,0,0:0:0
224,144,18358,1,8,0:0:0
152,112,18573,1,0,0:0:0
128,128,18680,1,0,0:0:0
104,144,18787,2,0,B|56:168|56:224,1,100
96,296,19216,6,0,B|144:272|144:216,2,100,8|0|0,0:0|0:0|0:0,0:0:0
144,360,19858,1,0,0:0:0
176,344,19966,1,0,0:0:0
208,328,20073,1,8,0:0:0
304,328,20287,1,0,0:0:0
336,344,20394,1,0,0:0:0
368,360,20501,1,0,0:0:0
416,296,20716,2,0,B|368:272|368:216,2,100,0|8|0,0:0|0:0|0:0,0:0:0
456,224,21358,5,4,0:0:0
416,152,21573,2,0,B|448:112,2,50,0|0|8,0:0|0:0|0:0,0:0:0
336,136,22001,1,0,0:0:0
320,152,22108,1,0,0:0:0
304,168,22216,2,0,B|261:200|208:176,1,100
160,112,22644,6,0,B|203:80|256:104,2,100,8|0|0,0:0|0:0|0:0,0:0:0
112,176,23287,1,0,0:0:0
88,208,23394,1,0,0:0:0
64,240,23501,1,8,0:0:0
136,272,23716,2,0,B|184:304,2,50
200,224,24144,1,0,0:0:0
256,168,24358,2,0,B|256:112,2,50,8|0|0,0:0|0:0|0:0,0:0:0
312,224,24787,5,0,0:0:0
376,272,25001,2,0,B|328:304,2,50,0|0|8,0:0|0:0|0:0,0:0:0
384,192,25430,2,0,B|384:136,2,50
456,224,25858,2,0,B|496:184|472:128,1,100,0|8,0:0|0:0,0:0:0
424,72,26287,1,0,0:0:0
344,72,26501,5,0,0:0:0
288,128,26716,1,0,0:0:0
272,144,26823,1,0,0:0:0
256,160,26930,2,0,B|232:208|176:208,1,100,8|0,0:0|0:0,0:0:0
160,192,27251,1,0,0:0:0
144,176,27358,2,0,B|88:176|56:224,1,100
128,264,27787,1,8,0:0:0
56,304,28001,6,0,B|88:344|144:344,1,100
224,344,28430,1,0,0:0:0
240,328,28537,1,0,0:0:0
256,312,28644,2,0,B|312:312|344:352,1,100,8|0,0:0|0:0,0:0:0
408,312,29073,1,0,0:0:0
424,296,29180,2,0,B|464:264|464:208,1,100
448,192,29501,2,0,B|392:192|360:144,1,100,8|0,0:0|0:0,0:0:0
440,112,29930,5,0,0:0:0
376,64,30144,1,0,0:0:0
360,48,30251,1,0,0:0:0
280,48,30466,2,0,B|232:48,3,50,0|0|0|8,0:0|0:0|0:0|0:0,0:0:0
200,72,30894,2,0,B|160:112,3,50
112,168,31430,1,0,0:0:0
56,224,31644,5,4,0:0:0
176,320,32088,1,4,0:0:0
336,320,32623,1,4,0:0:0
456,224,33223,1,4,0:0:0
176,184,34137,6,0,B|152:176|120:152,2,50,0|0|2,0:0|0:0|0:0,0:0:0
192,104,34737,2,0,B|152:64|96:80,1,100
40,136,35337,2,0,B|0:176,2,50,0|0|2,0:0|0:0|0:0,0:0:0
72,208,35937,6,0,B|0:288,1,100
72,328,36537,1,0,0:0:0
112,312,36687,1,0,0:0:0
152,304,36837,2,0,B|208:288|272:304,1,100,2|0,0:0|0:0,0:0:0
328,280,37437,6,0,B|368:272|392:240,3,66.6666666666667
416,176,38337,1,0,0:0:0
352,104,38637,5,2,0:0:0
256,136,38937,1,0,0:0:0
160,104,39237,1,0,0:0:0
160,256,39687,5,0,0:0:0
208,240,39837,1,2,0:0:0
256,224,39987,1,2,0:0:0
304,240,40137,1,0,0:0:0
352,256,40287,1,0,0:0:0
400,264,40437,2,0,B|496:256|496:152,1,150,0|0,0:0|0:0,0:0:0
488,120,41037,5,2,0:0:0
400,72,41337,1,0,0:0:0
312,128,41637,1,0,0:0:0
256,40,41937,1,0,0:0:0
200,128,42237,1,2,0:0:0
112,72,42537,1,0,0:0:0
24,120,42837,1,0,0:0:0
56,216,43137,5,0,0:0:0
72,264,43287,1,2,0:0:0
104,304,43437,2,0,B|144:344|208:344,1,100,2|0,0:0|0:0,0:0:0
234,252,44037,2,0,B|246:190|306:164|362:180|385:206|386:210,1,150
394,211,44637,1,2,0:0:0
332,289,44937,2,0,B|374:353,1,50,2|0,0:0|0:0,0:0:0
454,301,45387,5,0,0:0:0
473,254,45537,1,2,0:0:0
478,204,45687,1,2,0:0:0
472,154,45837,2,0,B|464:96|435:51,1,100
344,89,46437,2,0,B|352:147|381:192,1,100
256,258,47037,5,0,0:0:0
256,258,47637,1,0,0:0:0
166,302,47937,6,0,B|136:353,2,50,2|0|0,0:0|0:0|0:0,0:0:0
170,202,48537,2,0,B|204:99,1,100
310,107,49137,2,0,B|342:202,1,100,0|2,0:0|0:0,0:0:0
346,302,49737,2,0,B|376:353,2,50
256,256,50337,5,2,0:0:0
256,208,50487,1,0,0:0:0
256,160,50637,1,0,0:0:0
160,152,50937,1,0,0:0:0
208,64,51237,1,0,0:0:0
304,64,51537,1,0,0:0:0
352,152,51837,1,2,0:0:0
416,248,52137,6,0,B|480:224,2,50
368,264,52587,1,2,0:0:0
320,280,52737,1,2,0:0:0
272,296,52887,1,0,0:0:0
224,312,53037,1,0,0:0:0
208,216,53337,6,0,B|88:256,1,100
80,152,53937,2,0,B|16:176,2,50,2|0|0,0:0|0:0|0:0,0:0:0
176,120,54537,1,0,0:0:0
272,88,54837,1,0,0:0:0
376,112,55137,5,2,0:0:0
400,160,55287,1,0,0:0:0
400,208,55437,2,0,B|392:264|336:280,1,100
312,184,56037,1,0,0:0:0
232,248,56337,1,2,0:0:0
184,256,56487,1,0,0:0:0
136,264,56637,6,0,B|10:284,3,100
75,182,57553,5,4,0:0:0
114,112,57729,1,0,0:0:0
182,71,57905,1,8,0:0:0
264,72,58082,2,0,B|328:72,2,50
288,152,58435,2,0,B|400:152,1,100,0|8,0:0|0:0,0:0:0
432,216,58788,6,0,B|432:272|392:320,1,100,0|0,0:0|0:0,0:0:0
336,264,59141,2,0,B|307:312|248:332,1,100,0|8,0:0|0:0,0:0:0
192,288,59494,2,0,B|120:320,2,50
200,208,59847,1,0,0:0:0
120,200,60023,2,0,B|128:144|184:128,1,100,8|0,0:0|0:0,0:0:0
264,112,60376,5,0,0:0:0
344,96,60553,1,0,0:0:0
416,128,60729,2,0,B|440:160|456:224|448:280,1,150,8|0,0:0|0:0,0:0:0
432,312,61082,1,0,0:0:0
352,320,61258,2,0,B|232:336,1,100,0|8,0:0|0:0,0:0:0
208,264,61611,6,0,B|136:256,2,50
256,200,61964,1,0,0:0:0
304,136,62141,2,0,B|376:144,2,50
240,88,62494,2,0,B|184:80|144:40,2,100,0|0|8,0:0|0:0|0:0,0:0:0
304,40,63023,1,0,0:0:0
384,64,63200,6,0,B|440:56,4,50
416,136,63729,2,0,B|320:208,1,100
368,272,64082,2,0,B|288:332,1,100,0|8,0:0|0:0,0:0:0
216,296,64435,1,0,0:0:0
136,312,64611,6,0,B|120:328|80:336,4,50
112,232,65141,2,0,B|88:192|96:128,1,100
120,56,65494,1,0,0:0:0
184,96,65670,1,8,0:0:0
248,56,65847,1,0,0:0:0
328,112,66023,5,4,0:0:0
289,294,66729,1,4,0:0:0
150,169,67435,1,4,0:0:0
256,192,67788,1,4,0:0:0
328,112,68141,5,0,0:0:0
272,24,68405,1,0,0:0:0
272,24,68494,2,0,B|216:48|152:48,1,100
80,64,68847,6,0,B|128:128|80:208,1,149.999995529652,4|0,0:0|0:0,0:0:0
64,288,69376,1,0,0:0:0
64,288,69729,1,0,0:0:0
144,264,69905,1,0,0:0:0
224,280,70082,1,2,0:0:0
288,328,70258,2,0,B|304:272|368:256|416:296,1,149.999995529652
472,344,70788,2,0,B|416:328|400:272|448:224,1,149.999995529652
440,200,71229,1,0,0:0:0
432,176,71317,1,0,0:0:0
328,128,71494,1,0,0:0:0
336,152,71582,1,2,0:0:0
344,176,71670,6,0,B|328:264|232:256,1,149.999995529652,2|0,0:0|0:0,0:0:0
168,160,72200,2,0,B|184:72|280:80,1,149.999995529652
256,168,72729,1,0,0:0:0
72,104,73082,2,0,B|72:256,1,149.999995529652
152,320,73611,2,0,B|152:160,1,149.999995529652
152,168,74053,1,0,0:0:0
152,168,74141,1,0,0:0:0
232,104,74317,1,0,0:0:0
232,104,74405,1,2,0:0:0
232,104,74494,5,2,0:0:0
392,128,74847,1,2,0:0:0
368,288,75200,1,2,0:0:0
368,288,75376,1,0,0:0:0
208,264,75729,1,0,0:0:0
208,264,75905,1,2,0:0:0
208,264,76082,1,0,0:0:0
208,264,76258,1,0,0:0:0
112,176,76611,1,2,0:0:0
88,304,76964,1,0,0:0:0
208,344,77317,6,0,B|256:288|232:208|184:208|152:128|200:64,1,300,0|0,0:0|0:0,0:0:0
312,128,78729,6,0,B|264:152,3,50
336,144,79082,2,0,B|384:120,3,50
328,176,79435,2,0,B|280:200,3,50
352,192,79788,2,0,B|400:168,3,50
344,224,80141,6,0,B|368:272|344:320,1,100,4|0,0:0|0:0,0:0:0
272,368,80494,2,0,B|248:320|272:272,1,100,8|8,0:0|0:0,0:0:0
272,184,80847,2,0,B|224:160|176:177|128:200|72:184,1,200,0|8,0:0|0:0,0:0:0
75,184,81376,1,2,0:0:0
32,104,81553,2,0,B|80:120|136:104,1,100,0|0,0:0|0:0,0:0:0
216,88,81905,1,8,0:0:0
216,88,82082,2,0,B|280:184|216:280,1,200,8|2,0:0|0:0,0:0:0
144,328,82611,2,0,B|120:280|160:224,1,100,8|0,0:0|0:0,0:0:0
144,144,82964,6,0,B|240:96|336:144,1,200,2|8,0:0|0:0,0:0:0
424,120,83494,1,8,0:0:0
424,120,83847,1,2,0:0:0
400,208,84023,1,8,0:0:0
376,296,84200,1,0,0:0:0
288,320,84376,2,0,B|184:320,1,100,4|0,0:0|0:0,0:0:0
144,240,84729,2,0,B|244:240,1,100,8|8,0:0|0:0,0:0:0
288,160,85082,2,0,B|188:160,1,100,4|0,0:0|0:0,0:0:0
144,80,85435,2,0,B|244:80,1,100,8|0,0:0|0:0,0:0:0
336,80,85788,5,2,0:0:0
336,80,86141,1,8,0:0:0
384,152,86317,2,0,B|432:216|400:296|328:312,1,200,8|2,0:0|0:0,0:0:0
264,368,86847,2,0,B|224:328|248:272,1,100,8|0,0:0|0:0,0:0:0
328,224,87200,2,0,B|280:168|192:176|160:248,1,200,0|8,0:0|0:0,0:0:0
88,296,87729,1,8,0:0:0
56,120,88082,1,2,0:0:0
56,120,88170,1,0,0:0:0
56,120,88258,1,8,0:0:0
128,72,88435,1,0,0:0:0
216,88,88611,6,0,B|320:96,1,100,2|0,0:0|0:0,0:0:0
336,184,88964,2,0,B|232:176,1,100,8|8,0:0|0:0,0:0:0
440,280,89494,1,2,0:0:0
440,280,89670,1,8,0:0:0
368,328,89847,1,4,0:0:0
280,336,90023,6,0,B|296:232,1,100
176,296,90376,2,0,B|224:208,1,100,8|8,0:0|0:0,0:0:0
88,224,90729,2,0,B|168:160,1,100
40,112,91082,2,0,B|144:88,1,100,8|0,0:0|0:0,0:0:0
224,104,91435,6,0,B|288:144|360:128|400:64,1,200,4|8,0:0|0:0,0:0:0
464,128,91964,1,8,0:0:0
464,128,92317,1,2,0:0:0
416,200,92494,1,8,0:0:0
440,288,92670,2,0,B|240:320,1,200,0|2,0:0|0:0,0:0:0
176,248,93200,1,8,0:0:0
176,248,93376,2,0,B|376:216,1,200,8|4,0:0|0:0,0:0:0
464,200,93905,1,8,0:0:0
328,48,94258,6,0,B|336:104|296:144,1,100,2|0,0:0|0:0,0:0:0
240,72,94611,2,0,B|216:128|160:136,1,100
80,152,94964,2,0,B|184:112|264:192,1,200,0|8,0:0|0:0,0:0:0
240,280,95494,2,0,B|136:320|56:240,1,200,2|2,0:0|0:0,0:0:0
80,152,96023,1,8,0:0:0
80,152,96200,1,8,0:0:0
240,280,96553,1,0,0:0:0
240,280,96729,1,8,0:0:0
304,344,96905,1,2,0:0:0
304,344,96994,1,0,0:0:0
304,344,97082,6,0,B|408:344,1,100,4|0,0:0|0:0,0:0:0
376,256,97435,1,8,0:0:0
376,256,97611,2,0,B|176:256,1,200,8|2,0:0|0:0,0:0:0
128,176,98141,2,0,B|232:176,1,100,8|0,0:0|0:0,0:0:0
320,176,98494,1,0,0:0:0
320,176,98847,1,8,0:0:0
408,152,99023,2,0,B|432:104|408:56,1,100,8|0,0:0|0:0,0:0:0
344,0,99376,2,0,B|312:48|344:96,1,100,0|8,0:0|0:0,0:0:0
256,112,99729,1,0,0:0:0
184,64,99905,5,0,0:0:0
184,64,100082,1,0,0:0:0
160,152,100258,1,8,0:0:0
160,152,100435,1,8,0:0:0
184,240,100611,1,0,0:0:0
184,240,100788,1,0,0:0:0
160,328,100964,1,8,0:0:0
160,328,101141,5,0,0:0:0
248,328,101317,5,0,0:0:0
336,152,101670,1,8,0:0:0
336,152,101847,1,8,0:0:0
368,80,102023,5,0,0:0:0
296,40,102200,1,0,0:0:0
216,40,102376,1,0,0:0:0
144,80,102553,1,0,0:0:0
216,116,102729,2,0,B|169:176|96:143,2,133.333333333333,0|2|0,0:0|0:0|0:0,0:0:0
296,188,103435,2,0,B|344:127|417:160,2,133.333333333333,0|2|0,0:0|0:0|0:0,0:0:0
212,252,104141,2,0,B|165:312|92:279,2,133.333333333333,0|2|0,0:0|0:0|0:0,0:0:0
300,312,104847,2,0,B|348:251|421:284,2,133.333333333333,0|2|0,0:0|0:0|0:0,0:0:0
212,372,105553,1,0,0:0:0
112,248,105905,5,8,0:0:0
44,204,106082,1,0,0:0:0
116,172,106258,1,0,0:0:0
48,128,106435,1,0,0:0:0
120,96,106611,2,0,B|32:40,2,100,8|0|0,0:0|0:0|0:0,0:0:0
452,48,107670,5,0,0:0:0
384,88,107847,1,0,0:0:0
364,164,108023,1,8,0:0:0
384,240,108200,1,0,0:0:0
452,280,108376,2,0,B|412:336|312:324|308:236,1,200,2|8,0:0|0:0,0:0:0
256,172,108905,1,0,0:0:0
204,236,109082,2,0,B|200:324|96:336|60:280,1,200,2|8,0:0|0:0,0:0:0
128,240,109611,1,0,0:0:0
128,240,109788,1,2,0:0:0
72,88,110494,5,2,0:0:0
28,152,110670,1,0,0:0:0
28,232,110847,1,8,0:0:0
72,296,111023,1,0,0:0:0
216,244,111200,1,4,0:0:0
440,88,111905,5,2,0:0:0
484,152,112082,1,0,0:0:0
484,232,112258,1,8,0:0:0
440,296,112435,1,0,0:0:0
296,244,112611,6,0,B|368:212|368:120|296:88,1,200,4|8,0:0|0:0,0:0:0
256,164,113141,1,2,0:0:0
216,88,113317,2,0,B|144:120|144:212|216:244,1,200,0|8,0:0|0:0,0:0:0
332,132,114023,6,0,B|406:104|471:169|443:243,1,200,4|8,0:0|0:0,0:0:0
440,320,114553,1,2,0:0:0
363,322,114729,2,0,B|290:351|225:286|253:212,1,200,0|8,0:0|0:0,0:0:0
256,136,115258,1,0,0:0:0
256,136,115435,5,4,0:0:0
392,40,115788,1,8,0:0:0
472,40,115964,1,2,0:0:0
432,108,116141,2,0,B|500:136|500:236|432:268,1,200,0|8,0:0|0:0,0:0:0
348,108,116847,5,0,0:0:0
288,56,117023,1,0,0:0:0
208,40,117200,1,8,0:0:0
128,56,117376,1,2,0:0:0
68,108,117553,2,0,B|20:152|68:196|120:240|68:288,1,200,0|8,0:0|0:0,0:0:0
8,244,118082,1,0,0:0:0
8,244,118258,5,4,0:0:0
168,276,118611,1,8,0:0:0
212,344,118788,1,2,0:0:0
296,344,118964,2,0,B|324:276|424:276|456:344,1,200,0|8,0:0|0:0,0:0:0
456,184,119670,5,4,0:0:0
336,80,120023,1,8,0:0:0
256,56,120200,1,2,0:0:0
176,80,120376,2,0,B|204:148|308:148|336:80,1,200,0|8,0:0|0:0,0:0:0
256,56,120905,1,0,0:0:0
256,56,121082,5,4,0:0:0
216,212,121435,1,8,0:0:0
296,212,121611,1,2,0:0:0
356,160,121788,2,0,B|156:160,1,200,0|8,0:0|0:0,0:0:0
8,232,122494,5,0,0:0:0
8,152,122670,1,0,0:0:0
76,196,122847,1,8,0:0:0
76,116,123023,1,0,0:0:0
144,156,123200,5,2,0:0:0
216,188,123376,1,0,0:0:0
296,188,123553,1,8,0:0:0
368,156,123729,1,0,0:0:0
256,36,123905,1,4,0:0:0
368,156,124611,5,2,0:0:0
296,188,124788,1,0,0:0:0
216,188,124964,1,8,0:0:0
144,156,125141,1,0,0:0:0
256,36,125293,1,4,0:0:0
476,64,125921,5,2,0:0:0
404,116,126078,1,0,0:0:0
488,148,126235,1,8,0:0:0
412,196,126392,1,0,0:0:0
256,36,126549,1,4,0:0:0
36,64,127149,5,2,0:0:0
108,116,127299,1,0,0:0:0
24,148,127449,1,8,0:0:0
100,196,127599,1,0,0:0:0
256,36,127749,1,4,0:0:0
296,152,128307,5,2,0:0:0
216,152,128446,1,0,0:0:0
296,228,128586,1,8,0:0:0
216,228,128725,1,0,0:0:0
256,36,128870,1,4,0:0:0
396,108,129142,6,0,B|464:184,2,100,0|0|8,0:0|0:0|0:0,0:0:0
396,108,129688,5,4,0:0:0
308,240,129960,6,0,B|188:240,3,100,0|0|8|0,0:0|0:0|0:0|0:0,0:0:0
208,240,130506,1,4,0:0:0
68,320,130779,6,0,B|68:208,2,100,0|0|8,0:0|0:0|0:0,0:0:0
68,320,131324,1,4,0:0:0
207,374,131597,6,0,B|311:374,3,100,0|0|8|0,0:0|0:0|0:0|0:0,0:0:0
307,374,132142,1,4,0:0:0
408,312,132551,5,2,0:0:0
336,272,132687,1,8,0:0:0
256,256,132823,1,0,0:0:0
176,272,132960,1,0,0:0:0
104,312,133096,1,0,0:0:0
104,312,133232,1,4,0:0:0
176,160,133505,5,2,0:0:0
256,184,133642,1,0,0:0:0
336,160,133778,1,8,0:0:0
256,32,134051,1,0,0:0:0
256,32,134323,1,4,0:0:0
320,264,134732,5,2,0:0:0
296,344,134869,1,8,0:0:0
216,344,135005,1,0,0:0:0
192,264,135142,1,0,0:0:0
256,216,135278,1,0,0:0:0
256,216,135414,1,4,0:0:0
216,92,135687,5,2,0:0:0
296,92,135823,1,0,0:0:0
256,24,135960,1,8,0:0:0
176,160,136232,1,0,0:0:0
336,160,136505,1,4,0:0:0
216,176,140596,5,0,0:0:0
256,192,140732,1,0,0:0:0
296,176,140869,1,0,0:0:0
376,120,141142,1,0,0:0:0
424,200,141414,2,0,B|448:312|336:360,1,200
304,376,142096,1,0,0:0:0
174,367,142369,2,0,B|92:332|110:248,1,150
120,208,142914,1,0,0:0:0
136,168,143051,5,0,0:0:0
256,112,143323,1,0,0:0:0
376,168,143596,1,0,0:0:0
256,116,143869,1,0,0:0:0
256,248,144142,1,0,0:0:0
256,248,144278,1,0,0:0:0
184,320,144551,2,0,B|256:360|328:320,1,150
360,296,145096,1,0,0:0:0
376,264,145232,6,0,B|400:216|376:168,1,100
320,72,145778,1,0,0:0:0
256,160,146051,1,0,0:0:0
192,72,146323,1,0,0:0:0
192,72,146460,1,0,0:0:0
136,167,146732,2,0,B|99:240|135:312,1,150
168,336,147278,1,0,0:0:0
208,352,147414,6,0,B|264:352,1,50
280,336,147687,2,0,B|336:336,1,50,0|2,0:0|0:0,0:0:0
352,320,147960,2,0,B|408:320,1,50
424,304,148232,2,0,B|480:304,1,50
496,288,148505,1,0,0:0:0
352,48,149323,5,0,0:0:0
336,88,149460,1,0,0:0:0
304,120,149596,2,0,B|248:152|184:104,1,100
168,96,150005,1,0,0:0:0
176,136,150142,2,0,B|208:192|160:256,1,100
152,272,150551,1,0,0:0:0
128,312,150687,6,0,B|88:352,2,50
176,312,151096,2,0,B|328:312,1,150
368,312,151642,1,0,0:0:0
408,304,151778,6,0,B|464:288|464:232,1,100
464,192,152187,1,0,0:0:0
464,152,152323,2,0,B|464:96|408:80,1,100
368,64,152732,1,0,0:0:0
328,56,152869,2,0,B|280:40,2,50
344,96,153278,2,0,B|392:128|392:192|344:224,1,150
312,248,153823,1,0,0:0:0
256,192,153960,12,0,155869,0:0:0
256,88,156551,6,4,B|256:304,1,200,4|4,0:0|0:0,0:0:0
72,200,157949,5,2,0:0:0
148,176,158163,1,2,0:0:0
176,100,158377,1,0,0:0:0
248,136,158591,2,0,B|360:148|416:52,1,200,2|0,0:0|0:0,0:0:0
415,52,159234,1,2,0:0:0
116,316,159663,5,2,0:0:0
192,292,159877,1,2,0:0:0
220,216,160091,1,0,0:0:0
292,252,160306,2,0,B|404:264|460:168,1,200,2|0,0:0|0:0,0:0:0
460,169,160949,1,2,0:0:0
76,208,161377,5,2,0:0:0
136,152,161591,2,0,B|216:80,2,100,2|0|2,0:0|0:0|0:0,0:0:0
296,160,162449,1,0,0:0:0
368,128,162663,1,2,0:0:0
208,328,163091,6,0,B|256:348|312:328,1,100,2|2,0:0|0:0,0:0:0
304,248,163520,2,0,B|256:268|200:248,1,100,0|2,0:0|0:0,0:0:0
256,96,164163,1,2,0:0:0
88,320,164908,6,0,B|16:248|60:132,1,200,0|0,0:0|0:0,0:0:0
124,84,165550,1,0,0:0:0
148,164,165765,6,0,B|148:285|241:327,1,200,0|0,0:0|0:0,0:0:0
280,256,166408,1,0,0:0:0
292,240,166515,1,0,0:0:0
308,228,166622,1,2,0:0:0
372,276,166836,2,0,B|420:244|424:196,1,100
496,164,167265,2,0,B|464:116|416:112,1,100,0|0,0:0|0:0,0:0:0
348,156,167693,2,0,B|304:136,2,50
348,76,168122,1,0,0:0:0
268,68,168336,6,0,B|164:92,1,100,2|0,0:0|0:0,0:0:0
212,160,168765,2,0,B|108:184,1,100
52,232,169193,1,0,0:0:0
128,264,169408,2,0,B|181:253,2,50
128,264,169836,1,0,0:0:0
84,328,170050,6,0,B|128:360|180:356,1,100,2|0,0:0|0:0,0:0:0
428,328,170479,2,0,B|384:360|332:356,1,100
316,356,170800,1,0,0:0:0
296,356,170908,1,0,0:0:0
256,288,171122,2,0,B|256:184,1,100
100,148,171765,6,0,B|172:60|280:104,1,200,2|0,0:0|0:0,0:0:0
340,52,172408,1,0,0:0:0
364,128,172622,6,0,B|320:235|408:307,2,200,0|0|2,0:0|0:0|0:0,0:0:0
436,160,173693,1,0,0:0:0
452,148,173800,1,0,0:0:0
464,132,173908,1,0,0:0:0
424,64,174122,1,0,0:0:0
424,64,174336,1,0,0:0:0
340,52,174550,2,0,B|284:44|236:48,1,100
160,52,174979,1,0,0:0:0
96,96,175193,6,0,B|52:132|52:132|16:208|88:256,1,200,2|0,0:0|0:0,0:0:0
160,288,175836,1,0,0:0:0
232,256,176050,2,0,B|303:208|267:132|267:132|223:96,1,200,0|0,0:0|0:0,0:0:0
284,44,176693,1,0,0:0:0
348,92,176908,6,0,B|412:184|348:280,1,200,2|0,0:0|0:0,0:0:0
396,344,177550,1,0,0:0:0
444,280,177765,2,0,B|507:185|443:93,2,200
312,188,179050,5,0,0:0:0
192,296,179479,2,2,B|150:327|91:325|45:289|34:238,1,200,2|8,0:0|0:0,0:0:0
192,88,180336,2,2,B|150:56|91:58|45:94|34:145,1,200,2|8,0:0|0:0,0:0:0
184,192,181193,2,0,B|136:192,2,50,0|0|0,0:0|0:0|0:0,0:0:0
256,232,181622,1,8,0:0:0
328,192,181836,1,0,0:0:0
256,152,182050,1,2,0:0:0
256,152,182158,1,0,0:0:0
344,72,182479,1,8,0:0:0
424,88,182693,1,0,0:0:0
460,108,182800,1,2,0:0:0
480,144,182908,5,4,0:0:0
480,224,183122,2,0,B|504:272,2,50,0|0|8,0:0|0:0|0:0,0:0:0
408,192,183550,1,2,0:0:0
336,224,183765,1,2,0:0:0
264,264,183979,1,0,0:0:0
192,232,184193,2,0,B|168:184,2,50,0|0|8,0:0|0:0|0:0,0:0:0
184,312,184622,2,0,B|143:347|82:346|39:305|35:252,3,200,2|8|2|8,0:0|0:0|0:0|0:0,0:0:0
24,168,186122,1,0,0:0:0
96,64,186336,6,2,B|131:23|154:30|118:105|211:130|216:46|239:52|250:105,1,200,2|2,0:0|0:0,0:0:0
256,192,186979,1,0,0:0:0
261,277,187193,2,2,B|272:331|295:337|300:253|393:278|357:353|380:360|416:320,1,200,2|2,0:0|0:0,0:0:0
488,224,187943,1,0,0:0:0
488,224,188050,1,0,0:0:0
456,152,188265,1,2,0:0:0
400,96,188479,1,8,0:0:0
328,64,188693,1,0,0:0:0
256,96,188908,2,2,B|216:136|168:126|167:67|120:56|79:95,1,200,2|2,0:0|0:0,0:0:0
40,168,189550,1,0,0:0:0
56,208,189658,1,0,0:0:0
96,216,189765,5,4,0:0:0
144,280,189979,2,0,B|128:344,2,50,0|0|8,0:0|0:0|0:0,0:0:0
216,248,190408,1,2,0:0:0
168,184,190622,2,0,B|192:80,1,100,8|0,0:0|0:0,0:0:0
272,144,191050,2,0,B|360:88,1,100,8|0,0:0|0:0,0:0:0
392,184,191479,2,0,B|504:200,2,100,0|2|0,0:0|0:0|0:0,0:0:0
320,224,192122,1,2,0:0:0
248,264,192336,1,0,0:0:0
240,344,192550,1,2,0:0:0
320,360,192765,5,2,0:0:0
372,296,192979,1,0,0:0:0
416,228,193193,2,0,B|464:256|468:324|428:356,2,150,2|2|0,0:0|0:0|0:0,0:0:0
372,296,194050,1,0,0:0:0
192,360,194479,1,2,0:0:0
140,296,194693,1,0,0:0:0
96,228,194908,2,0,B|48:256|44:324|84:356,2,150,2|2|0,0:0|0:0|0:0,0:0:0
164,184,195765,6,0,B|200:192|224:212|224:212|256:204|256:204|288:212|288:212|312:192|348:184,1,200,2|0,0:0|0:0,0:0:0
372,108,196408,1,0,0:0:0
452,96,196622,2,0,B|444:56|416:28|372:28|372:28|336:28,1,150,2|2,0:0|0:0,0:0:0
256,120,197265,1,0,0:0:0
175,28,197586,2,0,B|140:28|140:28|96:28|68:56|60:96,1,150,2|0,0:0|0:0,0:0:0
88,172,198122,5,0,0:0:0
88,172,198336,2,0,B|180:140|180:140|196:184|224:212|288:212|316:184|332:140|332:140|424:172,1,400,2|0,0:0|0:0,0:0:0
368,280,199408,5,0,0:0:0
256,324,199622,1,0,0:0:0
144,280,199836,1,0,0:0:0
56,216,200050,6,0,B|56:176|56:176|12:116|12:116|12:80,2,150,0|2|2,0:0|0:0|0:0,0:0:0
153,165,200908,1,0,0:0:0
192,36,201122,1,0,0:0:0
107,85,201336,1,0,0:0:0
240,116,201550,1,0,0:0:0
256,216,201765,6,0,B|364:216,1,100,0|2,0:0|0:0,0:0:0
256,300,202193,2,0,B|148:300,1,100,0|2,0:0|0:0,0:0:0
256,384,202622,2,0,B|364:384,1,100,0|2,0:0|0:0,0:0:0
404,300,203050,1,0,0:0:0
360,220,203265,1,2,0:0:0
456,168,203479,6,0,B|456:208|456:208|500:268|500:268|500:304,2,150,0|2|2,0:0|0:0|0:0,0:0:0
359,219,204336,1,0,0:0:0
320,348,204550,1,0,0:0:0
405,299,204765,1,0,0:0:0
272,268,204979,1,0,0:0:0
256,168,205193,6,0,B|148:168,1,100,4|2,0:0|0:0,0:0:0
256,84,205622,2,0,B|364:84,1,100,0|2,0:0|0:0,0:0:0
256,0,206050,6,0,B|148:0,1,100,4|2,0:0|0:0,0:0:0
96,80,206479,1,0,0:0:0
156,168,206693,1,2,0:0:0
320,296,206908,5,0,0:0:0
256,248,207122,1,0,0:0:0
192,296,207336,1,0,0:0:0
192,296,207443,2,0,B|112:312|56:272,1,100
64,264,207765,1,0,0:0:0
64,224,207872,1,0,0:0:0
40,192,207979,1,0,0:0:0
32,112,208193,2,0,B|88:112|136:80,1,100
192,40,208622,6,0,B|200:96|296:112,1,100,6|0,0:0|0:0,0:0:0
328,64,209050,1,0,0:0:0
328,64,209158,1,0,0:0:0
400,96,209372,2,0,B|448:80,3,50,0|6|0|0,0:0|0:0|0:0|0:0,0:0:0
440,160,209908,2,0,B|480:272,1,100
416,312,210336,5,6,0:0:0
336,288,210550,1,0,0:0:0
312,280,210658,1,0,0:0:0
296,296,210765,1,0,0:0:0
272,288,210872,1,0,0:0:0
256,304,210979,1,0,0:0:0
232,312,211086,1,0,0:0:0
208,312,211193,2,0,B|160:288|96:312,1,100,6|0,0:0|0:0,0:0:0
56,248,211622,2,0,B|88:200|56:144,1,100
96,80,212050,6,0,B|152:96|208:56,1,100,6|0,0:0|0:0,0:0:0
192,66,212372,1,0,0:0:0
256,112,212586,2,0,B|256:176,1,50
336,168,212908,2,0,B|360:112|440:112,1,100,6|0,0:0|0:0,0:0:0
414,113,213229,1,0,0:0:0
448,184,213443,2,0,B|448:240,1,50
424,312,213765,6,0,B|384:344|384:344|320:344,1,100,6|0,0:0|0:0,0:0:0
256,344,214193,2,0,B|209:288|185:304,1,50
176,312,214408,2,0,B|128:368|104:352,1,50
104,344,214622,2,0,B|48:344,2,50,6|0|0,0:0|0:0|0:0,0:0:0
72,272,215050,1,0,0:0:0
120,208,215265,1,0,0:0:0
104,128,215479,6,0,B|160:120|176:64,1,100,8|0,0:0|0:0,0:0:0
240,120,215908,1,0,0:0:0
240,120,216015,1,0,0:0:0
312,80,216229,1,0,0:0:0
352,80,216336,1,8,0:0:0
392,80,216443,1,0,0:0:0
432,80,216550,1,0,0:0:0
456,152,216765,2,0,B|488:248,1,100
408,240,217193,6,0,B|384:184|320:184,1,100,8|0,0:0|0:0,0:0:0
248,184,217622,1,0,0:0:0
248,264,217836,1,0,0:0:0
168,264,218050,2,0,B|112:264,3,50,8|0|0|0,0:0|0:0|0:0|0:0,0:0:0
96,224,218479,2,0,B|48:224,3,50
24,192,218908,5,12,0:0:0
480,192,219765,1,12,0:0:0
256,32,220622,6,2,B|256:144,1,100
176,144,221050,2,2,B|192:216|280:224|320:184,1,150
328,128,221586,1,2,0:0:0
328,128,221693,1,2,0:0:0
392,176,221908,1,2,0:0:0
392,176,222122,1,6,0:0:0
472,288,222482,5,8,0:0:0
400,328,222696,1,0,0:0:0
400,328,222803,1,0,0:0:0
400,328,222910,2,0,B|336:296,3,50,8|0|0|0,0:0|0:0|0:0|0:0,0:0:0
312,312,223339,6,0,B|272:352,2,50,8|0|0,0:0|0:0|0:0,0:0:0
360,248,223767,2,0,B|328:192|368:144,1,100,8|0,0:0|0:0,0:0:0
264,240,224187,5,0,0:0:0
264,240,224901,1,0,0:0:0
256,192,225750,12,4,228758,0:0:0
264,240,225760,1,0,0:0:0
