osu file format v10

[General]
AudioFilename: The GAG Quartet - le Internet Medley.mp3
AudioLeadIn: 0
PreviewTime: 4216
Countdown: 1
SampleSet: None
StackLeniency: 0.7
Mode: 0
LetterboxInBreaks: 1

[Editor]
Bookmarks: 4162,4178,33822,68937,101319,136505,140051,157846,165550,172408,172943,175193,175622,179211,192336,206800
DistanceSpacing: 1.1
BeatDivisor: 4
GridSize: 8

[Metadata]
Title:le Internet Medley
TitleUnicode:
Artist:The GAG Quartet
ArtistUnicode:
Creator:Bass-chan
Version:DoomInsane
Source:
Tags:
BeatmapID:188596
BeatmapSetID:39932

[Difficulty]
HPDrainRate:5
CircleSize:4
OverallDifficulty:8
ApproachRate:8
SliderMultiplier:2.4
SliderTickRate:2

[Events]
//Background and Video events
0,0,"lebg.jpg"
Video,0,"le Internet Medley.avi"
//Break Periods
//Storyboard Layer 0 (Background)
//Storyboard Layer 1 (Fail)
//Storyboard Layer 2 (Pass)
//Storyboard Layer 3 (Foreground)
//Storyboard Sound Samples
//Background Colour Transformations
3,100,163,162,255

[TimingPoints]
814,428.571428571429,4,2,0,80,1,0
3361,428.571428571429,4,2,0,80,1,0
4218,428.571428571429,4,1,0,80,1,0
4323,-100,4,1,0,5,0,0
4430,-100,4,1,0,80,0,0
31646,452.830188679245,4,1,0,80,1,0
32098,530.973451327434,4,1,0,80,1,0
32628,591.133004926108,4,1,0,80,1,0
33219,571.428571428571,4,1,0,80,1,0
33819,600,4,1,0,80,1,0
33819,-133.333333333333,4,1,0,100,0,0
36219,-100,4,1,0,100,0,0
56619,461.538461538462,4,1,0,100,1,0
57555,352.941176470588,4,1,0,100,1,0
101937,-133.333333333333,4,1,0,50,0,0
102643,-133.333333333333,4,2,0,50,0,0
102736,352.941176470588,4,1,0,50,1,0
102736,-133.333333333333,4,1,0,50,0,0
111201,352.941176470588,4,1,0,50,1,0
112612,-133.333333333333,4,1,0,50,0,0
123191,352.941176470588,4,1,0,50,1,0
123906,342.857142857143,4,1,0,60,1,0
124591,339.943342776204,4,1,0,60,1,0
125270,326.975476839237,4,1,0,70,1,0
125923,314.13612565445,4,1,0,70,1,0
126554,300,4,1,0,90,1,0
127754,279.06976744186,4,1,0,100,1,0
128870,272.727272727273,3,1,0,100,1,0
132142,545.454545454546,4,1,0,100,1,0
136369,-100,4,1,0,50,0,0
136642,-100,4,1,0,70,0,0
136983,-100,4,1,0,40,0,0
137187,-100,4,1,0,70,0,0
137460,-100,4,1,0,40,0,0
137664,-100,4,1,0,70,0,0
138073,-100,4,1,0,40,0,0
138346,-100,4,1,0,70,0,0
140051,-100,4,2,0,70,0,0
153892,-74.0740740740741,4,2,0,70,0,0
156414,-74.0740740740741,4,1,0,50,0,0
156960,-74.0740740740741,4,2,0,70,0,0
157949,428.571428571429,4,2,0,50,1,0
158591,428.571428571429,4,2,0,50,1,0
164908,428.571428571429,4,1,0,100,1,0
165550,-100,4,1,0,50,0,0
165765,428.571428571429,4,1,0,100,1,1
165765,-100,4,1,0,80,0,1
170586,-100,4,1,0,40,0,1
171015,-100,4,1,0,80,0,1
177443,-100,4,1,0,40,0,1
177872,-100,4,1,0,50,0,1
178086,-100,4,1,0,60,0,1
178515,-100,4,1,0,80,0,1
179372,-100,4,1,0,80,0,1
179800,-100,4,1,0,40,0,1
180015,-100,4,1,0,80,0,1
180658,-100,4,1,0,40,0,1
180872,-100,4,1,0,80,0,1
182318,-100,4,1,0,10,0,1
182425,-100,4,1,0,80,0,1
184515,-100,4,1,0,40,0,1
184729,-100,4,1,0,80,0,1
185158,-100,4,2,0,80,0,1
185372,-100,4,1,0,40,0,1
185586,-100,4,1,0,80,0,1
186015,-100,4,2,0,80,0,1
186229,-100,4,1,0,80,0,1
186658,-100,4,1,0,40,0,1
186872,-100,4,1,0,80,0,1
187515,-100,4,1,0,40,0,1
187729,-100,4,1,0,80,0,1
191586,-100,4,1,0,40,0,1
192229,-100,4,1,0,80,0,1
192443,-100,4,1,0,40,0,1
192770,-100,4,2,0,100,0,1
206908,-100,4,1,0,100,0,0
222482,428.571428571429,4,1,0,100,1,0
224186,714.285714285714,4,1,0,100,1,0
224900,857.142857142857,4,1,0,100,1,0
225750,428.571428571429,4,1,0,100,1,0

[HitObjects]
128,40,102025,5,0,0:0:0
52,48,102202,1,0,0:0:0
37,122,102378,1,0,0:0:0
103,160,102555,1,0,0:0:0
159,109,102731,6,0,B|320:128,1,119.999996423721,4|0,0:0|0:0,0:0:0
344,192,103172,1,0,0:0:0
344,192,103437,2,0,B|183:211,1,119.999996423721,2|0,0:0|0:0,0:0:0
160,280,103878,1,0,0:0:0
160,280,104143,6,0,B|321:299,1,119.999996423721
345,363,104584,1,0,0:0:0
345,363,104849,2,0,B|184:382,1,119.999996423721,2|0,0:0|0:0,0:0:0
160,280,105290,1,0,0:0:0
160,280,105555,6,0,B|136:240|128:200|184:184|176:144|152:104,1,179.999994635582
155,109,106084,1,2,0:0:0
256,376,106613,1,2,0:0:0
352,280,106966,6,0,B|376:240|384:200|328:184|336:144|360:104,1,179.999994635582
356,109,107496,1,2,0:0:0
328,40,107672,1,0,0:0:0
256,24,107849,1,0,0:0:0
184,40,108025,1,2,0:0:0
152,104,108202,1,0,0:0:0
120,168,108378,6,0,B|97:212|108:263|152:291|202:285,1,179.999994635582,4|2,0:0|0:0,0:0:0
256,232,108907,1,0,0:0:0
304,176,109084,2,0,B|354:170|398:198|409:249|387:293,1,179.999994635582,0|2,0:0|0:0,0:0:0
392,368,109613,1,0,0:0:0
392,368,109790,6,0,B|336:376|256:384|176:376|120:368,1,269.999991953373,0|2,0:0|0:0,0:0:0
104,296,110496,1,0,0:0:0
120,224,110672,1,0,0:0:0
136,152,110849,1,0,0:0:0
152,80,111025,1,0,0:0:0
168,8,111202,1,4,0:0:0
352,296,111907,5,0,0:0:0
368,224,112084,1,0,0:0:0
384,152,112260,1,0,0:0:0
400,80,112437,1,0,0:0:0
416,8,112613,6,0,B|455:20|473:51|472:88|472:88|472:168,1,179.999994635582,4|2,0:0|0:0,0:0:0
496,232,113143,2,0,B|464:288|384:296|368:224|288:232|248:296,1,269.999991953373,8|2,0:0|0:0,0:0:0
96,8,114025,6,0,B|57:20|39:51|40:88|40:88|40:168,1,179.999994635582,0|2,0:0|0:0,0:0:0
16,232,114555,1,0,0:0:0
16,232,114731,2,0,B|51:285|127:292|177:246,1,179.999994635582,8|2,0:0|0:0,0:0:0
296,328,115437,6,0,B|267:269|309:198|384:200,1,179.999994635582,0|2,0:0|0:0,0:0:0
448,198,115966,2,0,B|440:144|400:128|364:128|364:128|204:128,1,269.999991953373,8|2,0:0|0:0,0:0:0
216,328,116849,6,0,B|245:269|203:198|128:200,1,179.999994635582,0|2,0:0|0:0,0:0:0
64,198,117378,1,0,0:0:0
64,198,117555,2,2,B|72:144|112:128|148:128|148:128|231:128,1,179.999994635582,8|2,0:0|0:0,0:0:0
280,128,118084,1,0,0:0:0
328,184,118260,6,0,B|394:166|479:204|485:298|447:354,2,269.999991953373,0|8|2,0:0|0:0|0:0,0:0:0
256,208,119496,1,0,0:0:0
184,184,119672,6,0,B|117:166|32:204|26:298|64:354,2,269.999991953373,0|8|2,0:0|0:0|0:0,0:0:0
128,48,121084,6,0,B|204:0|308:0|384:48,2,269.999991953373,0|8|2,0:0|0:0|0:0,0:0:0
256,112,122496,1,0,0:0:0
464,240,123202,5,0,0:0:0
492,310,123378,1,0,0:0:0
434,358,123555,1,0,0:0:0
369,318,123731,1,0,0:0:0
388,245,123907,1,4,0:0:0
48,168,124592,5,0,0:0:0
20,238,124764,1,0,0:0:0
78,286,124935,1,0,0:0:0
143,246,125107,1,0,0:0:0
124,173,125278,1,4,0:0:0
464,72,125916,5,0,0:0:0
492,142,126075,1,0,0:0:0
434,190,126235,1,0,0:0:0
369,150,126395,1,0,0:0:0
388,77,126554,1,4,0:0:0
48,0,127154,5,0,0:0:0
20,70,127304,1,0,0:0:0
78,118,127454,1,0,0:0:0
143,78,127604,1,0,0:0:0
124,5,127754,1,4,0:0:0
376,272,128312,5,0,0:0:0
328,328,128451,1,0,0:0:0
256,352,128591,1,0,0:0:0
184,328,128730,1,0,0:0:0
136,272,128870,1,4,0:0:0
216,96,129142,6,0,B|128:-8,1,120
8,8,129415,2,0,B|85:99,1,120,0|0,0:0|0:0,0:0:0
84,232,129688,1,4,0:0:0
296,96,129960,6,0,B|384:-8,1,120
504,8,130233,2,0,B|426:99,1,120,0|0,0:0|0:0,0:0:0
428,232,130506,1,4,0:0:0
216,288,130779,6,0,B|128:392,1,120
8,376,131052,2,0,B|85:284,1,120,0|0,0:0|0:0,0:0:0
84,152,131324,1,4,0:0:0
296,288,131597,6,0,B|384:392,1,120
504,376,131870,2,0,B|426:284,1,120,0|0,0:0|0:0,0:0:0
428,152,132142,1,4,0:0:0
144,336,132551,5,0,0:0:0
72,320,132688,1,0,0:0:0
48,248,132824,1,0,0:0:0
96,192,132960,1,0,0:0:0
168,208,133097,1,0,0:0:0
192,280,133233,1,8,0:0:0
336,336,133505,5,0,0:0:0
408,320,133642,1,0,0:0:0
432,248,133778,1,0,0:0:0
312,208,134051,1,0,0:0:0
336,336,134323,1,8,0:0:0
368,152,134733,5,0,0:0:0
440,136,134870,1,0,0:0:0
464,64,135006,1,0,0:0:0
416,8,135142,1,0,0:0:0
344,24,135279,1,0,0:0:0
320,96,135415,1,8,0:0:0
176,152,135687,5,0,0:0:0
104,136,135824,1,0,0:0:0
80,64,135960,1,0,0:0:0
200,24,136233,1,0,0:0:0
176,152,136505,1,12,0:0:0
336,288,140323,1,0,0:0:0
