osu file format v13

[General]
AudioFilename: 05. The Frim - City Streets (Original Mix).mp3
AudioLeadIn: 0
PreviewTime: 66289
Countdown: 0
SampleSet: None
StackLeniency: 0.7
Mode: 0
LetterboxInBreaks: 0
EpilepsyWarning: 1
WidescreenStoryboard: 1

[Editor]
Bookmarks: 11117,22151,33186,44220,55255,66289,77324,88358,99393
DistanceSpacing: 1
BeatDivisor: 4
GridSize: 4
TimelineZoom: 1

[Metadata]
Title:City Streets
TitleUnicode:City Streets
Artist:The Frim
ArtistUnicode:The Frim
Creator:Kyshiro
Version:Normal
Source:
Tags:fools preschool ep ayu Asphyxia irreversible Firepower Records drum and bass dnb
BeatmapID:324709
BeatmapSetID:128157

[Difficulty]
HPDrainRate:4
CircleSize:3.3
OverallDifficulty:4
ApproachRate:4
SliderMultiplier:0.9
SliderTickRate:1

[Events]
//Background and Video events
0,0,"wallpaper-1968248.jpg",0,0
//Break Periods
2,44420,53935
2,63731,64969
//Storyboard Layer 0 (Background)
//Storyboard Layer 1 (Fail)
//Storyboard Layer 2 (Pass)
//Storyboard Layer 3 (Foreground)
Sprite,Foreground,Centre,"bg-black.png",320,240 S,0,0,,0.6625454 F,0,0,5600,1,0
Sprite,Foreground,Centre,"bg-blur.png",320,240 M,0,44134,,320,240 S,0,44134,,0.6392726 F,0,44134,44220,0,0.9922641 F,0,44220,44824,0.9922641,0 F,0,44824,44910,0,1 F,0,44910,45514,1,0 F,0,45514,45600,0,1 F,0,45600,46203,1,0 F,0,46203,46289,0,1 F,0,46289,46893,1,0 F,0,46893,46979,0,1 F,0,46979,47583,1,0 F,0,47583,47669,0,1 F,0,47669,48272,1,0 F,0,48272,48358,0,1 F,0,48358,48962,1,0 F,0,48962,49048,0,1 F,0,49048,49651,1,0 F,0,49651,49738,0,1 F,0,49738,50341,1,0 F,0,50341,50427,0,1 F,0,50427,51031,1,0 F,0,51031,51117,0,1 F,0,51117,51720,1,0 F,0,51720,51807,0,1 F,0,51807,52410,1,0 F,0,52410,52496,0,1 F,0,52496,53100,1,0 F,0,53100,53186,0,1 F,0,53186,53789,1,0 F,0,53789,53876,0,1 F,0,53876,54479,1,0 F,0,54479,54565,0,1 F,0,54565,55169,1,0 F,0,55169,55255,0,1 F,0,55255,55514,1,0 F,0,55514,55600,0,1 F,0,55600,55858,1,0 F,0,55858,55945,0,1 F,0,55945,56203,1,0 F,0,56203,56289,0,1 F,0,56289,56548,1,0 F,0,56548,56634,0,1 F,0,56634,56893,1,0 F,0,56893,56979,0,1 F,0,56979,57238,1,0 F,0,57238,57324,0,1 F,0,57324,57583,1,0 F,0,57583,57669,0,1 F,0,57669,57927,1,0 F,0,57927,58014,0,1 F,0,58014,58272,1,0 F,0,58272,58358,0,1 F,0,58358,58617,1,0 F,0,58617,58703,0,1 F,0,58703,58962,1,0 F,0,58962,59048,0,1 F,0,59048,59307,1,0 F,0,59307,59393,0,1 F,0,59393,59651,1,0 F,0,59651,59738,0,1 F,0,59738,59996,1,0 F,0,59996,60083,0,1 F,0,60083,60341,1,0 F,0,60341,60427,0,1 F,0,60427,60686,1,0 F,0,60686,60772,0,1 F,0,60772,61031,1,0 F,0,61031,61117,0,1 F,0,61117,61376,1,0 F,0,61376,61462,0,1 F,0,61462,61720,1,0 F,0,61720,61807,0,1 F,0,61807,62065,1,0 F,0,62065,62151,0,1 F,0,62151,62410,1,0 F,0,62410,62496,0,1 F,0,62496,62755,1,0 F,0,62755,62841,0,1 F,0,62841,63100,1,0 F,0,63100,63186,0,1 F,0,63186,63422,1,0 F,0,63422,63531,0,1 F,0,63531,63789,1,0 F,0,63789,64910,0,1 F,0,64910,66117,1 F,0,66117,66289,1,0 F,0,66289,76807,0 F,0,76807,77238,0,1 F,0,77238,77324,1,0 F,0,77324,87841,0,0.06976742 F,0,87841,88272,0.06976742,1 F,0,88272,88358,1,0 F,0,88358,98876,0 F,0,98876,99307,0,1 F,0,99307,99393,1,0 F,0,99393,110379,0,1
Sprite,Foreground,Centre,"bg-blur.png",320,240 M,0,0,,319,240 S,0,0,,0.6392726 F,0,0,11117,1,0
Sprite,Foreground,Centre,"bg-black.png",320,240 S,0,63531,,1.180364 F,0,63531,66117,0,1 F,0,66117,66289,1,0
Sprite,Foreground,Centre,"bg-black.png",320,240 F,0,107669,110380,0,1
//Storyboard Sound Samples

[TimingPoints]
83,344.827586206897,4,1,0,100,1,0
11117,-100,4,2,1,100,0,0
22151,-100,4,1,0,70,0,0
66289,-100,4,1,0,70,0,1
77238,-100,4,1,0,70,0,0
77324,-100,4,1,0,70,0,1
88272,-100,4,1,0,70,0,0
88358,-100,4,1,0,70,0,1
99393,-100,4,1,0,70,0,0
108014,-100,4,2,0,5,0,0

[Colours]
Combo1 : 17,254,176
Combo2 : 81,169,217
Combo3 : 255,88,100
Combo4 : 255,94,55

[HitObjects]
84,242,11117,6,0,P|137:250|176:235,2,90,2|2|2,0:0|0:0|0:0,0:0:0:0:
124,161,12151,1,0,0:0:0:0:
213,155,12496,2,0,L|310:187,1,90,2|0,0:0|0:0,0:0:0:0:
383,152,13186,2,0,P|399:123|386:52,2,90,2|2|2,0:0|0:0|0:0,0:0:0:0:
351,236,14220,5,0,0:0:0:0:
351,236,14565,2,0,P|335:265|348:336,1,90,2|0,0:0|0:0,0:0:0:0:
415,367,15255,2,0,P|363:327|247:339,2,180,2|2|2,0:0|0:0|0:0,0:0:0:0:
478,302,16979,5,2,0:0:0:0:
406,247,17324,2,0,L|385:144,1,90,2|0,0:0|0:0,0:0:0:0:
337,83,18014,2,0,P|301:68|191:137,1,180,2|2,0:0|0:0,0:0:0:0:
189,225,19048,1,2,0:0:0:0:
110,180,19393,6,0,P|83:133|108:52,2,135,2|2|0,0:0|0:0|0:0,0:0:0:0:
173,115,20772,2,0,P|230:85|336:120,1,180,2|0,0:0|0:0,0:0:0:0:
264,287,22151,6,0,P|211:313|107:259,1,180,4|8,0:0|0:0,0:0:0:0:
113,174,23186,1,0,0:0:0:0:
159,94,23531,2,0,P|198:141|196:214,2,135
71,86,24910,6,0,L|261:57,1,180,0|8,0:0|0:0,0:0:0:0:
328,16,25945,1,0,0:0:0:0:
381,88,26289,2,0,P|388:140|420:173,2,90,0|0|8,0:0|0:0|0:0,0:0:0:0:
470,99,27324,1,0,0:0:0:0:
501,183,27669,6,0,L|338:268,1,180,0|8,0:0|0:0,0:0:0:0:
279,331,28703,1,0,0:0:0:0:
195,306,29048,2,0,P|207:271|157:174,2,135
118,257,30427,5,0,0:0:0:0:
77,176,30772,2,0,L|94:83,2,90,0|8|0,0:0|0:0|0:0,0:0:0:0:
118,257,31807,2,0,P|191:240|241:274,2,135
171,327,33186,6,0,P|239:359|321:298,1,180,4|8,0:0|0:0,0:0:0:0:
362,225,34220,1,0,0:0:0:0:
444,260,34565,2,0,L|466:353,2,90,2|0|8,2:0|0:0|0:0,0:0:0:0:
362,225,35600,1,0,0:0:0:0:
393,140,35945,6,0,P|437:111|482:111,1,90,2|0,2:0|0:0,0:0:0:0:
459,198,36634,2,0,P|428:221|309:168,1,180,8|2,0:0|2:0,0:0:0:0:
250,106,37669,1,0,0:0:0:0:
173,154,38014,2,0,P|161:187|174:240,1,90,8|0,0:0|0:0,0:0:0:0:
263,245,38703,6,0,P|203:234|101:297,1,180,2|8,2:0|0:0,0:0:0:0:
29,342,39738,1,0,0:0:0:0:
12,253,40083,2,0,L|79:82,1,180,2|8,2:0|0:0,0:0:0:0:
159,130,41117,1,0,0:0:0:0:
242,102,41462,6,0,P|313:84|375:112,2,135,2|2|0,2:0|2:0|0:0,0:0:0:0:
190,175,42841,2,0,P|201:232|415:176,1,360,2|4,2:0|0:0,0:0:0:0:
103,214,55255,6,0,L|84:308,2,90,4|8|0,0:0|0:0|0:0,0:0:0:0:
170,154,56289,1,8,0:0:0:0:
234,216,56634,2,0,P|321:238|386:175,1,180
298,150,57669,1,8,0:0:0:0:
363,84,58014,6,0,P|276:60|209:124,1,180
153,184,59048,1,8,0:0:0:0:
74,139,59393,2,0,P|67:102|85:51,2,90,0|8|0,0:0|0:0|0:0,0:0:0:0:
153,184,60427,1,8,0:0:0:0:
96,254,60772,6,0,L|6:242,1,90,0|8,0:0|0:0,0:0:0:0:
32,328,61462,2,0,L|122:340,1,90,0|8,0:0|0:0,0:0:0:0:
207,313,62151,2,0,P|226:273|215:227,1,90,0|8,0:0|0:0,0:0:0:0:
169,152,62841,2,0,P|159:108|178:68,1,90,0|8,0:0|0:0,0:0:0:0:
274,29,63531,5,0,0:0:0:0:
466,169,66289,6,0,P|433:218|315:204,1,180,4|0,0:0|0:0,0:0:0:0:
274,135,67324,1,8,0:0:0:0:
197,182,67669,2,0,P|192:225|209:273,2,90,0|8|0,0:0|0:0|0:0,0:0:0:0:
274,135,68703,1,8,0:0:0:0:
195,90,69048,6,0,L|48:84,2,135,0|0|8,0:0|0:0|0:0,0:0:0:0:
268,37,70427,1,0,0:0:0:0:
337,93,70772,2,0,P|347:133|331:178,1,90,8|0,0:0|0:0,0:0:0:0:
244,202,71462,1,8,0:0:0:0:
306,266,71807,6,0,L|498:252,1,180,4|0,0:0|0:0,0:0:0:0:
510,166,72841,1,8,0:0:0:0:
454,94,73186,2,0,P|403:85|363:102,1,90,0|8,0:0|0:0,0:0:0:0:
278,97,73876,2,0,P|235:110|192:101,1,90,0|8,0:0|0:0,0:0:0:0:
231,19,74565,6,0,P|127:36|100:102,1,180
158,170,75600,1,8,0:0:0:0:
97,236,75945,2,0,L|5:211,2,90,0|8|0,0:0|0:0|0:0,0:0:0:0:
166,293,76979,1,8,0:0:0:0:
226,225,77324,6,0,P|321:214|379:270,1,180,4|0,0:0|0:0,0:0:0:0:
428,342,78358,1,8,0:0:0:0:
479,268,78703,2,0,L|492:178,1,90,0|8,0:0|0:0,0:0:0:0:
401,176,79393,2,0,L|414:86,1,90,0|8,0:0|0:0,0:0:0:0:
341,33,80083,6,0,P|295:20|216:66,2,135,0|0|8,0:0|0:0|0:0,0:0:0:0:
294,110,81462,1,0,0:0:0:0:
212,149,81807,2,0,L|113:134,2,90,8|0|8,0:0|0:0|0:0,0:0:0:0:
282,204,82841,6,0,P|335:184|435:244,1,180,4|0,0:0|0:0,0:0:0:0:
423,332,83876,1,8,0:0:0:0:
339,367,84220,2,0,P|333:318|348:280,1,90,0|8,0:0|0:0,0:0:0:0:
392,196,84910,2,0,P|406:153|397:110,1,90,0|8,0:0|0:0,0:0:0:0:
316,70,85600,6,0,L|175:77,2,135,0|0|8,0:0|0:0|0:0,0:0:0:0:
286,155,86979,2,0,L|427:148,2,135,0|0|8,0:0|0:0|0:0,0:0:0:0:
207,198,88358,6,0,P|192:248|210:293,1,90,4|8,0:0|0:0,0:0:0:0:
279,329,89048,2,0,P|294:279|276:234,1,90,0|8,0:0|0:0,0:0:0:0:
287,155,89738,2,0,P|353:138|434:214,1,180
343,229,90772,1,8,0:0:0:0:
253,242,91117,6,0,L|177:189,1,90,0|8,0:0|0:0,0:0:0:0:
100,235,91807,1,0,0:0:0:0:
96,145,92151,2,0,P|148:103|253:129,1,180,8|8,0:0|0:0,0:0:0:0:
335,178,93186,2,0,P|283:220|178:194,1,180,0|4,0:0|0:0,0:0:0:0:
168,106,94220,6,0,P|162:64|132:27,2,90,8|0|8,0:0|0:0|0:0,0:0:0:0:
77,101,95255,1,0,0:0:0:0:
115,182,95600,2,0,L|296:143,1,180,8|8,0:0|0:0,0:0:0:0:
362,90,96634,5,0,0:0:0:0:
443,135,96979,2,0,P|475:206|416:289,2,180,8|8|8,0:0|0:0|0:0,0:0:0:0:
387,205,98703,2,0,L|316:260,1,90,0|8,0:0|0:0,0:0:0:0:
238,306,99393,6,0,L|91:285,2,135,4|0|8,0:0|0:0|0:0,0:0:0:0:
314,259,100772,2,0,P|331:218|298:174,1,90,0|8,0:0|0:0,0:0:0:0:
254,111,101462,2,0,P|209:126|157:110,1,90,0|8,0:0|0:0,0:0:0:0:
206,35,102151,6,0,P|268:22|342:106,2,180
254,111,103876,1,8,0:0:0:0:
303,185,104220,2,0,L|491:166,1,180
512,252,105255,5,8,0:0:0:0:
349,328,105945,2,0,L|254:314,1,90,8|0,0:0|0:0,0:0:0:0:
173,288,106634,2,0,P|132:236|147:121,1,180,8|8,0:0|0:0,0:0:0:0:
221,85,107669,1,4,0:0:0:0:
256,192,108014,12,0,110255,0:0:0:0:
