osu file format v13

[General]
AudioFilename: 05. The Frim - City Streets (Original Mix).mp3
AudioLeadIn: 0
PreviewTime: 66289
Countdown: 0
SampleSet: None
StackLeniency: 0.7
Mode: 0
LetterboxInBreaks: 0
EpilepsyWarning: 1
WidescreenStoryboard: 1

[Editor]
Bookmarks: 11117,22151,33186,44220,55255,66289,77324,88358,99393
DistanceSpacing: 1.2
BeatDivisor: 4
GridSize: 4
TimelineZoom: 1

[Metadata]
Title:City Streets
TitleUnicode:City Streets
Artist:The Frim
ArtistUnicode:The Frim
Creator:Kyshiro
Version:Insane Collab
Source:
Tags:fools preschool ep ayu Asphyxia irreversible Firepower Records drum and bass dnb
BeatmapID:324707
BeatmapSetID:128157

[Difficulty]
HPDrainRate:7
CircleSize:4
OverallDifficulty:8
ApproachRate:8.5
SliderMultiplier:1.6
SliderTickRate:1

[Events]
//Background and Video events
0,0,"wallpaper-1968248.jpg",0,0
//Break Periods
2,44420,54580
//Storyboard Layer 0 (Background)
//Storyboard Layer 1 (Fail)
//Storyboard Layer 2 (Pass)
//Storyboard Layer 3 (Foreground)
Sprite,Foreground,Centre,"bg-black.png",320,240 S,0,0,,0.6625454 F,0,0,5600,1,0
Sprite,Foreground,Centre,"kyshiro.png",320,240 F,0,32841,32927,0.4625455,0 F,0,32927,33014,0,0.7286347 F,0,33014,33100,0.7286347,0.1137719 F,0,33100,33186,0.1137719,1 S,0,33186,,0.4705454 F,0,33186,43703,1 M,0,33186,43876,466,388 F,0,43703,43876,1,0.6538182 F,0,43876,44048,0.6538182,1 F,0,44048,44220,1,0
Sprite,Foreground,Centre,"bg-blur.png",320,240 M,0,44134,,320,240 S,0,44134,,0.6392726 F,0,44134,44220,0,0.9922641 F,0,44220,44824,0.9922641,0 F,0,44824,44910,0,1 F,0,44910,45514,1,0 F,0,45514,45600,0,1 F,0,45600,46203,1,0 F,0,46203,46289,0,1 F,0,46289,46893,1,0 F,0,46893,46979,0,1 F,0,46979,47583,1,0 F,0,47583,47669,0,1 F,0,47669,48272,1,0 F,0,48272,48358,0,1 F,0,48358,48962,1,0 F,0,48962,49048,0,1 F,0,49048,49651,1,0 F,0,49651,49738,0,1 F,0,49738,50341,1,0 F,0,50341,50427,0,1 F,0,50427,51031,1,0 F,0,51031,51117,0,1 F,0,51117,51720,1,0 F,0,51720,51807,0,1 F,0,51807,52410,1,0 F,0,52410,52496,0,1 F,0,52496,53100,1,0 F,0,53100,53186,0,1 F,0,53186,53789,1,0 F,0,53789,53876,0,1 F,0,53876,54479,1,0 F,0,54479,54565,0,1 F,0,54565,55169,1,0 F,0,55169,55255,0,1 F,0,55255,55514,1,0 F,0,55514,55600,0,1 F,0,55600,55858,1,0 F,0,55858,55945,0,1 F,0,55945,56203,1,0 F,0,56203,56289,0,1 F,0,56289,56548,1,0 F,0,56548,56634,0,1 F,0,56634,56893,1,0 F,0,56893,56979,0,1 F,0,56979,57238,1,0 F,0,57238,57324,0,1 F,0,57324,57583,1,0 F,0,57583,57669,0,1 F,0,57669,57927,1,0 F,0,57927,58014,0,1 F,0,58014,58272,1,0 F,0,58272,58358,0,1 F,0,58358,58617,1,0 F,0,58617,58703,0,1 F,0,58703,58962,1,0 F,0,58962,59048,0,1 F,0,59048,59307,1,0 F,0,59307,59393,0,1 F,0,59393,59651,1,0 F,0,59651,59738,0,1 F,0,59738,59996,1,0 F,0,59996,60083,0,1 F,0,60083,60341,1,0 F,0,60341,60427,0,1 F,0,60427,60686,1,0 F,0,60686,60772,0,1 F,0,60772,61031,1,0 F,0,61031,61117,0,1 F,0,61117,61376,1,0 F,0,61376,61462,0,1 F,0,61462,61720,1,0 F,0,61720,61807,0,1 F,0,61807,62065,1,0 F,0,62065,62151,0,1 F,0,62151,62410,1,0 F,0,62410,62496,0,1 F,0,62496,62755,1,0 F,0,62755,62841,0,1 F,0,62841,63100,1,0 F,0,63100,63186,0,1 F,0,63186,63422,1,0 F,0,63422,63531,0,1 F,0,63531,63789,1,0 F,0,63789,64910,0,1 F,0,64910,66117,1 F,0,66117,66289,1,0 F,0,66289,76807,0 F,0,76807,77238,0,1 F,0,77238,77324,1,0 F,0,77324,87841,0,0.06976742 F,0,87841,88272,0.06976742,1 F,0,88272,88358,1,0 F,0,88358,98876,0 F,0,98876,99307,0,1 F,0,99307,99393,1,0 F,0,99393,110379,0,1
Sprite,Foreground,Centre,"bg-blur.png",320,240 M,0,0,,319,240 S,0,0,,0.6392726 F,0,0,11117,1,0
Sprite,Foreground,Centre,"bg-black.png",320,240 S,0,63531,,1.180364 F,0,63531,66117,0,1 F,0,66117,66289,1,0
Sprite,Foreground,Centre,"bg-black.png",320,240 F,0,107669,110380,0,1
Sprite,Foreground,Centre,"kyshiro.png",320,240 F,0,10772,11117,0,1 S,0,11117,,0.4705454 F,0,11117,21634,1 M,0,11117,21807,466,388 F,0,21634,21720,1,0.5781817 F,0,21720,21807,0.5781817,0 F,0,21807,21893,0,1 F,0,21893,21979,1,0 F,0,21979,22065,0,1 F,0,22065,22151,1,0
Sprite,Foreground,Centre,"ayu.png",320,240 F,0,21807,21893,0.5556365,0 F,0,21893,21979,0,0.5112727 F,0,21979,22065,0.5112727,0.05454544 F,0,22065,22151,0.05454544,1 M,0,22151,,467,387 S,0,22151,,0.6218182 F,0,22151,32583,1 F,0,32583,32669,1,0.5781819 F,0,32669,32755,0.5781819,1 F,0,32755,32841,1,0 F,0,32841,32927,0,1 F,0,32927,33014,1,0 F,0,33014,33100,0,1 F,0,33100,33186,1,0
Sprite,Foreground,Centre,"ayu.png",320,240 M,0,76979,,468,386 S,0,76979,,0.6683633 F,0,76979,77065,0.349091,0 F,0,77065,77151,0,0.3544266 F,0,77151,77238,0.3544266,0.02254514 F,0,77238,77324,0.02254514,1 F,0,77324,88013,1 F,0,88013,88272,1,0
Sprite,Foreground,Centre,"kyshiro.png",320,240 M,0,88272,,458,386 S,0,88272,,0.5229094 F,0,88272,88358,0,1 F,0,88358,99048,1 F,0,99048,99307,1,0
Sprite,Foreground,Centre,"kyshiro.png",320,240 S,0,66203,,0.4763635 F,0,66203,66289,0,1 F,0,66289,76720,1 F,0,76720,76807,1,0.5839999 F,0,76807,76893,0.5839999,1 F,0,76893,76979,1,0 F,0,76979,77065,0,1 F,0,77065,77151,1,0 F,0,77151,77238,0,0.6225456 M,0,77238,,466,388
Sprite,Foreground,Centre,"ayu.png",320,240 M,0,55083,,470,390 F,0,55083,55255,0,1 F,0,55255,65600,1 F,0,65600,,1 S,0,65600,,0.6218185 F,0,65600,66117,1,0
Sprite,Foreground,Centre,"ayu.png",320,240 M,0,99307,,463,384 S,0,99307,,0.6509091 F,0,99307,99393,0,1 F,0,99393,107669,1 F,0,107669,110341,1,0
//Storyboard Sound Samples

[TimingPoints]
83,344.827586206897,4,1,0,100,1,0
11117,-117.647058823529,4,2,1,100,0,0
22151,-100,4,1,0,70,0,0
66289,-100,4,1,0,70,0,1
77238,-100,4,1,0,70,0,0
77324,-100,4,1,0,70,0,1
88272,-100,4,1,0,70,0,0
88358,-100,4,1,0,70,0,1
99393,-100,4,1,0,70,0,0
107755,-100,4,2,1,5,0,0

[Colours]
Combo1 : 17,254,176
Combo2 : 81,169,217
Combo3 : 255,88,100
Combo4 : 255,94,55

[HitObjects]
95,220,11117,6,0,L|171:238,1,68.0000012969971,2|0,0:0|0:0,0:0:0:0:
235,127,11462,2,0,L|159:145,1,68.0000012969971,2|0,0:0|0:0,0:0:0:0:
260,207,11807,2,0,P|318:189|391:221,1,136.000002593994,2|2,0:0|0:0,0:0:0:0:
247,308,12324,1,2,2:0:0:0:
334,367,12497,1,2,0:0:0:0:
440,276,12669,2,0,L|431:343,1,68.0000012969971,0|2,0:0|0:0,0:0:0:0:
260,207,13014,6,0,L|270:126,1,68.0000012969971,0|2,0:0|0:0,0:0:0:0:
341,102,13358,1,2,0:0:0:0:
418,126,13531,1,2,0:0:0:0:
444,49,13703,1,2,0:0:0:0:
367,25,13876,6,0,P|309:54|235:46,1,136.000002593994,2|2,0:0|0:0,0:0:0:0:
164,16,14393,1,2,0:0:0:0:
108,75,14565,2,0,P|99:118|109:144,2,68.0000012969971,0|2|2,0:0|0:0|0:0,0:0:0:0:
182,109,15083,1,0,0:0:0:0:
172,189,15255,6,0,P|117:220|39:187,2,136.000002593994,2|2|2,0:0|0:0|0:0,0:0:0:0:
236,238,16117,1,2,0:0:0:0:
304,194,16289,2,0,P|320:163|321:126,1,68.0000012969971,2|2,0:0|0:0,0:0:0:0:
401,28,16634,6,0,P|400:102|451:150,1,136.000002593994,2|2,0:0|0:0,0:0:0:0:
482,66,17151,1,0,0:0:0:0:
315,52,17324,2,0,L|234:45,1,68.0000012969971,2|0,0:0|0:0,0:0:0:0:
304,226,17669,2,0,L|357:178,1,68.0000012969971,2|2,0:0|0:0,0:0:0:0:
255,136,18014,5,2,0:0:0:0:
255,136,18186,2,0,P|208:191|211:270,1,136.000002593994
275,310,18703,2,0,L|349:300,1,68.0000012969971,2|2,0:0|0:0,0:0:0:0:
200,352,19048,2,0,L|126:362,1,68.0000012969971,2|2,0:0|0:0,0:0:0:0:
38,284,19393,6,0,P|24:221|57:149,1,136.000002593994,2|2,0:0|0:0,0:0:0:0:
208,44,19910,2,0,P|222:107|189:179,1,136.000002593994,2|2,0:0|0:0,0:0:0:0:
132,228,20427,1,2,0:0:0:0:
68,176,20600,1,0,0:0:0:0:
132,228,20772,6,0,P|197:208|254:237,1,136.000002593994,2|0,0:0|0:0,0:0:0:0:
283,342,21289,2,0,L|214:366,1,68.0000012969971,2|2,0:0|0:0,0:0:0:0:
127,315,21634,1,0,0:0:0:0:
158,302,21720,1,0,0:0:0:0:
189,290,21807,1,2,0:0:0:0:
221,278,21893,1,0,0:0:0:0:
253,267,21979,1,2,0:0:0:0:
285,256,22065,1,0,0:0:0:0:
312,248,22151,6,0,P|356:236|464:268,1,160,4|0,0:0|0:0,0:0:0:0:
511,351,22669,1,0,0:0:0:0:
496,184,22841,2,0,P|488:144|472:108,1,80,8|0,0:0|0:0,0:0:0:0:
389,58,23186,1,0,0:0:0:0:
232,134,23358,5,0,0:0:0:0:
304,200,23531,2,0,P|336:204|384:184,1,80
326,107,23876,1,0,0:0:0:0:
168,212,24048,1,0,0:0:0:0:
168,212,24220,2,0,P|160:252|160:292,1,80,8|0,0:0|0:0,0:0:0:0:
240,152,24565,2,0,P|239:112|231:72,1,80
300,216,24910,6,0,P|332:244|443:226,1,160
376,159,25427,1,0,0:0:0:0:
300,216,25600,2,0,L|288:300,1,80,8|0,0:0|0:0,0:0:0:0:
132,204,25945,2,0,L|204:168,1,80
368,172,26289,6,0,P|384:208|368:328,1,160
279,358,26807,1,0,0:0:0:0:
192,252,26979,2,0,P|192:212|204:172,1,80,8|0,0:0|0:0,0:0:0:0:
288,44,27324,2,0,P|299:82|299:122,1,80
100,192,27669,6,0,P|60:160|57:57,1,160
135,106,28186,1,0,0:0:0:0:
144,260,28358,2,0,P|104:272|64:264,1,80,8|0,0:0|0:0,0:0:0:0:
192,192,28703,2,0,P|232:180|272:188,1,80
412,284,29048,5,0,0:0:0:0:
412,284,29220,2,0,P|452:272|496:172,1,160
441,90,29738,2,0,P|401:82|361:90,1,80,8|0,0:0|0:0,0:0:0:0:
224,224,30083,1,0,0:0:0:0:
300,196,30255,1,0,0:0:0:0:
144,120,30427,6,0,P|100:96|4:137,1,160
81,182,30945,2,0,L|85:262,1,80,0|8,0:0|0:0,0:0:0:0:
160,305,31289,1,0,0:0:0:0:
18,316,31462,1,0,0:0:0:0:
91,358,31634,1,0,0:0:0:0:
254,262,31807,6,0,L|262:102,1,160,0|0,0:0|0:0,0:0:0:0:
393,23,32324,2,0,P|354:15|315:22,1,80,0|8,0:0|0:0,0:0:0:0:
456,96,32669,1,0,0:0:0:0:
472,124,32755,1,0,0:0:0:0:
480,156,32841,1,8,0:0:0:0:
480,188,32927,1,0,0:0:0:0:
476,220,33014,1,2,2:0:0:0:
464,248,33100,1,2,2:0:0:0:
444,272,33186,6,0,L|349:257,1,80,4|0,0:0|0:0,0:0:0:0:
253,355,33531,2,0,L|348:340,1,80,2|0,2:0|0:0,0:0:0:0:
225,178,33876,1,8,0:0:0:0:
146,233,34048,1,0,0:0:0:0:
232,273,34220,1,2,2:0:0:0:
313,221,34393,1,0,0:0:0:0:
302,125,34565,6,0,P|269:94|222:83,1,80,2|0,2:0|0:0,0:0:0:0:
143,35,34910,2,0,P|200:54|301:20,1,160,2|8,2:0|0:0,0:0:0:0:
376,138,35427,1,0,0:0:0:0:
463,98,35600,2,0,P|478:58|461:10,1,80,2|0,2:0|0:0,0:0:0:0:
376,138,35945,6,0,P|361:178|378:226,1,80,2|0,2:0|0:0,0:0:0:0:
438,279,36289,1,2,2:0:0:0:
263,311,36462,1,0,0:0:0:0:
357,331,36634,1,8,0:0:0:0:
212,228,36807,1,0,0:0:0:0:
357,331,36979,2,0,L|441:321,1,80,2|0,2:0|0:0,0:0:0:0:
289,219,37324,5,2,2:0:0:0:
289,219,37496,2,0,L|121:239,1,160
40,202,38014,2,0,P|17:159|25:121,1,80,8|0,0:0|0:0,0:0:0:0:
187,40,38358,2,0,P|198:87|180:122,1,80,2|0,2:0|0:0,0:0:0:0:
289,219,38703,6,0,P|377:198|439:248,1,160,2|0,2:0|0:0,0:0:0:0:
354,292,39220,1,0,0:0:0:0:
301,120,39393,2,0,L|273:26,1,80,8|0,0:0|0:0,0:0:0:0:
487,64,39738,2,0,L|446:135,1,80,2|0,2:0|0:0,0:0:0:0:
368,203,40083,5,2,2:0:0:0:
368,203,40255,2,0,P|311:226|218:188,1,160
301,120,40772,1,8,0:0:0:0:
347,320,40945,1,0,0:0:0:0:
186,185,41117,1,2,2:0:0:0:
394,199,41290,1,0,0:0:0:0:
217,311,41462,6,0,L|131:301,1,80,2|0,2:0|0:0,0:0:0:0:
25,155,41807,2,0,L|111:145,1,80
254,128,42151,1,8,0:0:0:0:
172,78,42324,1,0,0:0:0:0:
337,80,42496,2,0,P|352:27|344:-1,1,80,2|0,2:0|0:0,0:0:0:0:
172,78,42841,6,0,P|157:131|165:159,2,80,2|0|0,2:0|0:0|0:0,0:0:0:0:
254,128,43358,2,0,B|230:206|230:206|158:244,1,160,2|0,2:0|0:0,0:0:0:0:
12,206,43876,2,0,P|65:191|96:198,1,80,2|0,2:0|0:0,0:0:0:0:
237,317,44220,1,4,0:0:0:0:
48,316,55255,6,0,L|136:324,1,80,4|0,0:0|0:0,0:0:0:0:
212,276,55600,2,0,L|300:284,1,80,8|0,0:0|0:0,0:0:0:0:
380,248,55945,2,0,P|416:220|424:148,1,120
416,136,56289,2,0,L|504:144,1,80,8|0,0:0|0:0,0:0:0:0:
372,48,56634,6,0,P|320:40|240:112,1,160,0|8,0:0|0:0,0:0:0:0:
332,136,57151,1,0,0:0:0:0:
176,44,57324,2,0,P|136:44|96:56,1,80
97,55,57583,2,0,L|84:100,1,40,0|8,0:0|0:0,0:0:0:0:
144,264,57841,2,0,L|132:225,1,40
132,225,58014,6,0,P|168:200|224:200,1,80
280,252,58358,2,0,P|319:245|350:221,1,80,8|0,0:0|0:0,0:0:0:0:
400,140,58703,2,0,B|429:82|383:72|416:16,1,120
411,23,59048,2,0,L|496:16,1,80,8|0,0:0|0:0,0:0:0:0:
288,88,59393,6,0,L|124:72,2,160,0|8|0,0:0|0:0|0:0,0:0:0:0:
352,160,60255,1,0,0:0:0:0:
370,185,60341,1,0,0:0:0:0:
383,215,60427,1,8,0:0:0:0:
388,246,60513,1,0,0:0:0:0:
385,278,60599,1,0,0:0:0:0:
375,308,60686,1,0,0:0:0:0:
358,336,60772,6,0,P|396:356|440:360,1,80
314,239,61117,2,0,P|274:244|239:263,1,80,8|0,0:0|0:0,0:0:0:0:
430,261,61462,2,0,P|449:226|454:186,1,80
376,84,61807,2,0,P|341:65|301:60,1,80,8|0,0:0|0:0,0:0:0:0:
288,64,62065,1,0,0:0:0:0:
272,68,62151,6,0,B|232:76|232:76|188:72,1,80
80,152,62496,2,0,B|120:144|120:144|164:148,1,80,8|0,0:0|0:0,0:0:0:0:
297,189,62841,1,0,0:0:0:0:
259,347,63014,1,0,0:0:0:0:
220,358,63100,1,0,0:0:0:0:
181,353,63186,1,8,0:0:0:0:
146,334,63272,1,0,0:0:0:0:
122,302,63358,1,0,0:0:0:0:
112,264,63445,1,0,0:0:0:0:
117,224,63531,6,0,L|169:228,3,40,0|0|0|0,0:0|0:0|0:0|0:0,0:0:0:0:
229,251,63876,2,0,L|281:255,3,40,0|0|0|0,0:0|0:0|0:0|0:0,0:0:0:0:
337,290,64220,2,0,L|389:294,3,40,0|0|0|0,0:0|0:0|0:0|0:0,0:0:0:0:
458,322,64565,5,0,0:0:0:0:
481,301,64651,1,0,0:0:0:0:
496,272,64738,1,0,0:0:0:0:
503,241,64824,1,0,0:0:0:0:
509,210,64910,2,0,L|513:178,16,20
452,124,65772,5,2,3:0:0:0:
360,148,65945,1,2,3:0:0:0:
276,104,66117,1,2,3:0:0:0:
194,153,66289,6,0,P|171:214|229:299,1,160,4|8,0:0|0:0,0:0:0:0:
337,230,66807,1,0,0:0:0:0:
337,230,66893,1,0,0:0:0:0:
337,230,66979,2,0,P|284:210|253:220,2,80,0|0|8,0:0|0:0|0:0,0:0:0:0:
399,329,67496,1,0,0:0:0:0:
466,232,67669,6,0,L|473:153,1,80
251,266,68014,2,0,L|244:345,1,80,8|0,0:0|0:0,0:0:0:0:
340,141,68358,2,0,L|261:134,1,80
377,357,68703,2,0,L|456:364,1,80,8|0,0:0|0:0,0:0:0:0:
319,218,69048,6,0,P|254:184|176:224,1,160,0|8,0:0|0:0,0:0:0:0:
117,320,69565,1,0,0:0:0:0:
46,224,69738,2,0,L|37:136,1,80
241,26,70083,1,8,0:0:0:0:
152,106,70255,2,0,P|87:121|12:65,1,160
99,27,70772,5,8,0:0:0:0:
241,26,70945,1,0,0:0:0:0:
241,26,71031,1,0,0:0:0:0:
241,26,71117,2,0,L|260:106,1,80
117,257,71462,2,0,L|135:179,1,80,8|0,0:0|0:0,0:0:0:0:
303,161,71807,6,0,P|360:198|455:169,1,160,4|8,0:0|0:0,0:0:0:0:
382,104,72324,1,0,0:0:0:0:
294,253,72496,2,0,L|254:322,1,80
357,370,72841,1,8,0:0:0:0:
357,370,73014,1,0,0:0:0:0:
467,343,73186,6,0,L|436:253,1,80
312,175,73531,1,8,0:0:0:0:
235,256,73703,1,0,0:0:0:0:
132,210,73876,2,0,P|113:162|122:129,1,80
326,7,74220,2,0,P|345:55|336:88,1,80,8|0,0:0|0:0,0:0:0:0:
198,129,74565,6,0,B|118:136|118:136|44:103,1,160,0|8,0:0|0:0,0:0:0:0:
251,50,75083,2,0,P|288:101|268:192,1,160
103,226,75600,1,8,0:0:0:0:
252,284,75772,1,0,0:0:0:0:
252,284,75858,1,0,0:0:0:0:
252,284,75945,6,0,L|336:268,1,80
378,150,76289,1,8,0:0:0:0:
498,229,76462,1,0,0:0:0:0:
498,229,76548,1,0,0:0:0:0:
498,229,76634,2,0,P|519:273|510:306,1,80,0|0,0:0|0:0,0:0:0:0:
309,357,76979,1,8,0:0:0:0:
269,354,77065,1,0,0:0:0:0:
229,351,77151,1,0,0:0:0:0:
188,348,77238,1,0,0:0:0:0:
148,345,77324,5,4,0:0:0:0:
64,296,77496,1,0,0:0:0:0:
120,220,77669,2,0,B|136:184|136:184|128:144,1,80,8|0,0:0|0:0,0:0:0:0:
200,80,78014,1,0,0:0:0:0:
200,80,78186,2,0,P|240:88|276:72,1,80,0|8,0:0|0:0,0:0:0:0:
440,136,78531,6,0,P|400:124|300:188,1,160
364,295,79048,2,0,P|387:264|392:225,1,80,8|0,0:0|0:0,0:0:0:0:
264,260,79393,1,0,0:0:0:0:
288,352,79565,1,0,0:0:0:0:
148,316,79738,2,0,P|132:280|132:236,1,80,8|0,0:0|0:0,0:0:0:0:
236,48,80083,6,0,P|256:80|228:192,1,160,0|8,0:0|0:0,0:0:0:0:
168,116,80600,1,0,0:0:0:0:
320,28,80772,2,0,P|360:24|396:40,1,80
344,120,81117,1,8,0:0:0:0:
176,288,81289,6,0,P|148:256|144:128,1,160
196,68,81807,1,8,0:0:0:0:
276,116,81979,1,0,0:0:0:0:
276,116,82065,1,0,0:0:0:0:
276,116,82151,1,0,0:0:0:0:
352,60,82324,1,0,0:0:0:0:
436,108,82496,2,0,L|416:192,1,80,8|0,0:0|0:0,0:0:0:0:
236,188,82841,6,0,P|204:152|228:48,2,160,4|8|0,0:0|0:0|0:0,0:0:0:0:
308,252,83703,2,0,P|348:256|384:276,1,80,0|8,0:0|0:0,0:0:0:0:
196,308,84048,2,0,B|112:344|116:280|40:312,1,160
28,216,84565,2,0,P|68:212|104:188,1,80,8|0,0:0|0:0,0:0:0:0:
168,56,84910,2,0,P|134:34|94:31,1,80
180,140,85255,2,0,L|260:128,1,80,8|0,0:0|0:0,0:0:0:0:
452,200,85600,6,0,P|464:240|392:336,1,160,0|8,0:0|0:0,0:0:0:0:
368,244,86117,1,0,0:0:0:0:
472,104,86289,1,0,0:0:0:0:
472,104,86462,2,0,P|432:96|392:100,1,80,0|8,0:0|0:0,0:0:0:0:
304,136,86807,1,0,0:0:0:0:
196,280,86979,5,0,0:0:0:0:
196,280,87151,2,0,B|152:296|152:296|36:272,1,160
41,273,87583,1,0,0:0:0:0:
41,273,87669,2,0,P|28:236|28:192,1,80
160,64,88014,2,0,P|159:103|146:141,1,80,8|0,0:0|2:0,0:0:0:0:
296,91,88358,6,0,P|386:70|460:119,1,160,4|8,0:0|0:0,0:0:0:0:
482,287,88876,1,0,0:0:0:0:
379,252,89048,2,0,L|367:170,1,80
506,72,89393,2,0,L|494:154,1,80,8|0,0:0|0:0,0:0:0:0:
297,228,89738,5,0,0:0:0:0:
210,171,89910,1,0,0:0:0:0:
123,230,90083,2,0,P|116:278|141:323,1,80,8|0,0:0|0:0,0:0:0:0:
297,228,90427,2,0,P|304:180|279:135,1,80
202,99,90772,1,8,0:0:0:0:
352,67,90945,1,0,0:0:0:0:
206,19,91117,6,0,L|118:24,1,80
281,140,91462,2,0,L|406:132,1,120,8|0,0:0|0:0,0:0:0:0:
439,145,91807,2,0,P|454:196|441:231,1,80
274,258,92151,1,8,0:0:0:0:
199,184,92324,1,0,0:0:0:0:
199,184,92410,1,0,0:0:0:0:
199,184,92496,6,0,L|113:176,1,80
6,346,92841,1,8,0:0:0:0:
93,288,93014,1,0,0:0:0:0:
93,288,93100,1,0,0:0:0:0:
93,288,93186,2,0,L|179:280,1,80
357,312,93531,1,8,0:0:0:0:
257,340,93703,1,0,0:0:0:0:
386,211,93876,6,0,P|389:168|373:126,1,80,4|0,0:0|0:0,0:0:0:0:
290,77,94220,1,8,0:0:0:0:
290,77,94393,2,0,L|130:90,1,160
302,166,94910,2,0,P|356:138|366:123,1,80,8|0,0:0|0:0,0:0:0:0:
416,32,95255,5,0,0:0:0:0:
487,107,95427,1,0,0:0:0:0:
487,107,95514,1,0,0:0:0:0:
487,107,95600,2,0,L|502:199,1,80,8|0,0:0|0:0,0:0:0:0:
383,317,95945,1,0,0:0:0:0:
244,203,96117,1,0,0:0:0:0:
471,278,96289,1,8,0:0:0:0:
291,288,96462,1,0,0:0:0:0:
269,107,96634,6,0,P|325:103|359:126,1,80
244,203,96979,2,0,B|187:147|187:147|177:63,1,160,8|0,0:0|0:0,0:0:0:0:
336,183,97496,1,0,0:0:0:0:
336,183,97583,1,0,0:0:0:0:
336,183,97669,2,0,L|323:274,1,80,8|0,0:0|0:0,0:0:0:0:
218,320,98014,5,0,0:0:0:0:
218,320,98186,2,0,P|159:278|74:291,1,160
52,310,98617,1,0,0:0:0:0:
52,310,98703,1,0,0:0:0:0:
0,218,98876,1,0,0:0:0:0:
75,146,99048,2,0,P|112:161|161:158,1,80,8|0,0:0|0:0,0:0:0:0:
332,68,99393,6,0,P|292:40|192:80,1,160,4|8,0:0|0:0,0:0:0:0:
272,257,99910,2,0,P|304:187|266:121,1,160
143,189,100427,2,0,P|181:201|220:192,1,80,8|0,0:0|0:0,0:0:0:0:
72,104,100772,6,0,P|36:140|44:244,1,160,0|8,0:0|0:0,0:0:0:0:
276,348,101289,1,0,0:0:0:0:
189,302,101462,2,0,P|149:306|113:326,1,80,0|0,0:0|0:0,0:0:0:0:
364,312,101807,2,0,P|404:308|440:288,1,80,8|0,0:0|0:0,0:0:0:0:
312,152,102151,6,0,P|277:133|237:129,2,80,0|0|8,0:0|0:0|0:0,0:0:0:0:
384,216,102669,1,0,0:0:0:0:
296,256,102841,2,0,P|248:276|148:240,1,160,0|8,0:0|0:0,0:0:0:0:
88,168,103358,1,0,0:0:0:0:
212,44,103531,6,0,B|252:36|252:36|292:48,1,80
433,119,103876,2,0,B|393:127|393:127|356:116,1,80,8|0,0:0|0:0,0:0:0:0:
356,116,104134,1,0,0:0:0:0:
356,116,104220,2,0,P|340:148|340:196,1,80
448,296,104565,2,0,P|447:256|430:220,1,80,8|0,0:0|0:0,0:0:0:0:
228,200,104910,6,0,P|212:228|252:348,1,160,0|8,0:0|0:0,0:0:0:0:
300,264,105427,2,0,P|272:248|152:288,1,160
32,236,105945,2,0,P|72:236|108:212,1,80,8|0,0:0|0:0,0:0:0:0:
168,144,106289,2,0,P|134:123|94:123,1,80
212,228,106634,5,8,0:0:0:0:
212,228,106979,2,0,L|296:208,1,80
384,348,107324,2,0,L|300:328,1,80,8|0,0:0|0:0,0:0:0:0:
392,248,107669,1,4,0:0:0:0:
256,192,107755,12,0,110255,0:0:0:0:
