osu file format v13

[General]
AudioFilename: 05. The Frim - City Streets (Original Mix).mp3
AudioLeadIn: 0
PreviewTime: 66289
Countdown: 0
SampleSet: None
StackLeniency: 0.7
Mode: 0
LetterboxInBreaks: 0
EpilepsyWarning: 1
WidescreenStoryboard: 1

[Editor]
Bookmarks: 11117,22151,33186,44220,55255,66289,77324,88358,99393
DistanceSpacing: 1.2
BeatDivisor: 4
GridSize: 4
TimelineZoom: 1

[Metadata]
Title:City Streets
TitleUnicode:City Streets
Artist:The Frim
ArtistUnicode:The Frim
Creator:Kyshiro
Version:Hard
Source:
Tags:fools preschool ep ayu Asphyxia irreversible Firepower Records drum and bass dnb
BeatmapID:324708
BeatmapSetID:128157

[Difficulty]
HPDrainRate:6
CircleSize:4
OverallDifficulty:6
ApproachRate:7
SliderMultiplier:1.4
SliderTickRate:1

[Events]
//Background and Video events
0,0,"wallpaper-1968248.jpg",0,0
//Break Periods
2,44420,54355
//Storyboard Layer 0 (Background)
//Storyboard Layer 1 (Fail)
//Storyboard Layer 2 (Pass)
//Storyboard Layer 3 (Foreground)
Sprite,Foreground,Centre,"bg-black.png",320,240 S,0,0,,0.6625454 F,0,0,5600,1,0
Sprite,Foreground,Centre,"bg-blur.png",320,240 M,0,44134,,320,240 S,0,44134,,0.6392726 F,0,44134,44220,0,0.9922641 F,0,44220,44824,0.9922641,0 F,0,44824,44910,0,1 F,0,44910,45514,1,0 F,0,45514,45600,0,1 F,0,45600,46203,1,0 F,0,46203,46289,0,1 F,0,46289,46893,1,0 F,0,46893,46979,0,1 F,0,46979,47583,1,0 F,0,47583,47669,0,1 F,0,47669,48272,1,0 F,0,48272,48358,0,1 F,0,48358,48962,1,0 F,0,48962,49048,0,1 F,0,49048,49651,1,0 F,0,49651,49738,0,1 F,0,49738,50341,1,0 F,0,50341,50427,0,1 F,0,50427,51031,1,0 F,0,51031,51117,0,1 F,0,51117,51720,1,0 F,0,51720,51807,0,1 F,0,51807,52410,1,0 F,0,52410,52496,0,1 F,0,52496,53100,1,0 F,0,53100,53186,0,1 F,0,53186,53789,1,0 F,0,53789,53876,0,1 F,0,53876,54479,1,0 F,0,54479,54565,0,1 F,0,54565,55169,1,0 F,0,55169,55255,0,1 F,0,55255,55514,1,0 F,0,55514,55600,0,1 F,0,55600,55858,1,0 F,0,55858,55945,0,1 F,0,55945,56203,1,0 F,0,56203,56289,0,1 F,0,56289,56548,1,0 F,0,56548,56634,0,1 F,0,56634,56893,1,0 F,0,56893,56979,0,1 F,0,56979,57238,1,0 F,0,57238,57324,0,1 F,0,57324,57583,1,0 F,0,57583,57669,0,1 F,0,57669,57927,1,0 F,0,57927,58014,0,1 F,0,58014,58272,1,0 F,0,58272,58358,0,1 F,0,58358,58617,1,0 F,0,58617,58703,0,1 F,0,58703,58962,1,0 F,0,58962,59048,0,1 F,0,59048,59307,1,0 F,0,59307,59393,0,1 F,0,59393,59651,1,0 F,0,59651,59738,0,1 F,0,59738,59996,1,0 F,0,59996,60083,0,1 F,0,60083,60341,1,0 F,0,60341,60427,0,1 F,0,60427,60686,1,0 F,0,60686,60772,0,1 F,0,60772,61031,1,0 F,0,61031,61117,0,1 F,0,61117,61376,1,0 F,0,61376,61462,0,1 F,0,61462,61720,1,0 F,0,61720,61807,0,1 F,0,61807,62065,1,0 F,0,62065,62151,0,1 F,0,62151,62410,1,0 F,0,62410,62496,0,1 F,0,62496,62755,1,0 F,0,62755,62841,0,1 F,0,62841,63100,1,0 F,0,63100,63186,0,1 F,0,63186,63422,1,0 F,0,63422,63531,0,1 F,0,63531,63789,1,0 F,0,63789,64910,0,1 F,0,64910,66117,1 F,0,66117,66289,1,0 F,0,66289,76807,0 F,0,76807,77238,0,1 F,0,77238,77324,1,0 F,0,77324,87841,0,0.06976742 F,0,87841,88272,0.06976742,1 F,0,88272,88358,1,0 F,0,88358,98876,0 F,0,98876,99307,0,1 F,0,99307,99393,1,0 F,0,99393,110379,0,1
Sprite,Foreground,Centre,"bg-blur.png",320,240 M,0,0,,319,240 S,0,0,,0.6392726 F,0,0,11117,1,0
Sprite,Foreground,Centre,"bg-black.png",320,240 S,0,63531,,1.180364 F,0,63531,66117,0,1 F,0,66117,66289,1,0
Sprite,Foreground,Centre,"bg-black.png",320,240 F,0,107669,110380,0,1
//Storyboard Sound Samples

[TimingPoints]
83,344.827586206897,4,1,0,100,1,0
11117,-100,4,2,1,100,0,0
22151,-100,4,1,0,70,0,0
66289,-100,4,1,0,70,0,1
77238,-100,4,1,0,70,0,0
77324,-100,4,1,0,70,0,1
88272,-100,4,1,0,70,0,0
88358,-100,4,1,0,70,0,1
99393,-100,4,1,0,70,0,0
107755,-100,4,2,1,5,0,0

[Colours]
Combo1 : 17,254,176
Combo2 : 81,169,217
Combo3 : 255,88,100
Combo4 : 255,94,55

[HitObjects]
105,213,11117,6,0,P|147:257|231:250,1,140,2|2,0:0|0:0,0:0:0:0:
183,180,11634,1,0,0:0:0:0:
114,131,11807,2,0,L|32:134,2,70,2|0|0,0:0|0:0|0:0,0:0:0:0:
162,62,12324,5,2,0:0:0:0:
386,98,12669,1,0,0:0:0:0:
350,322,13014,1,2,0:0:0:0:
126,286,13359,1,0,0:0:0:0:
143,203,13531,1,2,0:0:0:0:
204,260,13703,1,0,0:0:0:0:
126,286,13876,6,0,L|56:275,1,70,2|0,0:0|0:0,0:0:0:0:
17,201,14220,1,2,0:0:0:0:
72,137,14393,2,0,P|116:155|200:108,1,140,2|2,0:0|0:0,0:0:0:0:
276,98,14910,2,0,L|256:166,1,70,2|0,0:0|0:0,0:0:0:0:
338,147,15255,6,0,P|395:109|460:127,1,140,2|0,0:0|0:0,0:0:0:0:
493,205,15772,1,2,0:0:0:0:
423,253,15945,2,0,P|407:210|411:179,1,70,2|2,0:0|0:0,0:0:0:0:
331,230,16289,2,0,P|331:264|316:296,1,70,2|2,0:0|0:0,0:0:0:0:
247,244,16634,6,0,P|195:265|121:226,1,140,2|2,0:0|0:0,0:0:0:0:
192,182,17151,1,0,0:0:0:0:
136,120,17324,2,0,P|188:99|262:138,1,140,2|2,0:0|0:0,0:0:0:0:
314,197,17841,1,2,0:0:0:0:
386,153,18014,6,0,P|394:107|379:72,1,70,2|0,0:0|0:0,0:0:0:0:
311,49,18358,2,0,P|303:95|318:130,1,70,2|0,0:0|0:0,0:0:0:0:
386,153,18703,2,0,L|465:148,2,70,2|2|2,0:0|0:0|0:0,0:0:0:0:
314,197,19220,1,2,0:0:0:0:
314,197,19393,6,0,L|156:187,1,140,2|2,0:0|0:0,0:0:0:0:
93,210,19910,2,0,P|72:284|125:348,1,140,2|2,0:0|0:0,0:0:0:0:
186,328,20427,2,0,P|172:284|137:260,1,70,2|0,0:0|0:0,0:0:0:0:
174,188,20772,6,0,L|314:197,1,140,2|0,0:0|0:0,0:0:0:0:
385,241,21289,2,0,P|399:287|391:313,2,70,2|0|0,0:0|0:0|0:0,0:0:0:0:
388,156,21807,2,0,P|379:129|382:84,1,70,2|0,0:0|0:0,0:0:0:0:
437,30,22151,6,0,P|390:61|306:40,1,140,4|0,1:0|0:0,0:0:0:0:
230,22,22669,1,0,0:0:0:0:
173,84,22841,2,0,L|167:156,2,70,8|0|0,0:0|0:0|0:0,0:0:0:0:
93,113,23358,1,0,0:0:0:0:
93,113,23531,6,0,L|161:238,1,140
228,285,24048,1,0,0:0:0:0:
297,238,24220,2,0,P|310:194|302:161,1,70,8|0,0:0|0:0,0:0:0:0:
227,139,24565,2,0,P|214:95|222:62,1,70
298,96,24910,6,0,P|347:75|429:107,1,140
455,181,25427,1,0,0:0:0:0:
455,181,25600,2,0,L|448:257,1,70,8|0,0:0|0:0,0:0:0:0:
365,232,25945,2,0,L|358:162,1,70
282,196,26289,5,0,0:0:0:0:
282,196,26462,2,0,L|265:336,1,140
183,355,26979,2,0,P|127:317|51:327,1,140,8|0,0:0|0:0,0:0:0:0:
6,256,27496,1,0,0:0:0:0:
6,256,27669,6,0,P|78:232|160:241,1,140
203,178,28186,1,0,0:0:0:0:
253,245,28358,2,0,P|299:252|331:236,1,70,8|0,0:0|0:0,0:0:0:0:
353,166,28703,2,0,P|307:159|275:175,1,70
239,96,29048,6,0,L|229:16,2,70
323,96,29565,1,0,0:0:0:0:
323,96,29738,2,0,L|333:176,1,70,8|0,0:0|0:0,0:0:0:0:
426,228,30083,2,0,L|416:148,1,70
503,237,30427,6,0,P|486:278|389:298,1,140
328,260,30945,2,0,B|260:228|260:292|192:260,1,140
138,197,31462,1,0,0:0:0:0:
113,277,31634,1,0,0:0:0:0:
56,214,31807,6,0,L|43:137,1,70
95,78,32151,1,0,0:0:0:0:
95,78,32324,2,0,P|148:112|227:101,1,140
287,50,32841,1,0,0:0:0:0:
348,107,33014,1,0,0:0:0:0:
429,87,33186,6,0,P|451:52|451:14,1,70,4|0,0:0|0:0,0:0:0:0:
368,25,33531,1,2,2:0:0:0:
348,107,33703,1,0,0:0:0:0:
405,168,33876,2,0,P|471:159|511:98,1,140,8|2,0:0|2:0,0:0:0:0:
429,87,34393,1,0,0:0:0:0:
348,107,34565,6,0,L|316:173,1,70,2|0,2:0|0:0,0:0:0:0:
265,236,34910,2,0,L|234:173,1,70,2|0,2:0|0:0,0:0:0:0:
153,150,35255,1,8,0:0:0:0:
91,206,35427,1,2,2:0:0:0:
26,151,35600,2,0,P|19:112|37:75,1,70,2|2,2:0|2:0,0:0:0:0:
98,35,35945,6,0,P|137:67|224:59,1,140,2|0,2:0|0:0,0:0:0:0:
299,26,36462,2,0,L|354:155,1,140,2|0,2:0|0:0,0:0:0:0:
437,161,36979,2,0,L|409:225,1,70,2|0,2:0|0:0,0:0:0:0:
336,266,37324,5,2,2:0:0:0:
336,266,37496,2,0,P|269:236|203:252,1,140,2|0,2:0|0:0,0:0:0:0:
136,298,38014,2,0,L|121:367,1,70,8|0,0:0|0:0,0:0:0:0:
52,318,38358,2,0,L|37:249,1,70,2|0,2:0|0:0,0:0:0:0:
94,187,38703,5,2,2:0:0:0:
264,133,39048,2,0,P|282:177|282:208,1,70,2|0,2:0|0:0,0:0:0:0:
206,280,39393,2,0,P|190:248|187:214,1,70,8|0,0:0|0:0,0:0:0:0:
181,130,39738,1,2,2:0:0:0:
223,57,39910,1,2,2:0:0:0:
307,61,40083,6,0,L|357:123,1,70,2|0,2:0|0:0,0:0:0:0:
427,82,40427,2,0,L|477:144,1,70,2|0,2:0|0:0,0:0:0:0:
444,233,40772,2,0,L|394:171,2,70,8|2|2,0:0|2:0|2:0,0:0:0:0:
400,305,41289,1,0,0:0:0:0:
400,305,41462,6,0,P|309:284|271:309,1,140,2|0,2:0|0:0,0:0:0:0:
200,264,41979,2,0,P|137:290|73:264,1,140,2|0,2:0|0:0,0:0:0:0:
137,201,42496,1,2,2:0:0:0:
272,101,42841,5,2,2:0:0:0:
272,101,43014,2,0,L|342:113,1,70
386,183,43358,1,2,2:0:0:0:
386,183,43531,2,0,L|316:195,1,70,8|0,0:0|0:0,0:0:0:0:
234,176,43876,1,2,2:0:0:0:
113,292,44220,1,4,0:0:0:0:
39,141,55255,6,0,P|81:153|112:142,1,70,4|0,0:0|0:0,0:0:0:0:
165,86,55600,2,0,P|198:79|231:91,1,70,8|0,0:0|0:0,0:0:0:0:
281,158,55945,2,0,L|317:298,1,140,0|8,0:0|0:0,0:0:0:0:
385,340,56462,1,0,0:0:0:0:
462,309,56634,6,0,P|488:250|454:178,2,140,0|8|0,0:0|0:0|0:0,0:0:0:0:
404,247,57496,1,0,0:0:0:0:
379,166,57669,2,0,L|415:99,1,70,8|0,0:0|0:0,0:0:0:0:
353,43,58014,6,0,P|311:69|223:48,1,140,0|8,0:0|0:0,0:0:0:0:
146,24,58531,1,0,0:0:0:0:
93,89,58703,2,0,B|64:148|120:168|93:225,2,140,0|8|0,0:0|0:0|0:0,0:0:0:0:
146,24,59565,6,0,P|168:51|176:92,2,70,0|8|0,0:0|0:0|0:0,0:0:0:0:
93,89,60083,2,0,P|120:146|191:166,1,140,0|8,0:0|0:0,0:0:0:0:
263,207,60600,1,0,0:0:0:0:
331,158,60772,6,0,P|338:118|324:81,1,70,8|0,0:0|0:0,0:0:0:0:
252,56,61117,2,0,P|245:96|259:133,1,70,8|0,0:0|0:0,0:0:0:0:
331,158,61462,2,0,L|412:152,2,70,8|0|8,0:0|0:0|0:0,0:0:0:0:
263,207,61979,1,0,0:0:0:0:
263,207,62151,6,0,L|182:201,2,70,8|0|8,0:0|0:0|0:0,0:0:0:0:
335,250,62669,1,0,0:0:0:0:
335,250,62841,2,0,L|416:244,1,70,8|0,0:0|0:0,0:0:0:0:
480,282,63186,2,0,P|492:323|483:358,1,70,8|0,0:0|0:0,0:0:0:0:
406,323,63531,1,0,0:0:0:0:
256,192,63617,12,2,65600,3:0:0:0:
52,226,66289,6,0,P|110:269|179:256,1,140,4|8,0:0|0:0,0:0:0:0:
214,184,66807,1,0,0:0:0:0:
158,121,66979,2,0,P|133:159|130:193,2,70,0|0|8,0:0|0:0|0:0,0:0:0:0:
240,102,67496,1,0,0:0:0:0:
240,102,67669,6,0,L|316:118,1,70
400,25,68014,2,0,L|324:41,1,70,8|0,0:0|0:0,0:0:0:0:
382,106,68358,1,0,0:0:0:0:
462,80,68531,1,0,0:0:0:0:
507,150,68703,2,0,P|501:192|474:225,1,70,8|0,0:0|0:0,0:0:0:0:
407,243,69048,6,0,P|329:223|275:249,1,140,0|8,0:0|0:0,0:0:0:0:
214,326,69565,2,0,P|292:346|346:320,1,140
277,246,70083,1,8,0:0:0:0:
99,287,70427,5,0,0:0:0:0:
99,287,70600,2,0,L|82:364,1,70,0|8,0:0|0:0,0:0:0:0:
19,301,70945,1,0,0:0:0:0:
19,301,71117,2,0,L|53:147,1,140,0|8,0:0|0:0,0:0:0:0:
111,107,71634,1,0,0:0:0:0:
171,165,71807,6,0,P|211:184|246:179,1,70,4|0,0:0|0:0,0:0:0:0:
302,131,72151,2,0,P|336:131|366:148,1,70,8|0,0:0|0:0,0:0:0:0:
419,214,72496,2,0,L|402:358,1,140,0|8,0:0|0:0,0:0:0:0:
319,371,73014,1,0,0:0:0:0:
250,322,73186,6,0,P|242:278|258:243,1,70
318,206,73531,1,8,0:0:0:0:
318,206,73703,1,0,0:0:0:0:
318,206,73876,2,0,L|340:136,1,70
256,74,74220,2,0,L|256:144,1,70,8|0,0:0|0:0,0:0:0:0:
194,206,74565,6,0,L|172:136,1,70
100,96,74910,1,8,0:0:0:0:
28,140,75083,2,0,P|12:192|68:264,1,140
136,292,75600,2,0,L|220:280,1,70,8|0,0:0|0:0,0:0:0:0:
280,324,75945,5,0,0:0:0:0:
280,324,76117,1,0,0:0:0:0:
428,244,76462,1,0,0:0:0:0:
428,244,76634,2,0,P|432:196|420:176,1,70
336,112,76979,2,0,P|332:160|344:180,1,70,8|0,0:0|0:0,0:0:0:0:
410,77,77324,6,0,P|382:45|286:45,1,140,4|8,0:0|0:0,0:0:0:0:
244,113,77841,1,0,0:0:0:0:
161,93,78014,2,0,P|140:54|148:18,2,70,0|0|8,0:0|0:0|0:0,0:0:0:0:
244,113,78531,2,0,P|217:158|134:174,1,140
60,137,79048,5,8,0:0:0:0:
60,137,79220,1,0,0:0:0:0:
19,210,79393,2,0,L|36:283,1,70
118,272,79738,2,0,L|135:345,1,70,8|0,0:0|0:0,0:0:0:0:
214,364,80083,6,0,P|280:328|348:340,1,140,0|8,0:0|0:0,0:0:0:0:
372,258,80600,2,0,P|322:210|310:142,1,140
354,70,81117,1,8,0:0:0:0:
220,195,81462,5,0,0:0:0:0:
220,195,81634,2,0,P|185:213|141:208,1,70,0|8,0:0|0:0,0:0:0:0:
90,158,81979,1,0,0:0:0:0:
90,158,82151,2,0,L|80:82,2,70,0|0|8,0:0|0:0|0:0,0:0:0:0:
170,130,82669,1,0,0:0:0:0:
170,130,82841,6,0,P|246:118|298:167,2,140,4|8|0,0:0|0:0|0:0,0:0:0:0:
220,195,83703,1,0,0:0:0:0:
291,239,83876,2,0,L|373:229,1,70,8|0,0:0|0:0,0:0:0:0:
265,314,84220,6,0,L|101:294,2,140,0|8|0,0:0|0:0|0:0,0:0:0:0:
334,363,85083,1,0,0:0:0:0:
405,318,85255,2,0,P|420:282|412:243,1,70,8|0,0:0|0:0,0:0:0:0:
346,204,85600,1,0,0:0:0:0:
417,51,85945,5,8,0:0:0:0:
417,51,86117,1,0,0:0:0:0:
297,137,86462,1,0,0:0:0:0:
297,137,86634,1,8,0:0:0:0:
465,117,86979,5,0,0:0:0:0:
465,117,87151,1,0,0:0:0:0:
309,58,87496,1,0,0:0:0:0:
309,58,87669,2,0,P|262:52|239:60,1,70
177,113,88014,2,0,P|143:121|109:113,1,70,8|0,0:0|0:0,0:0:0:0:
51,53,88358,6,0,L|84:200,1,140,4|8,0:0|0:0,0:0:0:0:
138,252,88876,2,0,P|198:262|263:200,1,140
182,177,89393,1,8,0:0:0:0:
303,290,89738,6,0,L|387:272,1,70
452,213,90083,2,0,L|368:195,1,70,8|0,0:0|0:0,0:0:0:0:
313,152,90427,2,0,P|303:113|311:81,2,70,0|0|8,0:0|0:0|0:0,0:0:0:0:
389,115,90945,1,0,0:0:0:0:
375,32,91117,6,0,P|320:1|239:36,1,140,0|8,0:0|0:0,0:0:0:0:
184,77,91634,2,0,P|240:107|321:72,1,140
389,115,92151,2,0,L|406:190,1,70,8|0,0:0|0:0,0:0:0:0:
367,312,92496,6,0,L|350:237,1,70,0|0,0:0|0:0,0:0:0:0:
287,188,92841,1,8,0:0:0:0:
211,150,93014,1,0,0:0:0:0:
211,150,93186,2,0,P|167:147|138:162,1,70
99,269,93531,2,0,P|143:272|172:257,1,70,8|0,0:0|0:0,0:0:0:0:
253,302,93876,6,0,P|315:281|395:313,1,140,4|8,0:0|0:0,0:0:0:0:
448,356,94393,2,0,L|472:205,1,140
433,141,94910,1,8,0:0:0:0:
433,141,95083,1,0,0:0:0:0:
376,202,95255,6,0,P|321:214|253:162,2,140,0|8|0,0:0|0:0|0:0,0:0:0:0:
331,130,96117,1,0,0:0:0:0:
259,86,96289,2,0,L|181:102,1,70,8|0,0:0|0:0,0:0:0:0:
171,18,96634,6,0,L|114:148,1,140,0|8,0:0|0:0,0:0:0:0:
49,93,97151,2,0,L|88:229,1,140
153,281,97669,1,8,0:0:0:0:
282,173,98014,5,0,0:0:0:0:
282,173,98186,2,0,P|351:156|409:196,1,140
415,275,98703,1,0,0:0:0:0:
334,301,98876,2,0,P|330:252|345:221,2,70,0|8|0,0:0|0:0|0:0,0:0:0:0:
415,275,99393,6,0,L|451:130,1,140,4|8,0:0|0:0,0:0:0:0:
401,69,99910,1,0,0:0:0:0:
241,122,100255,1,0,0:0:0:0:
241,122,100427,2,0,P|234:171|301:239,2,140,8|0|8,0:0|0:0|0:0,0:0:0:0:
317,156,101289,5,0,0:0:0:0:
310,71,101462,1,0,0:0:0:0:
135,138,101807,1,8,0:0:0:0:
281,253,102151,5,0,0:0:0:0:
219,96,102496,1,8,0:0:0:0:
219,96,102669,2,0,P|169:51|85:58,1,140
35,105,103186,2,0,L|26:182,1,70,8|0,0:0|0:0,0:0:0:0:
60,251,103531,5,0,0:0:0:0:
60,251,103703,1,0,0:0:0:0:
136,215,103876,2,0,P|176:213|215:230,1,70,8|0,0:0|0:0,0:0:0:0:
284,202,104220,2,0,P|347:233|416:220,1,140,0|8,0:0|0:0,0:0:0:0:
252,41,104910,6,0,L|183:58,1,70
107,93,105255,1,8,0:0:0:0:
107,93,105427,2,0,L|245:127,1,140
320,91,105945,2,0,P|376:81|442:135,2,140,8|0|8,0:0|0:0|0:0,0:0:0:0:
364,162,106807,5,0,0:0:0:0:
432,210,106979,2,0,L|511:200,1,70,0|0,0:0|0:0,0:0:0:0:
385,275,107324,2,0,L|306:265,1,70,8|0,0:0|0:0,0:0:0:0:
242,307,107669,1,4,0:0:0:0:
256,192,107755,12,0,110255,0:0:0:0:
