osu file format v5

[General]
AudioFilename: The Fray - How to Save a Life.mp3
AudioLeadIn: 0
PreviewTime: -1
Countdown: 0
SampleSet: Soft
StackLeniency: 0.7
Mode: 0
LetterboxInBreaks: 1

[Metadata]
Title:How to Save a Life
Artist:The Fray
Creator:Larto
Version:How to talk
Source:
Tags:

[Difficulty]
HPDrainRate:4
CircleSize:4
OverallDifficulty:5
SliderMultiplier:1.2
SliderTickRate:2

[Events]
//Background and Video events
0,0,"the fray album.jpg"
//Break Periods
2,56223,62200
2,111581,117066
//Storyboard Layer 0 (Background)
//Storyboard Layer 1 (Failing)
//Storyboard Layer 2 (Passing)
//Storyboard Layer 3 (Foreground)
//Storyboard Sound Samples
//Background Colour Transformations
3,100,163,162,255

[TimingPoints]
24102,491.803278688525,4,2,0,100,1

[HitObjects]
240,192,7872,1,0
280,192,8118,1,8
280,64,8856,1,0
240,64,9101,1,8
256,192,9839,1,0
256,240,10085,6,8,B|112:283|272:344,1,180,8|0
256,304,11069,1,8
256,176,11806,1,0
256,128,12052,1,8
128,192,12790,5,0
168,192,13036,1,8
232,136,13528,1,8
296,192,14020,1,8
232,248,14511,1,8
232,328,15003,2,8,B|373:305|111:207|272:160,1,240
152,192,16970,5,2
192,192,17216,1,2
272,192,17708,2,2,B|360:192,1,60
416,192,18446,1,2
296,152,19183,1,10
264,176,19429,1,10
232,208,19675,1,10
400,192,20659,5,2
320,192,21151,1,2
240,192,21642,2,2,B|152:192,1,60
96,192,22380,1,2
216,152,23118,1,10
248,176,23364,1,10
304,232,23856,1,10
296,104,24593,5,0
216,104,25085,1,0
256,176,25577,1,0
256,176,25823,2,0,B|256:320,1,120
152,272,26806,2,8,B|259:182|257:382|368:264,1,240
224,224,28774,5,0
144,248,29265,1,0
208,304,29757,1,8
288,160,30741,1,0
368,136,31233,1,0
304,80,31724,1,8
360,192,32462,6,2,B|256:104|256:264|128:192,1,240
160,160,33692,2,8,B|257:30|376:184,1,240
320,184,34921,1,0
232,192,35413,1,0
200,216,35659,1,4
256,328,36397,6,0,B|256:280,4,30
256,240,37380,5,0
256,200,37626,1,8
256,112,38118,1,8
256,192,38364,12,4,39839
96,192,40331,6,0,B|99:253|136:248,1,60
176,192,41069,1,8
256,192,41561,1,8
424,192,42298,6,0,B|421:253|384:248,1,60
288,192,43282,1,8
256,192,43528,1,8
256,64,44265,6,0,B|256:128,4,60
288,88,45495,2,0,B|239:184|200:72,1,120
192,128,46233,1,8
256,176,46724,1,8
320,128,47216,1,8
280,112,47462,6,8,B|200:112,1,60,0|0
144,144,48200,2,0,B|238:207|328:136,1,180
288,112,49183,1,8
248,112,49429,1,8
224,232,50167,2,0,B|318:169|408:240,1,180
368,264,51151,1,8
328,264,51397,1,8
256,160,52134,6,2,B|167:211|259:266|341:191|264:160,1,180
256,192,53610,12,4,56069
56,192,63446,5,0
80,224,63692,1,0
152,256,64183,1,8
256,184,64921,5,0
232,152,65167,1,0
160,120,65659,1,8
152,200,66151,1,8
256,328,67134,5,0
256,288,67380,2,8,B|256:168,2,90
176,304,68610,1,0
256,336,69101,1,0
336,304,69593,1,0
256,264,70085,2,2,B|214:144|313:129|340:279|264:192,1,180
256,128,71315,5,0
200,192,71806,5,0
200,232,72052,1,8
160,208,72298,1,0
160,248,72544,1,8
160,328,73036,2,0,B|301:234|208:176,1,180
192,160,74020,1,8
256,192,75249,5,0
256,240,75495,1,0
216,312,75987,1,0
296,312,76479,1,0
256,384,76970,1,8
256,336,77216,1,8
256,288,77462,1,12
256,160,78200,5,0
256,320,79183,1,0
336,288,79675,6,0,B|432:224|416:176,1,120
416,128,80659,6,0,B|352:32|304:48,1,120
256,96,81642,5,0
256,136,81888,1,0
256,176,82134,1,8
256,256,82626,1,0
256,216,82872,1,0
256,176,83118,1,8
288,264,84101,6,2,B|181:194|314:194|200:96,1,180,0|0
256,192,84839,12,0,86929
128,192,87544,5,8
184,256,88036,1,8
256,296,88528,1,8
328,256,89020,1,8
384,192,89511,1,8
320,136,90003,2,2,B|192:136,1,120
144,192,90987,5,8
192,128,91479,1,8
256,80,91970,1,8
320,128,92462,1,8
368,192,92954,1,8
256,192,93446,12,4,94921
96,192,95413,6,0,B|99:131|136:136,1,60
176,192,96151,1,8
256,192,96642,1,8
424,192,97380,6,0,B|421:131|384:136,1,60
304,192,98364,1,8
256,192,98610,1,8
256,320,99347,6,0,B|256:256,4,60
288,296,100577,2,0,B|239:200|200:312,1,120
192,256,101315,1,8
256,208,101806,1,8
320,256,102298,1,8
280,272,102544,6,8,B|200:272,1,60,0|0
144,240,103282,2,0,B|238:177|328:248,1,180
288,272,104265,1,8
248,272,104511,1,8
224,152,105249,2,0,B|318:215|408:144,1,180
368,120,106233,1,8
328,120,106479,1,8
256,224,107216,6,2,B|167:173|259:118|341:193|264:224,1,180
256,192,108692,12,4,111151
80,104,118282,2,0,B|168:104,1,60
144,184,119020,2,8,B|272:184,1,120
264,264,120003,2,0,B|464:264,1,180
448,192,121233,1,8
280,192,122216,6,8,B|256:8|257:418|208:176,1,240,0|8
256,336,124183,5,0
256,296,124429,1,0
256,256,124675,1,0
216,192,125167,2,8,B|259:98|296:208,2,120
256,192,126888,12,4,129101
256,112,130085,6,0,B|256:200,1,60
216,96,130823,1,0
216,136,131069,1,0
216,176,131315,1,8
296,176,131806,1,0
296,136,132052,1,0
296,96,132298,1,8
256,256,133282,5,8
256,88,134265,1,8
288,160,134757,6,0,B|200:160,1,60
256,240,135495,1,0
208,304,135987,1,0
304,304,136479,1,0
256,360,136970,2,8,B|256:224,2,120
216,336,138200,1,0
184,304,138446,1,8
240,240,138938,1,0
208,216,139183,1,8
256,144,139675,1,0
224,120,139921,1,8
256,40,140413,1,0
312,96,140905,2,4,B|455:268|288:344,1,300
256,312,142380,5,0
256,224,142872,1,0
256,136,143364,1,8
256,72,143733,1,8
256,8,144101,2,8,B|126:152|356:151|280:16,1,240,0|0
256,192,145561,5,0
256,192,145623,12,4,150003
216,232,150495,6,0,B|112:248|152:248,1,60
184,320,151233,1,8
224,304,151479,1,8
264,288,151724,1,8
288,160,152462,6,0,B|392:144|352:144,1,60
320,72,153200,1,8
280,88,153446,1,8
240,104,153692,1,8
256,224,154429,6,0,B|256:160,1,60
256,272,155413,1,8
256,320,155659,1,8
192,248,156151,1,0
184,200,156397,1,8
216,168,156642,1,0
256,144,156888,1,8
296,168,157134,1,0
328,208,157380,1,8
312,256,157626,1,0
256,272,157872,5,8
184,192,158364,5,0
208,160,158610,1,0
256,248,159102,2,8,B|256:184,3,60,8|8|8|0
344,232,160331,1,0
312,264,160577,1,0
256,184,161069,2,8,B|256:256,3,60,8|8|8|0
144,192,162298,5,8
256,144,162790,1,8
360,192,163282,1,8
256,248,163758,1,8
256,192,163820,12,4,165249
96,152,165741,5,0
176,96,166233,2,8,B|256:32|352:104,1,180
376,128,167216,1,8
408,160,167462,1,8
328,280,168200,6,8,B|248:344|152:272,1,180
128,248,169183,1,8
96,216,169429,1,8
224,160,170167,6,8,B|288:160,1,60
288,208,170659,6,8,B|208:208,1,60
224,256,171151,6,8,B|304:256,1,60
256,296,171642,6,4,B|256:344,4,30
256,248,172380,5,0
256,200,172626,1,0
256,152,172872,1,0
232,240,173364,1,8
280,240,173610,1,8
192,192,174102,6,0,B|104:192,1,60,0|0
224,192,174839,1,8
272,192,175085,1,8
320,192,175331,1,8
256,64,176069,6,0,B|256:0,1,60
256,96,176806,1,8
256,144,177052,1,8
256,192,177298,1,8
256,336,178036,5,4
256,240,178528,1,4
256,144,179020,1,4
256,48,179496,1,4
256,192,179557,12,4,183200
