osu file format v5

[General]
AudioFilename: 01 My Friend John (MP3).mp3
AudioLeadIn: 0
PreviewTime: -1
Countdown: 1
SampleSet: Normal
StackLeniency: 0.7
Mode: 0
EditorBookmarks: 37956,88287,124304

[Metadata]
Title:My Friend John
Artist:The Fratellis
Creator:Agent BA8 Rookbie
Version:Normal

[Difficulty]
HPDrainRate:5
CircleSize:5
OverallDifficulty:5
SliderMultiplier:1
SliderTickRate:1

[Events]
//Background and Video events
//Break Periods
2,51771,57179
2,88277,93178
2,124294,140010
2,147238,153347
//Storyboard Layer 0 (Background)
//Storyboard Layer 1 (Failing)
//Storyboard Layer 2 (Passing)
//Storyboard Layer 3 (Foreground)
//Storyboard Sound Samples
//Background Colour Transformations
3,100,163,162,255

[TimingPoints]
11770,420.054301050053,4,1,0,100

[HitObjects]
128,160,38233,1,0
192,160,38653,1,0
256,160,39073,1,0
320,160,39493,1,0
395,186,39913,1,0
335,243,40333,1,0
255,240,40753,1,0
160,160,42013,6,0,B|480:160,1,300
384,128,43694,2,0,B|384:184,6,50
272,159,45374,2,0,L|144:63|144:255|304:255,1,500
341,255,47894,2,0,L|469:351|469:159|309:159,1,500
256,64,51255,1,4
256,128,51675,1,4
128,160,58396,5,0
192,96,58816,1,0
271,96,59236,1,0
352,96,59656,1,0
308,162,60076,1,0
261,226,60496,1,0
184,250,60916,1,0
183,178,61336,2,0,L|183:82|311:82,1,200
352,160,62596,2,0,L|416:160|416:0,1,200
380,95,63856,2,0,L|348:159|380:255|444:223|446:157|446:157,1,300
416,32,65957,5,4
346,71,66377,1,2
192,96,67217,2,0,L|96:128,1,100
53,75,68057,1,0
64,160,68477,1,0
128,160,68897,2,0,L|224:64|288:160|352:160|352:64,1,400
288,64,70997,1,0
224,64,71417,1,0
128,192,72257,5,4
160,256,72677,1,4
224,256,73097,1,4
288,128,73938,2,2,B|352:160|352:224,2,100
128,32,75618,1,4
96,96,76038,1,4
96,160,76458,1,4
256,160,77298,2,2,B|224:128|160:96,2,100
352,32,78978,5,4
384,96,79398,1,4
416,160,79818,1,4
256,160,80658,2,2,B|288:96|320:64,2,100
96,224,82339,1,4
154,278,82759,1,4
218,230,83179,1,4
64,192,84019,2,2,B|96:128|160:128,2,100
224,128,85699,5,0
64,160,86539,2,0,B|83:224|160:288,1,150
197,284,87379,2,0,B|206:276|288:224,1,100
267,190,88009,1,6
128,160,94520,5,0
192,160,94940,1,0
256,160,95360,1,0
320,160,95780,1,0
320,224,96200,1,0
246,256,96620,1,0
160,256,97041,1,0
128,192,97461,1,0
160,128,97881,1,0
224,128,98301,1,0
256,64,98721,6,0,L|320:96|320:128,1,100
384,128,99561,2,0,L|384:192|352:224,1,100
283,190,100401,1,0
288,128,100821,1,0
185,167,101451,6,0,B|194:212|243:252,1,100
256,160,102501,1,0
416,153,103341,1,0
356,99,103761,2,2,B|292:67|260:99,2,100
282,129,105022,1,0
341,182,105442,2,0,L|405:278|437:182,2,200
263,162,107542,1,6
192,224,108382,6,2,B|192:256|256:288|288:256,2,100
352,160,110062,1,6
384,224,110482,1,4
416,288,110902,1,4
352,160,111742,2,2,L|256:224,1,100
224,160,112583,1,2
64,128,113423,1,4
96,192,113843,1,4
128,256,114263,1,4
288,224,115103,6,2,B|288:160,4,50
477,156,116783,1,4
413,124,117203,1,4
413,188,117623,1,4
192,128,118463,1,4
256,160,118883,1,4
312,104,119303,1,2
312,56,119513,1,2
403,129,120144,2,6,B|467:33,3,100
328,126,121824,6,6,C|296:158|296:222|360:190|328:254|296:286|328:286|392:286,1,400
426,171,124134,1,6
256,192,141146,12,6,147027
64,96,154588,5,6
96,160,155008,1,6
160,128,155428,1,6
224,96,155848,1,4
288,96,156268,2,2,L|320:96|352:160,2,100
160,224,157948,5,6
224,224,158368,1,6
288,224,158789,1,6
233,165,159209,1,4
160,160,159629,2,2,L|160:96|192:64,2,100
256,32,161309,5,6
309,91,161729,1,6
369,143,162149,1,6
427,197,162569,1,4
384,256,162989,2,2,L|352:288|288:256,2,100
192,160,164669,5,6
256,96,165089,1,6
256,160,165509,1,6
256,224,165929,1,4
192,256,166349,2,2,L|224:320|256:288,2,100
96,128,168030,6,0,C|160:64|160:160|256:96|256:64|224:32|192:32,1,400
96,32,170340,1,6
