osu file format v13

[General]
AudioFilename: passaged.ogg
AudioLeadIn: 1500
PreviewTime: 97580
Countdown: 0
SampleSet: None
StackLeniency: 0.7
Mode: 3
LetterboxInBreaks: 0
SpecialStyle: 0
WidescreenStoryboard: 0

[Editor]
DistanceSpacing: 2
BeatDivisor: 4
GridSize: 16
TimelineZoom: 1

[Metadata]
Title:Passage D
TitleUnicode:Passage D
Artist:The Flashbulb
ArtistUnicode:The Flashbulb
Creator:Agka
Version:Lunatic
Source:
Tags:
BeatmapID:477111
BeatmapSetID:201515

[Difficulty]
HPDrainRate:8
CircleSize:6
OverallDifficulty:8
ApproachRate:9
SliderMultiplier:1.4
SliderTickRate:1

[Events]
//Background and Video events
0,0,"wallpaper-1446265.jpg",0,0
//Break Periods
//Storyboard Layer 0 (Background)
//Storyboard Layer 1 (Fail)
//Storyboard Layer 2 (Pass)
//Storyboard Layer 3 (Foreground)
//Storyboard Sound Samples
//Background Colour Transformations
3,100,163,162,255

[TimingPoints]
5380,333.5186,4,1,0,15,1,0
5380,-100,4,1,0,15,0,0
7715,-71.4286,4,1,0,15,0,0
7881,-166.6667,4,1,0,15,0,0
8048,-100,4,1,0,15,0,0
50405,-66.6667,4,1,0,15,0,0
50572,-200,4,1,0,15,0,0
50739,-100,4,1,0,15,0,0
65413,333.3333,4,1,0,15,1,0
76080,333.5186,4,1,0,15,1,0
85419,333.3333,4,1,0,15,1,0

[HitObjects]
42,192,5380,5,0,0:0:0:0:
128,192,5380,1,0,0:0:0:0:
298,192,5547,1,0,0:0:0:0:
383,192,5630,1,0,0:0:0:0:
128,192,5714,1,0,0:0:0:0:
213,192,5714,1,0,0:0:0:0:
469,192,5714,1,0,0:0:0:0:
383,192,5797,1,0,0:0:0:0:
298,192,5880,1,0,0:0:0:0:
42,192,6047,1,0,0:0:0:0:
128,192,6047,1,0,0:0:0:0:
298,192,6214,1,0,0:0:0:0:
383,192,6297,1,0,0:0:0:0:
128,192,6381,1,0,0:0:0:0:
213,192,6381,1,0,0:0:0:0:
469,192,6381,1,0,0:0:0:0:
383,192,6464,1,0,0:0:0:0:
469,192,6547,1,0,0:0:0:0:
383,192,6589,1,0,0:0:0:0:
298,192,6631,1,0,0:0:0:0:
213,192,6672,1,0,0:0:0:0:
42,192,6714,1,0,0:0:0:0:
128,192,6714,1,0,0:0:0:0:
469,192,6714,1,0,0:0:0:0:
213,192,6797,1,0,0:0:0:0:
128,192,6881,1,0,0:0:0:0:
298,192,6881,1,0,0:0:0:0:
383,192,6964,1,0,0:0:0:0:
128,192,7048,1,0,0:0:0:0:
213,192,7048,1,0,0:0:0:0:
469,192,7048,1,0,0:0:0:0:
42,192,7214,1,0,0:0:0:0:
128,192,7214,1,0,0:0:0:0:
383,192,7214,1,0,0:0:0:0:
298,192,7381,1,0,0:0:0:0:
42,192,7548,1,0,0:0:0:0:
128,192,7548,1,0,0:0:0:0:
128,192,7715,1,0,0:0:0:0:
213,192,7715,1,0,0:0:0:0:
469,192,7715,1,0,0:0:0:0:
42,192,8048,1,0,0:0:0:0:
128,192,8048,1,0,0:0:0:0:
213,192,8132,1,0,0:0:0:0:
298,192,8215,1,0,0:0:0:0:
383,192,8298,1,0,0:0:0:0:
128,192,8382,1,0,0:0:0:0:
213,192,8382,1,0,0:0:0:0:
469,192,8382,1,0,0:0:0:0:
298,192,8465,1,0,0:0:0:0:
383,192,8548,1,0,0:0:0:0:
128,192,8632,1,0,0:0:0:0:
213,192,8632,1,0,0:0:0:0:
469,192,8632,1,0,0:0:0:0:
42,192,8715,1,0,0:0:0:0:
298,192,8799,1,0,0:0:0:0:
469,192,8882,1,0,0:0:0:0:
42,192,8965,1,0,0:0:0:0:
128,192,9049,1,0,0:0:0:0:
213,192,9049,1,0,0:0:0:0:
469,192,9049,1,0,0:0:0:0:
383,192,9132,1,0,0:0:0:0:
128,192,9215,1,0,0:0:0:0:
213,192,9257,1,0,0:0:0:0:
298,192,9299,1,0,0:0:0:0:
383,192,9341,1,0,0:0:0:0:
42,192,9382,1,0,0:0:0:0:
128,192,9382,1,0,0:0:0:0:
298,192,9466,1,0,0:0:0:0:
128,192,9549,1,0,0:0:0:0:
298,192,9632,1,0,0:0:0:0:
128,192,9716,1,0,0:0:0:0:
213,192,9716,1,0,0:0:0:0:
469,192,9716,1,0,0:0:0:0:
42,192,9883,1,0,0:0:0:0:
128,192,9883,1,0,0:0:0:0:
469,0,10049,128,0,10216:0:0:0:0:
383,192,10216,1,0,0:0:0:0:
298,192,10258,1,0,0:0:0:0:
42,192,10299,1,0,0:0:0:0:
383,192,10341,1,0,0:0:0:0:
128,192,10383,1,0,0:0:0:0:
213,192,10383,1,0,0:0:0:0:
469,192,10383,1,0,0:0:0:0:
213,192,10466,1,0,0:0:0:0:
128,192,10550,1,0,0:0:0:0:
298,192,10633,1,0,0:0:0:0:
42,192,10716,1,0,0:0:0:0:
128,192,10716,1,0,0:0:0:0:
213,192,10800,1,0,0:0:0:0:
128,192,10841,1,0,0:0:0:0:
383,192,10883,1,0,0:0:0:0:
298,192,10966,1,0,0:0:0:0:
128,192,11050,1,0,0:0:0:0:
213,192,11050,1,0,0:0:0:0:
469,192,11050,1,0,0:0:0:0:
383,192,11133,1,0,0:0:0:0:
298,192,11217,1,0,0:0:0:0:
383,192,11258,1,0,0:0:0:0:
213,192,11300,1,0,0:0:0:0:
42,192,11383,1,0,0:0:0:0:
128,192,11383,1,0,0:0:0:0:
128,192,11550,1,0,0:0:0:0:
298,192,11633,1,0,0:0:0:0:
128,192,11717,1,0,0:0:0:0:
213,192,11717,1,0,0:0:0:0:
469,192,11717,1,0,0:0:0:0:
383,192,11800,1,0,0:0:0:0:
213,192,11884,1,0,0:0:0:0:
298,192,11884,1,0,0:0:0:0:
128,192,11925,1,0,0:0:0:0:
469,192,11967,1,0,0:0:0:0:
383,192,12009,1,0,0:0:0:0:
42,192,12050,1,0,0:0:0:0:
128,192,12050,1,0,0:0:0:0:
298,192,12134,1,0,0:0:0:0:
42,192,12217,1,0,0:0:0:0:
128,192,12217,1,0,0:0:0:0:
298,192,12301,1,0,0:0:0:0:
128,192,12384,1,0,0:0:0:0:
213,192,12384,1,0,0:0:0:0:
469,192,12384,1,0,0:0:0:0:
42,192,12551,1,0,0:0:0:0:
128,192,12551,1,0,0:0:0:0:
213,192,12717,1,0,0:0:0:0:
298,192,12717,1,0,0:0:0:0:
383,192,12759,1,0,0:0:0:0:
469,192,12801,1,0,0:0:0:0:
213,192,12884,1,0,0:0:0:0:
298,192,12926,1,0,0:0:0:0:
383,192,12968,1,0,0:0:0:0:
469,192,13009,1,0,0:0:0:0:
128,192,13051,1,0,0:0:0:0:
213,192,13051,1,0,0:0:0:0:
42,192,13218,1,0,0:0:0:0:
128,192,13218,1,0,0:0:0:0:
298,192,13301,1,0,0:0:0:0:
42,192,13384,1,0,0:0:0:0:
128,192,13384,1,0,0:0:0:0:
298,192,13468,1,0,0:0:0:0:
42,192,13551,1,0,0:0:0:0:
128,192,13635,1,0,0:0:0:0:
213,192,13635,1,0,0:0:0:0:
383,192,13760,1,0,0:0:0:0:
298,192,13801,1,0,0:0:0:0:
128,192,13843,1,0,0:0:0:0:
213,192,13843,1,0,0:0:0:0:
298,192,13885,1,0,0:0:0:0:
383,192,13885,1,0,0:0:0:0:
469,192,13968,1,0,0:0:0:0:
298,192,14051,1,0,0:0:0:0:
383,192,14051,1,0,0:0:0:0:
42,192,14218,1,0,0:0:0:0:
128,192,14218,1,0,0:0:0:0:
383,192,14302,1,0,0:0:0:0:
42,192,14385,1,0,0:0:0:0:
128,192,14385,1,0,0:0:0:0:
383,192,14468,1,0,0:0:0:0:
128,192,14552,1,0,0:0:0:0:
213,192,14552,1,0,0:0:0:0:
469,192,14552,1,0,0:0:0:0:
42,192,14719,1,0,0:0:0:0:
128,192,14719,1,0,0:0:0:0:
298,192,14760,1,0,0:0:0:0:
383,192,14802,1,0,0:0:0:0:
42,192,14885,1,0,0:0:0:0:
128,192,14885,1,0,0:0:0:0:
298,192,14927,1,0,0:0:0:0:
383,192,14969,1,0,0:0:0:0:
128,192,15052,1,0,0:0:0:0:
213,192,15052,1,0,0:0:0:0:
469,192,15052,1,0,0:0:0:0:
42,192,15219,1,0,0:0:0:0:
128,192,15219,1,0,0:0:0:0:
383,192,15302,1,0,0:0:0:0:
42,192,15386,1,0,0:0:0:0:
128,192,15386,1,0,0:0:0:0:
383,192,15469,1,0,0:0:0:0:
42,192,15552,1,0,0:0:0:0:
128,192,15552,1,0,0:0:0:0:
383,192,15636,1,0,0:0:0:0:
128,192,15719,1,0,0:0:0:0:
213,192,15719,1,0,0:0:0:0:
469,192,15719,1,0,0:0:0:0:
298,192,15802,1,0,0:0:0:0:
383,192,15802,1,0,0:0:0:0:
42,192,15886,1,0,0:0:0:0:
128,192,15886,1,0,0:0:0:0:
298,192,15969,1,0,0:0:0:0:
383,192,15969,1,0,0:0:0:0:
42,192,16053,1,0,0:0:0:0:
128,192,16053,1,0,0:0:0:0:
298,192,16136,1,0,0:0:0:0:
213,192,16219,1,0,0:0:0:0:
298,192,16303,1,0,0:0:0:0:
383,192,16303,1,0,0:0:0:0:
42,192,16386,1,0,0:0:0:0:
128,192,16386,1,0,0:0:0:0:
298,192,16469,1,0,0:0:0:0:
213,192,16553,1,0,0:0:0:0:
298,192,16636,1,0,0:0:0:0:
383,192,16636,1,0,0:0:0:0:
42,192,16720,1,0,0:0:0:0:
128,192,16720,1,0,0:0:0:0:
298,192,16803,1,0,0:0:0:0:
213,192,16886,1,0,0:0:0:0:
298,192,16970,1,0,0:0:0:0:
383,192,16970,1,0,0:0:0:0:
128,192,17053,1,0,0:0:0:0:
213,192,17053,1,0,0:0:0:0:
42,192,17137,1,0,0:0:0:0:
469,192,17137,1,0,0:0:0:0:
128,192,17220,1,0,0:0:0:0:
213,192,17262,1,0,0:0:0:0:
298,192,17303,1,0,0:0:0:0:
383,192,17345,1,0,0:0:0:0:
42,192,17387,1,0,0:0:0:0:
128,192,17387,1,0,0:0:0:0:
298,192,17470,1,0,0:0:0:0:
383,192,17553,1,0,0:0:0:0:
42,192,17637,1,0,0:0:0:0:
128,192,17720,1,0,0:0:0:0:
213,192,17720,1,0,0:0:0:0:
469,192,17720,1,0,0:0:0:0:
42,192,17887,1,0,0:0:0:0:
128,192,17887,1,0,0:0:0:0:
298,192,17970,1,0,0:0:0:0:
42,192,18054,1,0,0:0:0:0:
128,192,18054,1,0,0:0:0:0:
298,192,18137,1,0,0:0:0:0:
42,192,18220,1,0,0:0:0:0:
298,192,18262,1,0,0:0:0:0:
383,192,18304,1,0,0:0:0:0:
469,192,18346,1,0,0:0:0:0:
128,192,18387,1,0,0:0:0:0:
213,192,18387,1,0,0:0:0:0:
298,192,18471,1,0,0:0:0:0:
42,192,18554,1,0,0:0:0:0:
128,192,18554,1,0,0:0:0:0:
383,192,18637,1,0,0:0:0:0:
42,192,18721,1,0,0:0:0:0:
128,192,18721,1,0,0:0:0:0:
213,192,18804,1,0,0:0:0:0:
383,192,18888,1,0,0:0:0:0:
42,192,18971,1,0,0:0:0:0:
298,192,18971,1,0,0:0:0:0:
128,192,19054,1,0,0:0:0:0:
213,192,19054,1,0,0:0:0:0:
469,192,19054,1,0,0:0:0:0:
383,192,19221,1,0,0:0:0:0:
298,192,19304,1,0,0:0:0:0:
42,192,19388,1,0,0:0:0:0:
128,192,19388,1,0,0:0:0:0:
213,192,19471,1,0,0:0:0:0:
298,192,19555,1,0,0:0:0:0:
128,192,19638,1,0,0:0:0:0:
213,192,19638,1,0,0:0:0:0:
298,192,19721,1,0,0:0:0:0:
383,192,19721,1,0,0:0:0:0:
213,192,19805,1,0,0:0:0:0:
298,192,19888,1,0,0:0:0:0:
383,192,19888,1,0,0:0:0:0:
128,192,19971,1,0,0:0:0:0:
213,192,19971,1,0,0:0:0:0:
42,192,20055,1,0,0:0:0:0:
298,192,20055,1,0,0:0:0:0:
42,192,20222,1,0,0:0:0:0:
128,192,20222,1,0,0:0:0:0:
298,192,20305,1,0,0:0:0:0:
128,192,20388,1,0,0:0:0:0:
213,192,20388,1,0,0:0:0:0:
469,192,20388,1,0,0:0:0:0:
383,192,20555,1,0,0:0:0:0:
298,192,20638,1,0,0:0:0:0:
42,192,20722,1,0,0:0:0:0:
128,192,20722,1,0,0:0:0:0:
298,192,20805,1,0,0:0:0:0:
469,192,20889,1,0,0:0:0:0:
42,192,20972,1,0,0:0:0:0:
128,192,21055,1,0,0:0:0:0:
213,192,21055,1,0,0:0:0:0:
469,192,21055,1,0,0:0:0:0:
469,192,21222,1,0,0:0:0:0:
383,192,21264,1,0,0:0:0:0:
298,192,21306,1,0,0:0:0:0:
213,192,21347,1,0,0:0:0:0:
42,192,21389,1,0,0:0:0:0:
128,192,21389,1,0,0:0:0:0:
383,192,21556,1,0,0:0:0:0:
298,192,21639,1,0,0:0:0:0:
128,192,21722,1,0,0:0:0:0:
213,192,21722,1,0,0:0:0:0:
469,192,21806,1,0,0:0:0:0:
42,192,21889,1,0,0:0:0:0:
128,192,21889,1,0,0:0:0:0:
383,192,21973,1,0,0:0:0:0:
42,192,22056,1,0,0:0:0:0:
128,192,22056,1,0,0:0:0:0:
383,192,22139,1,0,0:0:0:0:
298,192,22223,1,0,0:0:0:0:
42,192,22306,1,0,0:0:0:0:
128,192,22389,1,0,0:0:0:0:
213,192,22389,1,0,0:0:0:0:
469,192,22473,1,0,0:0:0:0:
213,192,22556,1,0,0:0:0:0:
383,192,22598,1,0,0:0:0:0:
298,192,22640,1,0,0:0:0:0:
42,192,22723,1,0,0:0:0:0:
128,192,22723,1,0,0:0:0:0:
42,192,22890,1,0,0:0:0:0:
298,192,22973,1,0,0:0:0:0:
128,192,23056,1,0,0:0:0:0:
213,192,23056,1,0,0:0:0:0:
469,192,23056,1,0,0:0:0:0:
298,192,23140,1,0,0:0:0:0:
383,192,23223,1,0,0:0:0:0:
42,192,23307,1,0,0:0:0:0:
213,192,23390,1,0,0:0:0:0:
469,192,23390,1,0,0:0:0:0:
128,192,23473,1,0,0:0:0:0:
383,192,23473,1,0,0:0:0:0:
42,192,23557,1,0,0:0:0:0:
298,192,23557,1,0,0:0:0:0:
213,192,23640,1,0,0:0:0:0:
383,192,23640,1,0,0:0:0:0:
128,192,23724,1,0,0:0:0:0:
469,192,23724,1,0,0:0:0:0:
128,192,23890,1,0,0:0:0:0:
213,192,23932,1,0,0:0:0:0:
298,192,23974,1,0,0:0:0:0:
383,192,24015,1,0,0:0:0:0:
42,0,24057,128,0,26642:0:0:0:0:
469,0,24057,128,0,26642:0:0:0:0:
128,0,24724,128,0,26642:0:0:0:0:
383,0,25058,128,0,26642:0:0:0:0:
213,0,25391,128,0,25975:0:0:0:0:
298,0,25725,128,0,26642:0:0:0:0:
213,0,26058,128,0,26642:0:0:0:0:
42,192,26725,1,0,0:0:0:0:
128,192,26725,1,0,0:0:0:0:
213,192,26850,1,0,0:0:0:0:
298,192,26975,1,0,0:0:0:0:
128,192,27059,1,0,0:0:0:0:
213,192,27059,1,0,0:0:0:0:
469,192,27059,1,0,0:0:0:0:
42,192,27225,1,0,0:0:0:0:
128,192,27225,1,0,0:0:0:0:
298,192,27309,1,0,0:0:0:0:
42,192,27392,1,0,0:0:0:0:
128,192,27392,1,0,0:0:0:0:
383,192,27559,1,0,0:0:0:0:
42,192,27642,1,0,0:0:0:0:
128,192,27726,1,0,0:0:0:0:
213,192,27726,1,0,0:0:0:0:
469,192,27726,1,0,0:0:0:0:
298,192,27893,1,0,0:0:0:0:
383,192,27934,1,0,0:0:0:0:
42,192,27976,1,0,0:0:0:0:
469,192,28018,1,0,0:0:0:0:
128,192,28059,1,0,0:0:0:0:
213,192,28059,1,0,0:0:0:0:
298,192,28226,1,0,0:0:0:0:
42,192,28309,1,0,0:0:0:0:
128,192,28393,1,0,0:0:0:0:
213,192,28393,1,0,0:0:0:0:
469,192,28393,1,0,0:0:0:0:
42,192,28476,1,0,0:0:0:0:
298,192,28560,1,0,0:0:0:0:
213,192,28643,1,0,0:0:0:0:
383,192,28643,1,0,0:0:0:0:
42,192,28726,1,0,0:0:0:0:
128,192,28726,1,0,0:0:0:0:
213,192,28810,1,0,0:0:0:0:
298,192,28893,1,0,0:0:0:0:
383,192,28976,1,0,0:0:0:0:
128,192,29060,1,0,0:0:0:0:
213,192,29060,1,0,0:0:0:0:
469,192,29060,1,0,0:0:0:0:
383,192,29227,1,0,0:0:0:0:
42,192,29393,1,0,0:0:0:0:
128,192,29393,1,0,0:0:0:0:
213,192,29505,1,0,0:0:0:0:
42,192,29616,1,0,0:0:0:0:
298,192,29616,1,0,0:0:0:0:
128,192,29727,1,0,0:0:0:0:
213,192,29727,1,0,0:0:0:0:
469,192,29727,1,0,0:0:0:0:
42,192,29894,1,0,0:0:0:0:
128,192,29894,1,0,0:0:0:0:
298,192,29977,1,0,0:0:0:0:
42,192,30060,1,0,0:0:0:0:
128,192,30060,1,0,0:0:0:0:
383,192,30227,1,0,0:0:0:0:
298,192,30311,1,0,0:0:0:0:
128,192,30394,1,0,0:0:0:0:
213,192,30394,1,0,0:0:0:0:
469,192,30394,1,0,0:0:0:0:
469,192,30561,1,0,0:0:0:0:
383,192,30602,1,0,0:0:0:0:
298,192,30644,1,0,0:0:0:0:
213,192,30686,1,0,0:0:0:0:
42,192,30727,1,0,0:0:0:0:
128,192,30727,1,0,0:0:0:0:
383,192,30894,1,0,0:0:0:0:
42,192,30978,1,0,0:0:0:0:
298,192,30978,1,0,0:0:0:0:
128,192,31061,1,0,0:0:0:0:
213,192,31061,1,0,0:0:0:0:
469,192,31061,1,0,0:0:0:0:
42,192,31144,1,0,0:0:0:0:
298,192,31144,1,0,0:0:0:0:
383,192,31228,1,0,0:0:0:0:
298,192,31311,1,0,0:0:0:0:
42,192,31394,1,0,0:0:0:0:
128,192,31394,1,0,0:0:0:0:
213,192,31478,1,0,0:0:0:0:
42,192,31645,1,0,0:0:0:0:
128,192,31728,1,0,0:0:0:0:
213,192,31728,1,0,0:0:0:0:
469,192,31728,1,0,0:0:0:0:
469,192,31895,1,0,0:0:0:0:
383,192,31936,1,0,0:0:0:0:
298,192,31978,1,0,0:0:0:0:
213,192,32020,1,0,0:0:0:0:
42,192,32061,1,0,0:0:0:0:
128,192,32061,1,0,0:0:0:0:
298,192,32187,1,0,0:0:0:0:
128,192,32312,1,0,0:0:0:0:
213,192,32312,1,0,0:0:0:0:
469,192,32312,1,0,0:0:0:0:
298,192,32478,1,0,0:0:0:0:
42,192,32562,1,0,0:0:0:0:
128,192,32562,1,0,0:0:0:0:
383,192,32645,1,0,0:0:0:0:
42,192,32729,1,0,0:0:0:0:
128,192,32729,1,0,0:0:0:0:
383,192,32812,1,0,0:0:0:0:
42,192,32895,1,0,0:0:0:0:
128,192,32895,1,0,0:0:0:0:
298,192,32895,1,0,0:0:0:0:
383,192,32979,1,0,0:0:0:0:
128,192,33062,1,0,0:0:0:0:
213,192,33062,1,0,0:0:0:0:
469,192,33062,1,0,0:0:0:0:
42,192,33229,1,0,0:0:0:0:
128,192,33229,1,0,0:0:0:0:
469,192,33229,1,0,0:0:0:0:
298,192,33312,1,0,0:0:0:0:
383,192,33312,1,0,0:0:0:0:
42,192,33396,1,0,0:0:0:0:
128,192,33396,1,0,0:0:0:0:
213,192,33396,1,0,0:0:0:0:
298,192,33479,1,0,0:0:0:0:
469,192,33562,1,0,0:0:0:0:
383,192,33646,1,0,0:0:0:0:
128,192,33729,1,0,0:0:0:0:
213,192,33729,1,0,0:0:0:0:
469,192,33729,1,0,0:0:0:0:
298,192,33896,1,0,0:0:0:0:
213,192,33979,1,0,0:0:0:0:
42,192,34063,1,0,0:0:0:0:
128,192,34063,1,0,0:0:0:0:
298,192,34146,1,0,0:0:0:0:
383,192,34146,1,0,0:0:0:0:
42,192,34229,1,0,0:0:0:0:
128,192,34229,1,0,0:0:0:0:
298,192,34313,1,0,0:0:0:0:
383,192,34313,1,0,0:0:0:0:
128,192,34396,1,0,0:0:0:0:
213,192,34396,1,0,0:0:0:0:
469,192,34396,1,0,0:0:0:0:
298,192,34438,1,0,0:0:0:0:
383,192,34480,1,0,0:0:0:0:
469,192,34521,1,0,0:0:0:0:
42,192,34563,1,0,0:0:0:0:
128,192,34563,1,0,0:0:0:0:
298,192,34646,1,0,0:0:0:0:
42,192,34730,1,0,0:0:0:0:
128,192,34730,1,0,0:0:0:0:
42,192,34896,1,0,0:0:0:0:
128,192,34896,1,0,0:0:0:0:
298,192,34980,1,0,0:0:0:0:
383,192,34980,1,0,0:0:0:0:
128,192,35063,1,0,0:0:0:0:
213,192,35063,1,0,0:0:0:0:
469,192,35063,1,0,0:0:0:0:
298,192,35147,1,0,0:0:0:0:
42,192,35230,1,0,0:0:0:0:
128,192,35230,1,0,0:0:0:0:
298,192,35313,1,0,0:0:0:0:
383,192,35313,1,0,0:0:0:0:
42,192,35397,1,0,0:0:0:0:
128,192,35397,1,0,0:0:0:0:
42,192,35508,1,0,0:0:0:0:
128,192,35508,1,0,0:0:0:0:
42,192,35619,1,0,0:0:0:0:
128,192,35619,1,0,0:0:0:0:
128,192,35730,1,0,0:0:0:0:
213,192,35730,1,0,0:0:0:0:
469,192,35730,1,0,0:0:0:0:
42,192,35814,1,0,0:0:0:0:
469,192,35897,1,0,0:0:0:0:
383,192,35939,1,0,0:0:0:0:
298,192,35980,1,0,0:0:0:0:
213,192,36022,1,0,0:0:0:0:
42,192,36064,1,0,0:0:0:0:
128,192,36064,1,0,0:0:0:0:
469,0,36064,128,0,36397:0:0:0:0:
213,192,36230,1,0,0:0:0:0:
42,0,36397,128,0,36731:0:0:0:0:
128,192,36731,1,0,0:0:0:0:
213,192,36731,1,0,0:0:0:0:
298,192,36814,1,0,0:0:0:0:
383,192,36814,1,0,0:0:0:0:
42,192,36898,1,0,0:0:0:0:
128,192,36898,1,0,0:0:0:0:
383,192,36981,1,0,0:0:0:0:
469,192,36981,1,0,0:0:0:0:
42,192,37064,1,0,0:0:0:0:
298,192,37064,1,0,0:0:0:0:
128,192,37148,1,0,0:0:0:0:
383,192,37148,1,0,0:0:0:0:
42,192,37231,1,0,0:0:0:0:
469,192,37231,1,0,0:0:0:0:
213,192,37314,1,0,0:0:0:0:
383,192,37314,1,0,0:0:0:0:
42,192,37398,1,0,0:0:0:0:
128,192,37398,1,0,0:0:0:0:
298,192,37481,1,0,0:0:0:0:
42,192,37565,1,0,0:0:0:0:
128,192,37565,1,0,0:0:0:0:
298,192,37648,1,0,0:0:0:0:
128,192,37731,1,0,0:0:0:0:
213,192,37731,1,0,0:0:0:0:
469,192,37731,1,0,0:0:0:0:
42,192,37898,1,0,0:0:0:0:
128,192,37898,1,0,0:0:0:0:
42,192,38065,1,0,0:0:0:0:
128,192,38065,1,0,0:0:0:0:
213,192,38148,1,0,0:0:0:0:
383,192,38232,1,0,0:0:0:0:
298,192,38315,1,0,0:0:0:0:
128,192,38398,1,0,0:0:0:0:
213,192,38398,1,0,0:0:0:0:
469,192,38398,1,0,0:0:0:0:
298,192,38482,1,0,0:0:0:0:
42,192,38565,1,0,0:0:0:0:
128,192,38565,1,0,0:0:0:0:
298,192,38648,1,0,0:0:0:0:
383,192,38648,1,0,0:0:0:0:
42,192,38732,1,0,0:0:0:0:
128,192,38732,1,0,0:0:0:0:
213,192,38815,1,0,0:0:0:0:
383,192,38899,1,0,0:0:0:0:
213,192,38982,1,0,0:0:0:0:
298,192,38982,1,0,0:0:0:0:
42,192,39065,1,0,0:0:0:0:
128,192,39065,1,0,0:0:0:0:
213,192,39121,1,0,0:0:0:0:
383,192,39177,1,0,0:0:0:0:
128,192,39232,1,0,0:0:0:0:
469,192,39232,1,0,0:0:0:0:
213,192,39288,1,0,0:0:0:0:
298,192,39343,1,0,0:0:0:0:
128,192,39399,1,0,0:0:0:0:
42,0,39399,128,0,40066:0:0:0:0:
213,192,39482,1,0,0:0:0:0:
469,192,39566,1,0,0:0:0:0:
383,192,39649,1,0,0:0:0:0:
128,192,39732,1,0,0:0:0:0:
213,192,39816,1,0,0:0:0:0:
298,192,39899,1,0,0:0:0:0:
383,192,39983,1,0,0:0:0:0:
128,192,40066,1,0,0:0:0:0:
213,192,40066,1,0,0:0:0:0:
469,192,40066,1,0,0:0:0:0:
128,192,40233,1,0,0:0:0:0:
298,192,40233,1,0,0:0:0:0:
128,192,40399,1,0,0:0:0:0:
213,192,40399,1,0,0:0:0:0:
469,192,40399,1,0,0:0:0:0:
128,192,40566,1,0,0:0:0:0:
298,192,40566,1,0,0:0:0:0:
383,192,40650,1,0,0:0:0:0:
128,192,40733,1,0,0:0:0:0:
213,192,40733,1,0,0:0:0:0:
469,192,40733,1,0,0:0:0:0:
383,192,40816,1,0,0:0:0:0:
128,192,40900,1,0,0:0:0:0:
298,192,40900,1,0,0:0:0:0:
383,192,40983,1,0,0:0:0:0:
128,192,41066,1,0,0:0:0:0:
213,192,41066,1,0,0:0:0:0:
469,192,41066,1,0,0:0:0:0:
383,192,41150,1,0,0:0:0:0:
128,192,41233,1,0,0:0:0:0:
298,192,41233,1,0,0:0:0:0:
383,192,41317,1,0,0:0:0:0:
42,192,41400,1,0,0:0:0:0:
128,192,41400,1,0,0:0:0:0:
213,192,41400,1,0,0:0:0:0:
469,192,41400,1,0,0:0:0:0:
42,192,41567,1,0,0:0:0:0:
128,192,41567,1,0,0:0:0:0:
128,192,41734,1,0,0:0:0:0:
213,192,41734,1,0,0:0:0:0:
469,192,41734,1,0,0:0:0:0:
383,192,41900,1,0,0:0:0:0:
298,192,41984,1,0,0:0:0:0:
42,192,42067,1,0,0:0:0:0:
128,192,42067,1,0,0:0:0:0:
298,192,42150,1,0,0:0:0:0:
383,192,42150,1,0,0:0:0:0:
42,192,42234,1,0,0:0:0:0:
128,192,42234,1,0,0:0:0:0:
298,192,42317,1,0,0:0:0:0:
383,192,42317,1,0,0:0:0:0:
128,192,42401,1,0,0:0:0:0:
213,192,42401,1,0,0:0:0:0:
469,192,42401,1,0,0:0:0:0:
469,192,42567,1,0,0:0:0:0:
383,192,42609,1,0,0:0:0:0:
298,192,42651,1,0,0:0:0:0:
213,192,42692,1,0,0:0:0:0:
42,192,42734,1,0,0:0:0:0:
128,192,42734,1,0,0:0:0:0:
298,192,42901,1,0,0:0:0:0:
298,192,43068,1,0,0:0:0:0:
298,192,43234,1,0,0:0:0:0:
298,192,43401,1,0,0:0:0:0:
298,192,43568,1,0,0:0:0:0:
42,192,43735,1,0,0:0:0:0:
128,192,43735,1,0,0:0:0:0:
298,192,43735,1,0,0:0:0:0:
298,192,43901,1,0,0:0:0:0:
42,192,44068,1,0,0:0:0:0:
128,192,44068,1,0,0:0:0:0:
298,192,44068,1,0,0:0:0:0:
298,192,44235,1,0,0:0:0:0:
298,192,44402,1,0,0:0:0:0:
298,192,44568,1,0,0:0:0:0:
298,192,44735,1,0,0:0:0:0:
42,192,44902,1,0,0:0:0:0:
128,192,44902,1,0,0:0:0:0:
298,192,44902,1,0,0:0:0:0:
298,192,45069,1,0,0:0:0:0:
42,192,45235,1,0,0:0:0:0:
128,192,45235,1,0,0:0:0:0:
298,192,45235,1,0,0:0:0:0:
42,192,45319,1,0,0:0:0:0:
128,192,45319,1,0,0:0:0:0:
42,192,45402,1,0,0:0:0:0:
128,192,45402,1,0,0:0:0:0:
298,192,45402,1,0,0:0:0:0:
298,192,45569,1,0,0:0:0:0:
298,192,45736,1,0,0:0:0:0:
298,192,45903,1,0,0:0:0:0:
298,192,46069,1,0,0:0:0:0:
298,192,46236,1,0,0:0:0:0:
298,192,46403,1,0,0:0:0:0:
298,192,46570,1,0,0:0:0:0:
298,192,46736,1,0,0:0:0:0:
298,192,46903,1,0,0:0:0:0:
298,192,47070,1,0,0:0:0:0:
298,192,47237,1,0,0:0:0:0:
298,192,47403,1,0,0:0:0:0:
213,192,47487,1,0,0:0:0:0:
298,192,47570,1,0,0:0:0:0:
213,192,47653,1,0,0:0:0:0:
298,192,47737,1,0,0:0:0:0:
383,192,47737,1,0,0:0:0:0:
213,192,47904,1,0,0:0:0:0:
42,192,47987,1,0,0:0:0:0:
128,192,47987,1,0,0:0:0:0:
42,192,48070,1,0,0:0:0:0:
128,192,48070,1,0,0:0:0:0:
42,192,48237,1,0,0:0:0:0:
128,192,48237,1,0,0:0:0:0:
383,192,48321,1,0,0:0:0:0:
128,192,48404,1,0,0:0:0:0:
213,192,48404,1,0,0:0:0:0:
469,192,48404,1,0,0:0:0:0:
298,192,48487,1,0,0:0:0:0:
42,192,48571,1,0,0:0:0:0:
128,192,48571,1,0,0:0:0:0:
42,192,48737,1,0,0:0:0:0:
128,192,48737,1,0,0:0:0:0:
42,192,48904,1,0,0:0:0:0:
128,192,48904,1,0,0:0:0:0:
298,192,48988,1,0,0:0:0:0:
128,192,49071,1,0,0:0:0:0:
213,192,49071,1,0,0:0:0:0:
469,192,49071,1,0,0:0:0:0:
42,192,49154,1,0,0:0:0:0:
383,192,49154,1,0,0:0:0:0:
298,192,49238,1,0,0:0:0:0:
128,192,49279,1,0,0:0:0:0:
383,192,49321,1,0,0:0:0:0:
42,192,49363,1,0,0:0:0:0:
128,192,49404,1,0,0:0:0:0:
213,192,49404,1,0,0:0:0:0:
469,192,49488,1,0,0:0:0:0:
298,192,49571,1,0,0:0:0:0:
383,192,49571,1,0,0:0:0:0:
42,192,49655,1,0,0:0:0:0:
128,192,49738,1,0,0:0:0:0:
213,192,49738,1,0,0:0:0:0:
469,192,49738,1,0,0:0:0:0:
42,192,49905,1,0,0:0:0:0:
128,192,49905,1,0,0:0:0:0:
213,192,49988,1,0,0:0:0:0:
383,192,50072,1,0,0:0:0:0:
469,192,50155,1,0,0:0:0:0:
42,192,50238,1,0,0:0:0:0:
128,192,50238,1,0,0:0:0:0:
128,192,50405,1,0,0:0:0:0:
213,192,50405,1,0,0:0:0:0:
469,192,50405,1,0,0:0:0:0:
298,0,50405,128,0,50739:0:0:0:0:
42,192,50739,1,0,0:0:0:0:
128,192,50739,1,0,0:0:0:0:
383,192,50822,1,0,0:0:0:0:
42,192,50905,1,0,0:0:0:0:
298,192,50989,1,0,0:0:0:0:
128,192,51072,1,0,0:0:0:0:
213,192,51072,1,0,0:0:0:0:
469,192,51072,1,0,0:0:0:0:
298,192,51155,1,0,0:0:0:0:
42,192,51239,1,0,0:0:0:0:
383,192,51239,1,0,0:0:0:0:
128,192,51322,1,0,0:0:0:0:
213,192,51322,1,0,0:0:0:0:
469,192,51322,1,0,0:0:0:0:
42,192,51406,1,0,0:0:0:0:
383,192,51406,1,0,0:0:0:0:
213,192,51489,1,0,0:0:0:0:
469,192,51572,1,0,0:0:0:0:
42,192,51656,1,0,0:0:0:0:
128,192,51739,1,0,0:0:0:0:
213,192,51739,1,0,0:0:0:0:
469,192,51739,1,0,0:0:0:0:
298,192,51822,1,0,0:0:0:0:
469,192,51906,1,0,0:0:0:0:
383,192,51948,1,0,0:0:0:0:
298,192,51989,1,0,0:0:0:0:
213,192,52031,1,0,0:0:0:0:
42,192,52073,1,0,0:0:0:0:
128,192,52073,1,0,0:0:0:0:
383,192,52156,1,0,0:0:0:0:
42,192,52239,1,0,0:0:0:0:
128,192,52239,1,0,0:0:0:0:
383,192,52323,1,0,0:0:0:0:
128,192,52406,1,0,0:0:0:0:
213,192,52406,1,0,0:0:0:0:
469,192,52406,1,0,0:0:0:0:
42,192,52573,1,0,0:0:0:0:
128,192,52573,1,0,0:0:0:0:
383,192,52740,1,0,0:0:0:0:
298,192,52781,1,0,0:0:0:0:
213,192,52823,1,0,0:0:0:0:
469,192,52865,1,0,0:0:0:0:
42,192,52906,1,0,0:0:0:0:
128,192,52906,1,0,0:0:0:0:
298,192,52990,1,0,0:0:0:0:
128,192,53073,1,0,0:0:0:0:
213,192,53073,1,0,0:0:0:0:
469,192,53073,1,0,0:0:0:0:
383,192,53157,1,0,0:0:0:0:
128,192,53240,1,0,0:0:0:0:
213,192,53240,1,0,0:0:0:0:
298,192,53323,1,0,0:0:0:0:
383,192,53323,1,0,0:0:0:0:
42,192,53407,1,0,0:0:0:0:
128,192,53407,1,0,0:0:0:0:
383,192,53490,1,0,0:0:0:0:
298,192,53657,1,0,0:0:0:0:
128,192,53740,1,0,0:0:0:0:
213,192,53740,1,0,0:0:0:0:
469,192,53740,1,0,0:0:0:0:
383,192,53824,1,0,0:0:0:0:
128,192,53907,1,0,0:0:0:0:
469,192,53907,1,0,0:0:0:0:
213,192,53949,1,0,0:0:0:0:
298,192,53990,1,0,0:0:0:0:
42,192,54074,1,0,0:0:0:0:
128,192,54074,1,0,0:0:0:0:
128,192,54240,1,0,0:0:0:0:
383,192,54324,1,0,0:0:0:0:
128,192,54407,1,0,0:0:0:0:
42,192,54491,1,0,0:0:0:0:
469,192,54574,1,0,0:0:0:0:
42,192,54657,1,0,0:0:0:0:
298,0,54741,128,0,54908:0:0:0:0:
213,0,54908,128,0,55408:0:0:0:0:
128,0,55074,128,0,55408:0:0:0:0:
469,192,55241,1,0,0:0:0:0:
383,192,55297,1,0,0:0:0:0:
298,192,55352,1,0,0:0:0:0:
42,192,55408,1,0,0:0:0:0:
298,192,55491,1,0,0:0:0:0:
42,192,55575,1,0,0:0:0:0:
128,192,55575,1,0,0:0:0:0:
298,192,55658,1,0,0:0:0:0:
128,192,55741,1,0,0:0:0:0:
213,0,55741,128,0,56075:0:0:0:0:
298,0,55825,128,0,56075:0:0:0:0:
383,0,55908,128,0,56075:0:0:0:0:
469,0,55991,128,0,56075:0:0:0:0:
42,192,56075,1,0,0:0:0:0:
128,192,56075,1,0,0:0:0:0:
383,192,56158,1,0,0:0:0:0:
213,192,56242,1,0,0:0:0:0:
42,192,56325,1,0,0:0:0:0:
298,192,56325,1,0,0:0:0:0:
128,192,56408,1,0,0:0:0:0:
213,192,56408,1,0,0:0:0:0:
469,192,56408,1,0,0:0:0:0:
383,192,56492,1,0,0:0:0:0:
42,192,56575,1,0,0:0:0:0:
128,192,56575,1,0,0:0:0:0:
298,192,56658,1,0,0:0:0:0:
383,192,56658,1,0,0:0:0:0:
42,192,56742,1,0,0:0:0:0:
128,192,56742,1,0,0:0:0:0:
469,192,56825,1,0,0:0:0:0:
213,192,56909,1,0,0:0:0:0:
298,192,56992,1,0,0:0:0:0:
42,192,57075,1,0,0:0:0:0:
128,192,57075,1,0,0:0:0:0:
298,192,57159,1,0,0:0:0:0:
128,192,57242,1,0,0:0:0:0:
213,192,57242,1,0,0:0:0:0:
469,192,57242,1,0,0:0:0:0:
42,192,57409,1,0,0:0:0:0:
128,192,57409,1,0,0:0:0:0:
298,192,57492,1,0,0:0:0:0:
213,192,57534,1,0,0:0:0:0:
383,192,57576,1,0,0:0:0:0:
42,192,57659,1,0,0:0:0:0:
298,192,57701,1,0,0:0:0:0:
128,192,57742,1,0,0:0:0:0:
213,192,57742,1,0,0:0:0:0:
469,192,57742,1,0,0:0:0:0:
42,192,57909,1,0,0:0:0:0:
128,192,57909,1,0,0:0:0:0:
298,192,57993,1,0,0:0:0:0:
42,192,58076,1,0,0:0:0:0:
128,192,58076,1,0,0:0:0:0:
298,192,58159,1,0,0:0:0:0:
383,192,58159,1,0,0:0:0:0:
42,192,58243,1,0,0:0:0:0:
128,192,58243,1,0,0:0:0:0:
298,192,58326,1,0,0:0:0:0:
383,192,58326,1,0,0:0:0:0:
128,192,58409,1,0,0:0:0:0:
213,192,58409,1,0,0:0:0:0:
469,192,58409,1,0,0:0:0:0:
42,192,58576,1,0,0:0:0:0:
128,192,58576,1,0,0:0:0:0:
383,0,58576,128,0,58743:0:0:0:0:
42,192,58743,1,0,0:0:0:0:
128,192,58743,1,0,0:0:0:0:
298,192,58826,1,0,0:0:0:0:
383,192,58910,1,0,0:0:0:0:
42,192,58993,1,0,0:0:0:0:
298,192,58993,1,0,0:0:0:0:
128,192,59077,1,0,0:0:0:0:
213,192,59077,1,0,0:0:0:0:
469,192,59077,1,0,0:0:0:0:
298,192,59160,1,0,0:0:0:0:
42,192,59243,1,0,0:0:0:0:
128,192,59243,1,0,0:0:0:0:
42,192,59410,1,0,0:0:0:0:
128,192,59410,1,0,0:0:0:0:
383,192,59493,1,0,0:0:0:0:
213,192,59577,1,0,0:0:0:0:
298,192,59660,1,0,0:0:0:0:
128,192,59744,1,0,0:0:0:0:
213,192,59744,1,0,0:0:0:0:
469,192,59744,1,0,0:0:0:0:
383,192,59910,1,0,0:0:0:0:
298,192,59994,1,0,0:0:0:0:
42,192,60077,1,0,0:0:0:0:
128,192,60077,1,0,0:0:0:0:
298,192,60160,1,0,0:0:0:0:
213,192,60244,1,0,0:0:0:0:
298,192,60327,1,0,0:0:0:0:
383,192,60327,1,0,0:0:0:0:
128,192,60411,1,0,0:0:0:0:
213,192,60411,1,0,0:0:0:0:
298,192,60494,1,0,0:0:0:0:
213,192,60577,1,0,0:0:0:0:
298,192,60661,1,0,0:0:0:0:
383,192,60661,1,0,0:0:0:0:
128,192,60744,1,0,0:0:0:0:
213,192,60744,1,0,0:0:0:0:
469,192,60744,1,0,0:0:0:0:
298,192,60911,1,0,0:0:0:0:
213,192,60994,1,0,0:0:0:0:
383,192,60994,1,0,0:0:0:0:
42,192,61078,1,0,0:0:0:0:
128,192,61078,1,0,0:0:0:0:
298,192,61161,1,0,0:0:0:0:
128,192,61244,1,0,0:0:0:0:
213,192,61244,1,0,0:0:0:0:
469,192,61244,1,0,0:0:0:0:
42,192,61411,1,0,0:0:0:0:
128,192,61411,1,0,0:0:0:0:
383,192,61411,1,0,0:0:0:0:
213,192,61578,1,0,0:0:0:0:
298,192,61661,1,0,0:0:0:0:
128,192,61745,1,0,0:0:0:0:
213,192,61745,1,0,0:0:0:0:
469,192,61745,1,0,0:0:0:0:
298,192,61911,1,0,0:0:0:0:
383,192,61995,1,0,0:0:0:0:
42,192,62078,1,0,0:0:0:0:
128,192,62078,1,0,0:0:0:0:
298,192,62162,1,0,0:0:0:0:
128,192,62245,1,0,0:0:0:0:
42,192,62328,1,0,0:0:0:0:
298,192,62328,1,0,0:0:0:0:
128,192,62412,1,0,0:0:0:0:
213,192,62412,1,0,0:0:0:0:
469,192,62412,1,0,0:0:0:0:
383,192,62495,1,0,0:0:0:0:
128,192,62578,1,0,0:0:0:0:
213,192,62662,1,0,0:0:0:0:
42,192,62745,1,0,0:0:0:0:
128,192,62745,1,0,0:0:0:0:
469,192,62745,1,0,0:0:0:0:
383,192,62829,1,0,0:0:0:0:
128,192,62912,1,0,0:0:0:0:
298,192,62912,1,0,0:0:0:0:
213,192,62995,1,0,0:0:0:0:
42,192,63079,1,0,0:0:0:0:
298,192,63079,1,0,0:0:0:0:
128,192,63120,1,0,0:0:0:0:
213,192,63162,1,0,0:0:0:0:
42,192,63245,1,0,0:0:0:0:
128,192,63245,1,0,0:0:0:0:
383,192,63245,1,0,0:0:0:0:
298,192,63329,1,0,0:0:0:0:
42,192,63412,1,0,0:0:0:0:
128,192,63412,1,0,0:0:0:0:
383,192,63412,1,0,0:0:0:0:
42,192,63579,1,0,0:0:0:0:
128,192,63579,1,0,0:0:0:0:
383,192,63579,1,0,0:0:0:0:
298,192,63662,1,0,0:0:0:0:
128,192,63746,1,0,0:0:0:0:
213,192,63746,1,0,0:0:0:0:
469,192,63746,1,0,0:0:0:0:
298,192,63913,1,0,0:0:0:0:
469,192,63954,1,0,0:0:0:0:
213,192,63996,1,0,0:0:0:0:
298,192,64038,1,0,0:0:0:0:
42,192,64079,1,0,0:0:0:0:
128,192,64079,1,0,0:0:0:0:
383,192,64079,1,0,0:0:0:0:
298,192,64163,1,0,0:0:0:0:
42,192,64246,1,0,0:0:0:0:
128,192,64246,1,0,0:0:0:0:
298,192,64329,1,0,0:0:0:0:
128,192,64413,1,0,0:0:0:0:
213,192,64413,1,0,0:0:0:0:
469,192,64413,1,0,0:0:0:0:
298,192,64496,1,0,0:0:0:0:
383,192,64496,1,0,0:0:0:0:
42,192,64580,1,0,0:0:0:0:
128,192,64580,1,0,0:0:0:0:
298,192,64663,1,0,0:0:0:0:
383,192,64663,1,0,0:0:0:0:
42,192,64746,1,0,0:0:0:0:
128,192,64746,1,0,0:0:0:0:
298,192,64830,1,0,0:0:0:0:
42,192,64913,1,0,0:0:0:0:
128,192,64913,1,0,0:0:0:0:
298,192,64996,1,0,0:0:0:0:
128,192,65080,1,0,0:0:0:0:
213,192,65080,1,0,0:0:0:0:
383,192,65080,1,0,0:0:0:0:
213,192,65247,1,0,0:0:0:0:
42,192,65413,1,0,0:0:0:0:
128,192,65413,1,0,0:0:0:0:
213,192,65413,1,0,0:0:0:0:
298,192,65413,1,0,0:0:0:0:
383,192,65413,1,0,0:0:0:0:
469,192,65413,1,0,0:0:0:0:
42,192,66747,1,0,0:0:0:0:
128,192,66747,1,0,0:0:0:0:
383,192,66830,1,0,0:0:0:0:
298,192,66913,1,0,0:0:0:0:
383,192,66997,1,0,0:0:0:0:
128,192,67080,1,0,0:0:0:0:
213,192,67080,1,0,0:0:0:0:
469,192,67080,1,0,0:0:0:0:
298,192,67163,1,0,0:0:0:0:
383,192,67247,1,0,0:0:0:0:
298,192,67330,1,0,0:0:0:0:
42,192,67413,1,0,0:0:0:0:
128,192,67413,1,0,0:0:0:0:
383,192,67497,1,0,0:0:0:0:
298,192,67580,1,0,0:0:0:0:
383,192,67663,1,0,0:0:0:0:
128,192,67747,1,0,0:0:0:0:
213,192,67747,1,0,0:0:0:0:
469,192,67747,1,0,0:0:0:0:
383,0,67913,128,0,68080:0:0:0:0:
42,192,68080,1,0,0:0:0:0:
128,192,68080,1,0,0:0:0:0:
213,192,68163,1,0,0:0:0:0:
383,192,68247,1,0,0:0:0:0:
298,192,68330,1,0,0:0:0:0:
128,192,68413,1,0,0:0:0:0:
213,192,68413,1,0,0:0:0:0:
469,192,68413,1,0,0:0:0:0:
383,192,68497,1,0,0:0:0:0:
298,192,68580,1,0,0:0:0:0:
42,192,68663,1,0,0:0:0:0:
128,192,68663,1,0,0:0:0:0:
42,192,68747,1,0,0:0:0:0:
128,192,68747,1,0,0:0:0:0:
383,192,68830,1,0,0:0:0:0:
469,192,68913,1,0,0:0:0:0:
42,192,68997,1,0,0:0:0:0:
298,192,68997,1,0,0:0:0:0:
128,192,69080,1,0,0:0:0:0:
213,192,69080,1,0,0:0:0:0:
469,192,69080,1,0,0:0:0:0:
298,192,69163,1,0,0:0:0:0:
383,192,69205,1,0,0:0:0:0:
42,192,69247,1,0,0:0:0:0:
128,192,69247,1,0,0:0:0:0:
213,192,69288,1,0,0:0:0:0:
298,192,69330,1,0,0:0:0:0:
383,192,69372,1,0,0:0:0:0:
42,192,69413,1,0,0:0:0:0:
128,192,69413,1,0,0:0:0:0:
298,192,69497,1,0,0:0:0:0:
213,192,69580,1,0,0:0:0:0:
298,192,69663,1,0,0:0:0:0:
128,192,69747,1,0,0:0:0:0:
213,192,69747,1,0,0:0:0:0:
469,192,69747,1,0,0:0:0:0:
383,192,69830,1,0,0:0:0:0:
298,192,69913,1,0,0:0:0:0:
383,192,69997,1,0,0:0:0:0:
42,192,70080,1,0,0:0:0:0:
128,192,70080,1,0,0:0:0:0:
469,192,70163,1,0,0:0:0:0:
298,192,70247,1,0,0:0:0:0:
42,192,70330,1,0,0:0:0:0:
383,192,70330,1,0,0:0:0:0:
128,192,70413,1,0,0:0:0:0:
213,192,70413,1,0,0:0:0:0:
469,192,70413,1,0,0:0:0:0:
42,192,70580,1,0,0:0:0:0:
128,192,70580,1,0,0:0:0:0:
383,0,70580,128,0,70747:0:0:0:0:
42,192,70747,1,0,0:0:0:0:
128,192,70747,1,0,0:0:0:0:
298,192,70747,1,0,0:0:0:0:
383,192,70830,1,0,0:0:0:0:
213,192,70913,1,0,0:0:0:0:
383,192,70997,1,0,0:0:0:0:
128,192,71080,1,0,0:0:0:0:
213,192,71080,1,0,0:0:0:0:
469,192,71080,1,0,0:0:0:0:
383,192,71163,1,0,0:0:0:0:
128,192,71247,1,0,0:0:0:0:
213,192,71247,1,0,0:0:0:0:
469,192,71247,1,0,0:0:0:0:
298,192,71330,1,0,0:0:0:0:
383,192,71330,1,0,0:0:0:0:
42,192,71413,1,0,0:0:0:0:
128,192,71413,1,0,0:0:0:0:
298,192,71497,1,0,0:0:0:0:
383,192,71497,1,0,0:0:0:0:
469,192,71580,1,0,0:0:0:0:
42,192,71663,1,0,0:0:0:0:
298,192,71663,1,0,0:0:0:0:
128,192,71747,1,0,0:0:0:0:
213,192,71747,1,0,0:0:0:0:
469,192,71747,1,0,0:0:0:0:
383,192,71830,1,0,0:0:0:0:
42,192,71913,1,0,0:0:0:0:
128,192,71913,1,0,0:0:0:0:
42,192,72080,1,0,0:0:0:0:
128,192,72080,1,0,0:0:0:0:
383,192,72080,1,0,0:0:0:0:
383,192,72247,1,0,0:0:0:0:
298,192,72330,1,0,0:0:0:0:
128,192,72413,1,0,0:0:0:0:
213,192,72413,1,0,0:0:0:0:
469,192,72413,1,0,0:0:0:0:
42,192,72580,1,0,0:0:0:0:
128,192,72580,1,0,0:0:0:0:
298,192,72663,1,0,0:0:0:0:
383,192,72663,1,0,0:0:0:0:
42,192,72747,1,0,0:0:0:0:
128,192,72747,1,0,0:0:0:0:
383,192,72913,1,0,0:0:0:0:
298,192,72997,1,0,0:0:0:0:
128,192,73080,1,0,0:0:0:0:
213,192,73080,1,0,0:0:0:0:
469,192,73080,1,0,0:0:0:0:
42,192,73247,1,0,0:0:0:0:
128,192,73247,1,0,0:0:0:0:
298,192,73330,1,0,0:0:0:0:
383,192,73330,1,0,0:0:0:0:
42,192,73413,1,0,0:0:0:0:
128,192,73413,1,0,0:0:0:0:
298,192,73497,1,0,0:0:0:0:
383,192,73580,1,0,0:0:0:0:
469,192,73580,1,0,0:0:0:0:
42,192,73663,1,0,0:0:0:0:
128,192,73747,1,0,0:0:0:0:
213,192,73747,1,0,0:0:0:0:
469,192,73747,1,0,0:0:0:0:
42,192,73913,1,0,0:0:0:0:
128,192,73913,1,0,0:0:0:0:
383,192,73997,1,0,0:0:0:0:
42,192,74080,1,0,0:0:0:0:
128,192,74080,1,0,0:0:0:0:
298,192,74080,1,0,0:0:0:0:
383,192,74163,1,0,0:0:0:0:
469,192,74247,1,0,0:0:0:0:
42,192,74330,1,0,0:0:0:0:
298,192,74330,1,0,0:0:0:0:
128,192,74413,1,0,0:0:0:0:
213,192,74413,1,0,0:0:0:0:
469,192,74413,1,0,0:0:0:0:
42,192,74580,1,0,0:0:0:0:
128,192,74580,1,0,0:0:0:0:
42,192,74747,1,0,0:0:0:0:
128,192,74747,1,0,0:0:0:0:
383,192,74747,1,0,0:0:0:0:
128,192,74913,1,0,0:0:0:0:
469,192,74913,1,0,0:0:0:0:
42,192,75080,1,0,0:0:0:0:
128,192,75080,1,0,0:0:0:0:
128,192,75247,1,0,0:0:0:0:
469,192,75247,1,0,0:0:0:0:
42,192,75413,1,0,0:0:0:0:
128,192,75413,1,0,0:0:0:0:
128,192,75580,1,0,0:0:0:0:
469,192,75580,1,0,0:0:0:0:
42,192,75747,1,0,0:0:0:0:
469,192,75788,1,0,0:0:0:0:
128,192,75830,1,0,0:0:0:0:
383,192,75872,1,0,0:0:0:0:
213,192,75913,1,0,0:0:0:0:
298,192,75955,1,0,0:0:0:0:
128,192,75997,1,0,0:0:0:0:
383,192,76038,1,0,0:0:0:0:
42,192,76080,1,0,0:0:0:0:
42,192,76302,1,0,0:0:0:0:
128,192,76414,1,0,0:0:0:0:
213,192,76414,1,0,0:0:0:0:
469,192,76414,1,0,0:0:0:0:
42,192,76636,1,0,0:0:0:0:
42,192,76858,1,0,0:0:0:0:
128,192,77081,1,0,0:0:0:0:
213,192,77081,1,0,0:0:0:0:
469,192,77081,1,0,0:0:0:0:
42,192,77303,1,0,0:0:0:0:
42,192,77581,1,0,0:0:0:0:
42,192,77831,1,0,0:0:0:0:
298,192,77970,1,0,0:0:0:0:
128,192,78081,1,0,0:0:0:0:
213,192,78081,1,0,0:0:0:0:
469,192,78081,1,0,0:0:0:0:
128,192,78303,1,0,0:0:0:0:
213,192,78303,1,0,0:0:0:0:
469,192,78303,1,0,0:0:0:0:
42,192,78470,1,0,0:0:0:0:
42,192,78581,1,0,0:0:0:0:
128,192,78706,1,0,0:0:0:0:
213,192,78706,1,0,0:0:0:0:
469,192,78706,1,0,0:0:0:0:
42,192,78832,1,0,0:0:0:0:
128,192,79082,1,0,0:0:0:0:
213,192,79082,1,0,0:0:0:0:
469,192,79082,1,0,0:0:0:0:
42,192,79248,1,0,0:0:0:0:
128,192,79248,1,0,0:0:0:0:
42,192,79415,1,0,0:0:0:0:
128,192,79415,1,0,0:0:0:0:
213,192,79499,1,0,0:0:0:0:
383,192,79582,1,0,0:0:0:0:
42,192,79665,1,0,0:0:0:0:
128,192,79749,1,0,0:0:0:0:
213,192,79749,1,0,0:0:0:0:
469,192,79749,1,0,0:0:0:0:
42,192,79915,1,0,0:0:0:0:
128,192,79915,1,0,0:0:0:0:
298,192,79999,1,0,0:0:0:0:
383,192,79999,1,0,0:0:0:0:
42,192,80082,1,0,0:0:0:0:
128,192,80082,1,0,0:0:0:0:
42,192,80249,1,0,0:0:0:0:
128,192,80249,1,0,0:0:0:0:
128,192,80416,1,0,0:0:0:0:
213,192,80416,1,0,0:0:0:0:
469,192,80416,1,0,0:0:0:0:
298,192,80499,1,0,0:0:0:0:
42,192,80583,1,0,0:0:0:0:
298,192,80666,1,0,0:0:0:0:
42,192,80749,1,0,0:0:0:0:
128,192,80749,1,0,0:0:0:0:
298,192,80833,1,0,0:0:0:0:
42,192,80916,1,0,0:0:0:0:
298,192,80999,1,0,0:0:0:0:
42,192,81083,1,0,0:0:0:0:
298,192,81125,1,0,0:0:0:0:
42,192,81250,1,0,0:0:0:0:
128,192,81250,1,0,0:0:0:0:
42,192,81416,1,0,0:0:0:0:
128,192,81416,1,0,0:0:0:0:
213,192,81583,1,0,0:0:0:0:
42,192,81666,1,0,0:0:0:0:
298,192,81666,1,0,0:0:0:0:
128,192,81750,1,0,0:0:0:0:
213,192,81750,1,0,0:0:0:0:
469,192,81750,1,0,0:0:0:0:
383,192,81917,1,0,0:0:0:0:
298,192,82000,1,0,0:0:0:0:
42,192,82083,1,0,0:0:0:0:
128,192,82083,1,0,0:0:0:0:
298,192,82167,1,0,0:0:0:0:
42,192,82250,1,0,0:0:0:0:
128,192,82250,1,0,0:0:0:0:
298,192,82334,1,0,0:0:0:0:
383,192,82334,1,0,0:0:0:0:
128,192,82417,1,0,0:0:0:0:
213,192,82417,1,0,0:0:0:0:
469,192,82417,1,0,0:0:0:0:
298,192,82472,1,0,0:0:0:0:
213,192,82528,1,0,0:0:0:0:
298,192,82584,1,0,0:0:0:0:
213,192,82639,1,0,0:0:0:0:
298,192,82695,1,0,0:0:0:0:
42,192,82750,1,0,0:0:0:0:
128,192,82750,1,0,0:0:0:0:
42,192,82917,1,0,0:0:0:0:
128,192,82917,1,0,0:0:0:0:
298,192,83001,1,0,0:0:0:0:
128,192,83084,1,0,0:0:0:0:
213,192,83084,1,0,0:0:0:0:
469,192,83084,1,0,0:0:0:0:
383,192,83167,1,0,0:0:0:0:
42,192,83251,1,0,0:0:0:0:
298,192,83334,1,0,0:0:0:0:
383,192,83334,1,0,0:0:0:0:
42,192,83417,1,0,0:0:0:0:
128,192,83417,1,0,0:0:0:0:
298,192,83501,1,0,0:0:0:0:
383,192,83501,1,0,0:0:0:0:
42,192,83584,1,0,0:0:0:0:
128,192,83584,1,0,0:0:0:0:
298,192,83668,1,0,0:0:0:0:
383,192,83668,1,0,0:0:0:0:
128,192,83751,1,0,0:0:0:0:
213,192,83751,1,0,0:0:0:0:
469,192,83751,1,0,0:0:0:0:
383,192,83918,1,0,0:0:0:0:
42,192,84084,1,0,0:0:0:0:
128,192,84084,1,0,0:0:0:0:
469,192,84168,1,0,0:0:0:0:
128,192,84251,1,0,0:0:0:0:
383,192,84251,1,0,0:0:0:0:
42,192,84335,1,0,0:0:0:0:
298,192,84335,1,0,0:0:0:0:
128,192,84418,1,0,0:0:0:0:
213,192,84418,1,0,0:0:0:0:
469,192,84418,1,0,0:0:0:0:
42,192,84501,1,0,0:0:0:0:
469,192,84585,1,0,0:0:0:0:
298,192,84668,1,0,0:0:0:0:
42,192,84752,1,0,0:0:0:0:
128,192,84752,1,0,0:0:0:0:
383,192,84752,1,0,0:0:0:0:
298,192,84835,1,0,0:0:0:0:
42,192,84918,1,0,0:0:0:0:
298,192,85002,1,0,0:0:0:0:
128,192,85085,1,0,0:0:0:0:
213,192,85085,1,0,0:0:0:0:
469,192,85085,1,0,0:0:0:0:
42,192,85252,1,0,0:0:0:0:
128,192,85252,1,0,0:0:0:0:
298,192,85335,1,0,0:0:0:0:
383,192,85335,1,0,0:0:0:0:
42,192,85419,1,0,0:0:0:0:
128,192,85419,1,0,0:0:0:0:
213,192,85502,1,0,0:0:0:0:
383,192,85585,1,0,0:0:0:0:
298,192,85669,1,0,0:0:0:0:
128,192,85752,1,0,0:0:0:0:
213,192,85752,1,0,0:0:0:0:
469,192,85752,1,0,0:0:0:0:
383,192,85835,1,0,0:0:0:0:
298,192,85919,1,0,0:0:0:0:
383,192,86002,1,0,0:0:0:0:
42,192,86085,1,0,0:0:0:0:
128,192,86085,1,0,0:0:0:0:
298,192,86169,1,0,0:0:0:0:
383,192,86252,1,0,0:0:0:0:
298,192,86335,1,0,0:0:0:0:
128,192,86419,1,0,0:0:0:0:
213,192,86419,1,0,0:0:0:0:
469,192,86419,1,0,0:0:0:0:
383,192,86585,1,0,0:0:0:0:
42,192,86752,1,0,0:0:0:0:
128,192,86752,1,0,0:0:0:0:
298,192,86752,1,0,0:0:0:0:
383,192,86835,1,0,0:0:0:0:
469,192,86919,1,0,0:0:0:0:
383,192,87002,1,0,0:0:0:0:
128,192,87085,1,0,0:0:0:0:
213,192,87085,1,0,0:0:0:0:
469,192,87085,1,0,0:0:0:0:
298,192,87169,1,0,0:0:0:0:
383,192,87252,1,0,0:0:0:0:
213,192,87335,1,0,0:0:0:0:
298,192,87335,1,0,0:0:0:0:
42,192,87419,1,0,0:0:0:0:
128,192,87419,1,0,0:0:0:0:
469,192,87419,1,0,0:0:0:0:
298,192,87502,1,0,0:0:0:0:
383,192,87585,1,0,0:0:0:0:
42,192,87669,1,0,0:0:0:0:
298,192,87669,1,0,0:0:0:0:
128,192,87752,1,0,0:0:0:0:
213,192,87752,1,0,0:0:0:0:
469,192,87752,1,0,0:0:0:0:
383,192,87794,1,0,0:0:0:0:
298,192,87835,1,0,0:0:0:0:
213,192,87877,1,0,0:0:0:0:
42,192,87919,1,0,0:0:0:0:
128,192,87919,1,0,0:0:0:0:
213,192,87960,1,0,0:0:0:0:
298,192,88002,1,0,0:0:0:0:
383,192,88044,1,0,0:0:0:0:
42,192,88085,1,0,0:0:0:0:
128,192,88085,1,0,0:0:0:0:
469,192,88085,1,0,0:0:0:0:
383,192,88169,1,0,0:0:0:0:
213,192,88252,1,0,0:0:0:0:
298,192,88335,1,0,0:0:0:0:
128,192,88419,1,0,0:0:0:0:
213,192,88419,1,0,0:0:0:0:
469,192,88419,1,0,0:0:0:0:
383,192,88502,1,0,0:0:0:0:
298,192,88585,1,0,0:0:0:0:
383,192,88669,1,0,0:0:0:0:
42,192,88752,1,0,0:0:0:0:
128,192,88752,1,0,0:0:0:0:
213,192,88835,1,0,0:0:0:0:
298,192,88919,1,0,0:0:0:0:
42,192,89002,1,0,0:0:0:0:
383,192,89002,1,0,0:0:0:0:
128,192,89085,1,0,0:0:0:0:
213,192,89085,1,0,0:0:0:0:
469,192,89085,1,0,0:0:0:0:
42,192,89252,1,0,0:0:0:0:
128,192,89252,1,0,0:0:0:0:
383,192,89252,1,0,0:0:0:0:
298,192,89335,1,0,0:0:0:0:
42,192,89419,1,0,0:0:0:0:
128,192,89419,1,0,0:0:0:0:
469,192,89419,1,0,0:0:0:0:
213,192,89502,1,0,0:0:0:0:
298,192,89585,1,0,0:0:0:0:
383,192,89669,1,0,0:0:0:0:
128,192,89752,1,0,0:0:0:0:
213,192,89752,1,0,0:0:0:0:
469,192,89752,1,0,0:0:0:0:
383,192,89835,1,0,0:0:0:0:
128,192,89919,1,0,0:0:0:0:
213,192,89919,1,0,0:0:0:0:
469,192,89919,1,0,0:0:0:0:
298,192,90002,1,0,0:0:0:0:
383,192,90002,1,0,0:0:0:0:
42,192,90085,1,0,0:0:0:0:
128,192,90169,1,0,0:0:0:0:
213,192,90169,1,0,0:0:0:0:
469,192,90169,1,0,0:0:0:0:
298,192,90252,1,0,0:0:0:0:
42,192,90335,1,0,0:0:0:0:
383,192,90335,1,0,0:0:0:0:
128,192,90419,1,0,0:0:0:0:
213,192,90419,1,0,0:0:0:0:
469,192,90419,1,0,0:0:0:0:
383,192,90502,1,0,0:0:0:0:
42,192,90585,1,0,0:0:0:0:
128,192,90585,1,0,0:0:0:0:
42,192,90752,1,0,0:0:0:0:
128,192,90752,1,0,0:0:0:0:
383,192,90752,1,0,0:0:0:0:
298,192,90835,1,0,0:0:0:0:
469,192,90919,1,0,0:0:0:0:
42,192,91002,1,0,0:0:0:0:
383,192,91002,1,0,0:0:0:0:
128,192,91085,1,0,0:0:0:0:
213,192,91085,1,0,0:0:0:0:
469,192,91085,1,0,0:0:0:0:
383,192,91169,1,0,0:0:0:0:
128,192,91252,1,0,0:0:0:0:
298,192,91335,1,0,0:0:0:0:
42,192,91419,1,0,0:0:0:0:
128,192,91419,1,0,0:0:0:0:
383,192,91502,1,0,0:0:0:0:
469,192,91585,1,0,0:0:0:0:
42,192,91669,1,0,0:0:0:0:
383,192,91669,1,0,0:0:0:0:
128,192,91752,1,0,0:0:0:0:
213,192,91752,1,0,0:0:0:0:
469,192,91752,1,0,0:0:0:0:
298,192,91835,1,0,0:0:0:0:
383,192,91835,1,0,0:0:0:0:
42,192,91919,1,0,0:0:0:0:
128,192,91919,1,0,0:0:0:0:
469,192,92002,1,0,0:0:0:0:
42,192,92085,1,0,0:0:0:0:
128,192,92085,1,0,0:0:0:0:
383,192,92085,1,0,0:0:0:0:
298,192,92169,1,0,0:0:0:0:
383,192,92252,1,0,0:0:0:0:
298,192,92335,1,0,0:0:0:0:
128,192,92419,1,0,0:0:0:0:
213,192,92419,1,0,0:0:0:0:
469,192,92419,1,0,0:0:0:0:
298,192,92502,1,0,0:0:0:0:
128,192,92585,1,0,0:0:0:0:
213,192,92585,1,0,0:0:0:0:
469,192,92585,1,0,0:0:0:0:
298,192,92669,1,0,0:0:0:0:
383,192,92669,1,0,0:0:0:0:
42,192,92752,1,0,0:0:0:0:
128,192,92835,1,0,0:0:0:0:
213,192,92835,1,0,0:0:0:0:
469,192,92835,1,0,0:0:0:0:
383,192,92919,1,0,0:0:0:0:
42,192,93002,1,0,0:0:0:0:
128,192,93085,1,0,0:0:0:0:
213,192,93085,1,0,0:0:0:0:
469,192,93085,1,0,0:0:0:0:
383,192,93169,1,0,0:0:0:0:
42,192,93252,1,0,0:0:0:0:
128,192,93252,1,0,0:0:0:0:
42,192,93419,1,0,0:0:0:0:
383,192,93419,1,0,0:0:0:0:
128,192,93502,1,0,0:0:0:0:
213,192,93502,1,0,0:0:0:0:
469,192,93502,1,0,0:0:0:0:
383,192,93585,1,0,0:0:0:0:
298,192,93669,1,0,0:0:0:0:
128,192,93752,1,0,0:0:0:0:
213,192,93752,1,0,0:0:0:0:
469,192,93752,1,0,0:0:0:0:
383,192,93835,1,0,0:0:0:0:
298,192,93919,1,0,0:0:0:0:
383,192,94002,1,0,0:0:0:0:
42,192,94085,1,0,0:0:0:0:
298,192,94085,1,0,0:0:0:0:
128,192,94169,1,0,0:0:0:0:
213,192,94169,1,0,0:0:0:0:
469,192,94169,1,0,0:0:0:0:
383,192,94252,1,0,0:0:0:0:
42,192,94335,1,0,0:0:0:0:
298,192,94335,1,0,0:0:0:0:
128,192,94419,1,0,0:0:0:0:
213,192,94419,1,0,0:0:0:0:
469,192,94419,1,0,0:0:0:0:
42,192,94585,1,0,0:0:0:0:
128,192,94585,1,0,0:0:0:0:
298,0,94585,128,0,94752:0:0:0:0:
42,192,94752,1,0,0:0:0:0:
213,192,94752,1,0,0:0:0:0:
469,192,94752,1,0,0:0:0:0:
42,192,94919,1,0,0:0:0:0:
469,192,94919,1,0,0:0:0:0:
42,192,95085,1,0,0:0:0:0:
213,192,95085,1,0,0:0:0:0:
469,192,95085,1,0,0:0:0:0:
42,192,95252,1,0,0:0:0:0:
469,192,95252,1,0,0:0:0:0:
42,192,95419,1,0,0:0:0:0:
213,192,95419,1,0,0:0:0:0:
469,192,95419,1,0,0:0:0:0:
213,192,95585,1,0,0:0:0:0:
298,192,95585,1,0,0:0:0:0:
42,0,95585,128,0,95752:0:0:0:0:
469,0,95585,128,0,95752:0:0:0:0:
128,192,95752,1,0,0:0:0:0:
383,192,95752,1,0,0:0:0:0:
298,192,96002,1,0,0:0:0:0:
383,192,96002,1,0,0:0:0:0:
42,192,96085,1,0,0:0:0:0:
128,192,96085,1,0,0:0:0:0:
42,192,96252,1,0,0:0:0:0:
128,192,96252,1,0,0:0:0:0:
298,192,96335,1,0,0:0:0:0:
128,192,96419,1,0,0:0:0:0:
213,192,96419,1,0,0:0:0:0:
469,192,96419,1,0,0:0:0:0:
383,192,96502,1,0,0:0:0:0:
42,192,96585,1,0,0:0:0:0:
128,192,96585,1,0,0:0:0:0:
42,192,96752,1,0,0:0:0:0:
128,192,96752,1,0,0:0:0:0:
383,192,96919,1,0,0:0:0:0:
42,192,97002,1,0,0:0:0:0:
128,192,97085,1,0,0:0:0:0:
213,192,97085,1,0,0:0:0:0:
469,192,97085,1,0,0:0:0:0:
42,192,97169,1,0,0:0:0:0:
298,192,97169,1,0,0:0:0:0:
128,192,97252,1,0,0:0:0:0:
213,192,97294,1,0,0:0:0:0:
298,192,97335,1,0,0:0:0:0:
383,192,97377,1,0,0:0:0:0:
42,192,97419,1,0,0:0:0:0:
128,192,97419,1,0,0:0:0:0:
383,192,97502,1,0,0:0:0:0:
42,192,97585,1,0,0:0:0:0:
128,192,97585,1,0,0:0:0:0:
298,192,97669,1,0,0:0:0:0:
128,192,97752,1,0,0:0:0:0:
213,192,97752,1,0,0:0:0:0:
469,192,97752,1,0,0:0:0:0:
42,192,97919,1,0,0:0:0:0:
128,192,97919,1,0,0:0:0:0:
469,192,98085,1,0,0:0:0:0:
42,192,98252,1,0,0:0:0:0:
128,192,98252,1,0,0:0:0:0:
128,192,98419,1,0,0:0:0:0:
213,192,98419,1,0,0:0:0:0:
469,192,98419,1,0,0:0:0:0:
42,192,98752,1,0,0:0:0:0:
128,192,98752,1,0,0:0:0:0:
213,192,98835,1,0,0:0:0:0:
298,192,98919,1,0,0:0:0:0:
42,192,99002,1,0,0:0:0:0:
383,192,99002,1,0,0:0:0:0:
128,192,99085,1,0,0:0:0:0:
213,192,99085,1,0,0:0:0:0:
469,192,99085,1,0,0:0:0:0:
298,192,99169,1,0,0:0:0:0:
42,192,99252,1,0,0:0:0:0:
383,192,99252,1,0,0:0:0:0:
128,192,99335,1,0,0:0:0:0:
213,192,99335,1,0,0:0:0:0:
469,192,99335,1,0,0:0:0:0:
42,192,99419,1,0,0:0:0:0:
383,192,99419,1,0,0:0:0:0:
298,192,99502,1,0,0:0:0:0:
383,192,99585,1,0,0:0:0:0:
42,192,99669,1,0,0:0:0:0:
128,192,99752,1,0,0:0:0:0:
213,192,99752,1,0,0:0:0:0:
469,192,99752,1,0,0:0:0:0:
42,192,99835,1,0,0:0:0:0:
469,192,99919,1,0,0:0:0:0:
383,192,99960,1,0,0:0:0:0:
298,192,100002,1,0,0:0:0:0:
213,192,100044,1,0,0:0:0:0:
42,192,100085,1,0,0:0:0:0:
128,192,100085,1,0,0:0:0:0:
383,192,100169,1,0,0:0:0:0:
42,192,100252,1,0,0:0:0:0:
128,192,100252,1,0,0:0:0:0:
383,192,100335,1,0,0:0:0:0:
128,192,100419,1,0,0:0:0:0:
213,192,100419,1,0,0:0:0:0:
469,192,100419,1,0,0:0:0:0:
42,192,100585,1,0,0:0:0:0:
128,192,100585,1,0,0:0:0:0:
469,0,100752,128,0,100919:0:0:0:0:
42,192,100919,1,0,0:0:0:0:
128,192,100919,1,0,0:0:0:0:
213,192,100960,1,0,0:0:0:0:
298,192,101002,1,0,0:0:0:0:
383,192,101044,1,0,0:0:0:0:
128,192,101085,1,0,0:0:0:0:
213,192,101085,1,0,0:0:0:0:
469,192,101085,1,0,0:0:0:0:
42,192,101169,1,0,0:0:0:0:
383,192,101252,1,0,0:0:0:0:
298,192,101335,1,0,0:0:0:0:
42,192,101419,1,0,0:0:0:0:
128,192,101419,1,0,0:0:0:0:
383,192,101502,1,0,0:0:0:0:
469,192,101585,1,0,0:0:0:0:
42,192,101669,1,0,0:0:0:0:
383,192,101669,1,0,0:0:0:0:
128,192,101752,1,0,0:0:0:0:
213,192,101752,1,0,0:0:0:0:
469,192,101752,1,0,0:0:0:0:
383,192,101835,1,0,0:0:0:0:
213,192,101919,1,0,0:0:0:0:
298,192,101919,1,0,0:0:0:0:
383,192,102002,1,0,0:0:0:0:
42,192,102085,1,0,0:0:0:0:
128,192,102085,1,0,0:0:0:0:
469,192,102085,1,0,0:0:0:0:
383,192,102252,1,0,0:0:0:0:
42,192,102335,1,0,0:0:0:0:
128,192,102419,1,0,0:0:0:0:
213,192,102419,1,0,0:0:0:0:
469,192,102419,1,0,0:0:0:0:
383,192,102502,1,0,0:0:0:0:
42,192,102585,1,0,0:0:0:0:
383,192,102627,1,0,0:0:0:0:
213,192,102669,1,0,0:0:0:0:
298,192,102710,1,0,0:0:0:0:
42,192,102752,1,0,0:0:0:0:
128,192,102752,1,0,0:0:0:0:
469,192,102752,1,0,0:0:0:0:
298,192,102835,1,0,0:0:0:0:
42,192,102919,1,0,0:0:0:0:
128,192,102919,1,0,0:0:0:0:
298,192,103002,1,0,0:0:0:0:
128,192,103085,1,0,0:0:0:0:
213,192,103085,1,0,0:0:0:0:
469,192,103085,1,0,0:0:0:0:
42,192,103252,1,0,0:0:0:0:
128,192,103252,1,0,0:0:0:0:
42,192,103419,1,0,0:0:0:0:
128,192,103419,1,0,0:0:0:0:
213,192,103460,1,0,0:0:0:0:
469,192,103502,1,0,0:0:0:0:
298,0,103585,128,0,103752:0:0:0:0:
128,192,103752,1,0,0:0:0:0:
213,192,103752,1,0,0:0:0:0:
469,192,103752,1,0,0:0:0:0:
42,192,103919,1,0,0:0:0:0:
128,192,103919,1,0,0:0:0:0:
383,192,103919,1,0,0:0:0:0:
298,192,104002,1,0,0:0:0:0:
42,192,104085,1,0,0:0:0:0:
128,192,104085,1,0,0:0:0:0:
383,192,104085,1,0,0:0:0:0:
298,192,104169,1,0,0:0:0:0:
42,192,104252,1,0,0:0:0:0:
383,192,104252,1,0,0:0:0:0:
128,192,104335,1,0,0:0:0:0:
213,192,104335,1,0,0:0:0:0:
469,192,104335,1,0,0:0:0:0:
383,192,104419,1,0,0:0:0:0:
128,192,104502,1,0,0:0:0:0:
213,192,104502,1,0,0:0:0:0:
469,192,104502,1,0,0:0:0:0:
42,192,104544,1,0,0:0:0:0:
298,192,104544,1,0,0:0:0:0:
383,192,104544,1,0,0:0:0:0:
42,192,104669,1,0,0:0:0:0:
128,192,104752,1,0,0:0:0:0:
213,192,104752,1,0,0:0:0:0:
469,192,104752,1,0,0:0:0:0:
42,192,104919,1,0,0:0:0:0:
128,192,104919,1,0,0:0:0:0:
298,192,105002,1,0,0:0:0:0:
42,192,105085,1,0,0:0:0:0:
128,192,105085,1,0,0:0:0:0:
298,192,105169,1,0,0:0:0:0:
128,192,105252,1,0,0:0:0:0:
213,192,105252,1,0,0:0:0:0:
469,192,105252,1,0,0:0:0:0:
42,192,105419,1,0,0:0:0:0:
128,192,105419,1,0,0:0:0:0:
213,192,105460,1,0,0:0:0:0:
383,192,105502,1,0,0:0:0:0:
42,192,105585,1,0,0:0:0:0:
128,192,105585,1,0,0:0:0:0:
213,192,105627,1,0,0:0:0:0:
383,192,105669,1,0,0:0:0:0:
128,192,105752,1,0,0:0:0:0:
213,192,105752,1,0,0:0:0:0:
469,192,105752,1,0,0:0:0:0:
42,192,105919,1,0,0:0:0:0:
128,192,105919,1,0,0:0:0:0:
298,192,106002,1,0,0:0:0:0:
42,192,106085,1,0,0:0:0:0:
128,192,106085,1,0,0:0:0:0:
298,192,106169,1,0,0:0:0:0:
42,192,106252,1,0,0:0:0:0:
128,192,106252,1,0,0:0:0:0:
298,192,106335,1,0,0:0:0:0:
128,192,106419,1,0,0:0:0:0:
213,192,106419,1,0,0:0:0:0:
469,192,106419,1,0,0:0:0:0:
42,192,106502,1,0,0:0:0:0:
298,192,106502,1,0,0:0:0:0:
128,192,106585,1,0,0:0:0:0:
383,192,106585,1,0,0:0:0:0:
213,192,106669,1,0,0:0:0:0:
298,192,106669,1,0,0:0:0:0:
42,192,106752,1,0,0:0:0:0:
128,192,106752,1,0,0:0:0:0:
213,192,106835,1,0,0:0:0:0:
298,192,106919,1,0,0:0:0:0:
42,192,107002,1,0,0:0:0:0:
383,192,107002,1,0,0:0:0:0:
128,192,107085,1,0,0:0:0:0:
213,192,107085,1,0,0:0:0:0:
469,192,107085,1,0,0:0:0:0:
42,192,107252,1,0,0:0:0:0:
128,192,107252,1,0,0:0:0:0:
383,192,107335,1,0,0:0:0:0:
42,192,107419,1,0,0:0:0:0:
298,192,107419,1,0,0:0:0:0:
128,192,107502,1,0,0:0:0:0:
213,192,107502,1,0,0:0:0:0:
469,192,107502,1,0,0:0:0:0:
42,192,107585,1,0,0:0:0:0:
383,192,107585,1,0,0:0:0:0:
298,192,107669,1,0,0:0:0:0:
469,192,107669,1,0,0:0:0:0:
128,192,107752,1,0,0:0:0:0:
213,192,107752,1,0,0:0:0:0:
383,192,107919,1,0,0:0:0:0:
42,192,108085,1,0,0:0:0:0:
128,192,108085,1,0,0:0:0:0:
42,192,108252,1,0,0:0:0:0:
128,192,108252,1,0,0:0:0:0:
128,192,108419,1,0,0:0:0:0:
213,192,108419,1,0,0:0:0:0:
469,192,108419,1,0,0:0:0:0:
42,192,108585,1,0,0:0:0:0:
128,192,108585,1,0,0:0:0:0:
298,192,108669,1,0,0:0:0:0:
383,192,108669,1,0,0:0:0:0:
42,192,108752,1,0,0:0:0:0:
128,192,108752,1,0,0:0:0:0:
213,192,108794,1,0,0:0:0:0:
298,192,108835,1,0,0:0:0:0:
383,192,108877,1,0,0:0:0:0:
42,192,108919,1,0,0:0:0:0:
128,192,108919,1,0,0:0:0:0:
213,192,108960,1,0,0:0:0:0:
298,192,109002,1,0,0:0:0:0:
383,192,109044,1,0,0:0:0:0:
128,192,109085,1,0,0:0:0:0:
213,192,109085,1,0,0:0:0:0:
469,192,109085,1,0,0:0:0:0:
383,192,109252,1,0,0:0:0:0:
42,192,109419,1,0,0:0:0:0:
128,192,109419,1,0,0:0:0:0:
383,192,109502,1,0,0:0:0:0:
298,192,109585,1,0,0:0:0:0:
42,192,109669,1,0,0:0:0:0:
383,192,109669,1,0,0:0:0:0:
128,192,109752,1,0,0:0:0:0:
213,192,109752,1,0,0:0:0:0:
469,192,109752,1,0,0:0:0:0:
298,192,109835,1,0,0:0:0:0:
128,192,109919,1,0,0:0:0:0:
213,192,109919,1,0,0:0:0:0:
469,192,109919,1,0,0:0:0:0:
383,192,110002,1,0,0:0:0:0:
42,192,110085,1,0,0:0:0:0:
128,192,110085,1,0,0:0:0:0:
128,192,110252,1,0,0:0:0:0:
298,192,110252,1,0,0:0:0:0:
42,192,110335,1,0,0:0:0:0:
383,192,110335,1,0,0:0:0:0:
128,192,110419,1,0,0:0:0:0:
213,192,110419,1,0,0:0:0:0:
469,192,110419,1,0,0:0:0:0:
469,192,110585,1,0,0:0:0:0:
383,192,110627,1,0,0:0:0:0:
298,192,110669,1,0,0:0:0:0:
213,192,110710,1,0,0:0:0:0:
42,192,110752,1,0,0:0:0:0:
128,192,110752,1,0,0:0:0:0:
383,192,110835,1,0,0:0:0:0:
42,192,110919,1,0,0:0:0:0:
128,192,110919,1,0,0:0:0:0:
383,192,111002,1,0,0:0:0:0:
128,192,111085,1,0,0:0:0:0:
213,192,111085,1,0,0:0:0:0:
469,192,111085,1,0,0:0:0:0:
298,192,111169,1,0,0:0:0:0:
42,192,111252,1,0,0:0:0:0:
383,192,111252,1,0,0:0:0:0:
128,192,111335,1,0,0:0:0:0:
213,192,111335,1,0,0:0:0:0:
469,192,111335,1,0,0:0:0:0:
42,192,111419,1,0,0:0:0:0:
298,192,111502,1,0,0:0:0:0:
128,192,111585,1,0,0:0:0:0:
213,192,111585,1,0,0:0:0:0:
469,192,111585,1,0,0:0:0:0:
383,192,111669,1,0,0:0:0:0:
128,192,111752,1,0,0:0:0:0:
213,192,111752,1,0,0:0:0:0:
469,192,111752,1,0,0:0:0:0:
383,192,111794,1,0,0:0:0:0:
298,192,111835,1,0,0:0:0:0:
213,192,111877,1,0,0:0:0:0:
42,192,111919,1,0,0:0:0:0:
128,192,111960,1,0,0:0:0:0:
213,192,112002,1,0,0:0:0:0:
298,192,112044,1,0,0:0:0:0:
42,192,112085,1,0,0:0:0:0:
128,192,112085,1,0,0:0:0:0:
469,192,112085,1,0,0:0:0:0:
383,192,112169,1,0,0:0:0:0:
42,192,112252,1,0,0:0:0:0:
128,192,112252,1,0,0:0:0:0:
298,192,112335,1,0,0:0:0:0:
128,192,112419,1,0,0:0:0:0:
213,192,112419,1,0,0:0:0:0:
469,192,112419,1,0,0:0:0:0:
298,192,112474,1,0,0:0:0:0:
128,192,112530,1,0,0:0:0:0:
213,192,112530,1,0,0:0:0:0:
469,192,112530,1,0,0:0:0:0:
298,192,112613,1,0,0:0:0:0:
128,192,112641,1,0,0:0:0:0:
213,192,112641,1,0,0:0:0:0:
469,192,112641,1,0,0:0:0:0:
383,192,112724,1,0,0:0:0:0:
298,192,112835,1,0,0:0:0:0:
213,192,112919,1,0,0:0:0:0:
42,192,113002,1,0,0:0:0:0:
128,192,113085,1,0,0:0:0:0:
213,192,113085,1,0,0:0:0:0:
469,192,113085,1,0,0:0:0:0:
383,192,113127,1,0,0:0:0:0:
42,192,113169,1,0,0:0:0:0:
128,192,113169,1,0,0:0:0:0:
469,192,113252,1,0,0:0:0:0:
298,192,113335,1,0,0:0:0:0:
383,192,113335,1,0,0:0:0:0:
42,192,113419,1,0,0:0:0:0:
128,192,113419,1,0,0:0:0:0:
213,192,113502,1,0,0:0:0:0:
469,192,113585,1,0,0:0:0:0:
298,192,113669,1,0,0:0:0:0:
383,192,113669,1,0,0:0:0:0:
128,192,113752,1,0,0:0:0:0:
213,192,113752,1,0,0:0:0:0:
298,192,113835,1,0,0:0:0:0:
42,192,113919,1,0,0:0:0:0:
128,192,113919,1,0,0:0:0:0:
383,192,114002,1,0,0:0:0:0:
128,192,114085,1,0,0:0:0:0:
213,192,114085,1,0,0:0:0:0:
469,192,114085,1,0,0:0:0:0:
42,192,114419,1,0,0:0:0:0:
128,192,114419,1,0,0:0:0:0:
42,192,114585,1,0,0:0:0:0:
128,192,114585,1,0,0:0:0:0:
469,192,114585,1,0,0:0:0:0:
298,192,114669,1,0,0:0:0:0:
42,192,114752,1,0,0:0:0:0:
128,192,114752,1,0,0:0:0:0:
469,192,114752,1,0,0:0:0:0:
213,192,114919,1,0,0:0:0:0:
383,192,115002,1,0,0:0:0:0:
42,192,115085,1,0,0:0:0:0:
128,192,115085,1,0,0:0:0:0:
298,192,115169,1,0,0:0:0:0:
128,192,115252,1,0,0:0:0:0:
298,192,115335,1,0,0:0:0:0:
128,192,115419,1,0,0:0:0:0:
213,192,115419,1,0,0:0:0:0:
469,192,115419,1,0,0:0:0:0:
383,192,115460,1,0,0:0:0:0:
298,192,115502,1,0,0:0:0:0:
42,192,115752,1,0,0:0:0:0:
128,192,115752,1,0,0:0:0:0:
383,192,115919,1,0,0:0:0:0:
298,192,116002,1,0,0:0:0:0:
42,192,116085,1,0,0:0:0:0:
128,192,116085,1,0,0:0:0:0:
469,192,116085,1,0,0:0:0:0:
