osu file format v14

[General]
AudioFilename: The Flash Bulb - Lawn Wake IV.mp3
AudioLeadIn: 0
PreviewTime: 66312
Countdown: 0
SampleSet: Normal
StackLeniency: 0.7
Mode: 1
LetterboxInBreaks: 0
WidescreenStoryboard: 1

[Editor]
Bookmarks: 5540,18259,41762,66312,108409
DistanceSpacing: 0.5
BeatDivisor: 4
GridSize: 32
TimelineZoom: 2.64

[Metadata]
Title:Lawn Wake IV (Black)
TitleUnicode:Lawn Wake IV (Black)
Artist:The Flashbulb
ArtistUnicode:The Flashbulb
Creator:_Gezo_
Version:Kantan
Source:
Tags:Lawn Funeral EP Benn Jordan
BeatmapID:762137
BeatmapSetID:341717

[Difficulty]
HPDrainRate:6
CircleSize:2
OverallDifficulty:4
ApproachRate:10
SliderMultiplier:1.4
SliderTickRate:1

[Events]
//Background and Video events
0,0,"LE DESSERT.jpg",0,0
//Break Periods
//Storyboard Layer 0 (Background)
//Storyboard Layer 1 (Fail)
//Storyboard Layer 2 (Pass)
//Storyboard Layer 3 (Foreground)
//Storyboard Sound Samples

[TimingPoints]
1117,276.497695852535,4,1,0,40,1,0
17568,-100,4,1,0,80,0,0
42037,250,4,1,0,80,1,0
42287,187.5,4,1,0,80,1,8
42474,166.666666666667,4,1,0,80,1,8
42974,150,4,1,0,80,1,8
43290,454.545454545455,4,1,0,80,1,8
43290,-60.8272506082725,4,1,0,80,0,8
44193,276.497695852535,4,1,0,80,1,0
66312,-100,4,1,0,80,0,1
83939,-100,4,1,0,60,0,1
86289,-100,4,1,0,80,0,1
119400,-100,4,1,0,80,0,0
127349,-25,4,1,0,5,0,0

[HitObjects]
256,192,1117,5,0,0:0:0:0:
256,192,1669,1,0,0:0:0:0:
256,192,2222,1,0,0:0:0:0:
256,192,2499,1,0,0:0:0:0:
256,192,2775,1,0,0:0:0:0:
256,192,3328,1,0,0:0:0:0:
256,192,4434,1,8,0:0:0:0:
256,192,5540,1,0,0:0:0:0:
256,192,6092,1,0,0:0:0:0:
256,192,6645,1,0,0:0:0:0:
256,192,6922,1,0,0:0:0:0:
256,192,7198,1,0,0:0:0:0:
256,192,7751,1,0,0:0:0:0:
256,192,8857,1,12,0:0:0:0:
256,192,9964,1,0,0:0:0:0:
256,192,10516,1,0,0:0:0:0:
256,192,11069,1,0,0:0:0:0:
256,192,11346,1,0,0:0:0:0:
256,192,11622,1,0,0:0:0:0:
256,192,12175,1,0,0:0:0:0:
256,192,13281,1,8,0:0:0:0:
256,192,14387,1,0,0:0:0:0:
256,192,14941,1,0,0:0:0:0:
256,192,15494,1,0,0:0:0:0:
256,192,15771,1,0,0:0:0:0:
256,192,16047,1,0,0:0:0:0:
256,192,16600,1,0,0:0:0:0:
256,192,17706,1,4,0:0:0:0:
256,192,18812,1,0,0:0:0:0:
256,192,19365,1,8,0:0:0:0:
256,192,19642,1,8,0:0:0:0:
256,192,19918,1,4,0:0:0:0:
256,192,20471,1,8,0:0:0:0:
256,192,20748,1,0,0:0:0:0:
256,192,21024,1,0,0:0:0:0:
256,192,21439,1,0,0:0:0:0:
256,192,22130,1,0,0:0:0:0:
256,192,22683,1,8,0:0:0:0:
256,192,22960,1,8,0:0:0:0:
256,192,23236,1,0,0:0:0:0:
256,192,24066,1,0,0:0:0:0:
256,192,24342,2,0,B|480:192|480:192|480:0,1,350
256,192,25448,1,0,0:0:0:0:
256,192,25725,1,0,0:0:0:0:
256,192,26001,1,8,0:0:0:0:
256,192,26554,1,4,0:0:0:0:
256,192,27107,1,8,0:0:0:0:
256,192,27384,1,8,0:0:0:0:
256,192,27660,1,0,0:0:0:0:
256,192,28766,1,0,0:0:0:0:
256,192,29043,1,0,0:0:0:0:
256,192,29319,1,8,0:0:0:0:
256,192,29596,1,8,0:0:0:0:
256,192,29872,1,4,0:0:0:0:
256,192,30425,1,4,0:0:0:0:
256,192,30978,1,0,0:0:0:0:
256,192,31255,1,0,0:0:0:0:
256,192,31531,1,8,0:0:0:0:
256,192,32084,1,4,0:0:0:0:
256,192,33190,1,0,0:0:0:0:
256,192,33743,1,8,0:0:0:0:
256,192,34296,1,0,0:0:0:0:
256,192,35402,1,8,0:0:0:0:
256,192,35679,1,8,0:0:0:0:
256,192,35955,1,8,0:0:0:0:
256,192,36508,1,4,0:0:0:0:
256,192,37061,1,8,0:0:0:0:
256,192,37614,1,4,0:0:0:0:
256,192,38305,1,8,0:0:0:0:
256,192,38720,1,0,0:0:0:0:
256,192,39273,1,4,0:0:0:0:
256,192,39826,1,12,0:0:0:0:
256,192,40379,1,4,0:0:0:0:
256,192,40932,1,4,0:0:0:0:
256,192,41762,1,4,0:0:0:0:
256,192,43290,1,4,0:0:0:0:
256,192,44193,1,0,0:0:0:0:
256,192,44607,1,0,0:0:0:0:
256,192,45298,1,8,0:0:0:0:
256,192,45575,1,8,0:0:0:0:
256,192,45851,1,0,0:0:0:0:
256,192,46404,1,8,0:0:0:0:
256,192,46819,1,8,0:0:0:0:
256,192,47510,1,8,0:0:0:0:
256,192,47787,1,8,0:0:0:0:
256,192,48063,1,8,0:0:0:0:
256,192,48616,1,0,0:0:0:0:
256,192,49722,1,0,0:0:0:0:
256,192,50275,1,0,0:0:0:0:
256,192,50552,1,4,0:0:0:0:
256,192,50828,1,0,0:0:0:0:
256,192,51658,1,0,0:0:0:0:
256,192,51934,1,8,0:0:0:0:
256,192,52211,1,8,0:0:0:0:
256,192,52487,1,8,0:0:0:0:
256,192,53040,1,8,0:0:0:0:
256,192,54146,1,0,0:0:0:0:
256,192,54423,1,0,0:0:0:0:
256,192,54699,1,0,0:0:0:0:
256,192,55252,1,0,0:0:0:0:
256,192,55805,1,8,0:0:0:0:
256,192,56358,1,8,0:0:0:0:
256,192,56911,1,8,0:0:0:0:
256,192,57188,1,8,0:0:0:0:
256,192,57464,1,0,0:0:0:0:
256,192,58571,1,8,0:0:0:0:
256,192,59676,1,8,0:0:0:0:
256,192,60229,1,8,0:0:0:0:
256,192,60782,1,8,0:0:0:0:
256,192,61059,1,8,0:0:0:0:
256,192,61335,1,8,0:0:0:0:
256,192,61888,1,0,0:0:0:0:
256,192,64100,1,0,0:0:0:0:
256,192,66312,1,4,0:0:0:0:
256,192,66865,1,8,0:0:0:0:
256,192,67142,1,8,0:0:0:0:
256,192,67418,1,0,0:0:0:0:
256,192,67695,1,0,0:0:0:0:
256,192,67971,1,8,0:0:0:0:
256,192,68524,1,0,0:0:0:0:
256,192,68801,1,0,0:0:0:0:
256,192,69077,1,8,0:0:0:0:
256,192,69630,1,0,0:0:0:0:
256,192,70183,1,8,0:0:0:0:
256,192,70736,1,4,0:0:0:0:
256,192,71289,1,8,0:0:0:0:
256,192,71566,1,8,0:0:0:0:
256,192,71842,1,0,0:0:0:0:
256,192,72119,1,0,0:0:0:0:
256,192,72395,1,8,0:0:0:0:
256,192,72948,1,0,0:0:0:0:
256,192,73225,1,0,0:0:0:0:
256,192,73501,1,8,0:0:0:0:
256,192,74054,1,0,0:0:0:0:
256,192,74607,1,8,0:0:0:0:
256,192,75160,1,0,0:0:0:0:
256,192,75437,1,0,0:0:0:0:
256,192,75713,1,8,0:0:0:0:
256,192,76266,1,8,0:0:0:0:
256,192,76819,1,8,0:0:0:0:
256,192,77096,1,8,0:0:0:0:
256,192,77372,1,0,0:0:0:0:
256,192,77648,1,0,0:0:0:0:
256,192,77925,1,8,0:0:0:0:
256,192,78478,1,0,0:0:0:0:
256,192,79031,1,8,0:0:0:0:
256,192,79584,1,8,0:0:0:0:
256,192,79861,1,0,0:0:0:0:
256,192,80690,1,8,0:0:0:0:
256,192,80967,1,8,0:0:0:0:
256,192,81243,1,8,0:0:0:0:
256,192,81796,1,0,0:0:0:0:
256,192,82349,1,8,0:0:0:0:
256,192,82626,1,8,0:0:0:0:
256,192,82902,1,0,0:0:0:0:
256,192,83455,1,8,0:0:0:0:
256,192,84008,1,4,0:0:0:0:
256,192,84561,1,12,0:0:0:0:
256,192,85114,1,4,0:0:0:0:
256,192,85667,1,12,0:0:0:0:
256,192,86220,1,4,0:0:0:0:
256,192,86773,1,8,0:0:0:0:
256,192,87050,1,8,0:0:0:0:
256,192,87326,1,0,0:0:0:0:
256,192,87603,1,0,0:0:0:0:
256,192,87879,1,8,0:0:0:0:
256,192,88432,1,4,0:0:0:0:
256,192,88709,1,4,0:0:0:0:
256,192,89538,1,4,0:0:0:0:
256,192,89815,1,4,0:0:0:0:
256,192,90644,1,4,0:0:0:0:
256,192,90921,1,4,0:0:0:0:
256,192,91750,1,0,0:0:0:0:
256,192,92027,1,0,0:0:0:0:
256,192,92303,1,8,0:0:0:0:
256,192,92856,1,0,0:0:0:0:
256,192,93409,1,0,0:0:0:0:
256,192,93686,1,8,0:0:0:0:
256,192,93962,1,0,0:0:0:0:
256,192,94515,1,8,0:0:0:0:
256,192,94792,1,8,0:0:0:0:
256,192,95068,1,0,0:0:0:0:
256,192,95621,1,8,0:0:0:0:
256,192,96174,1,0,0:0:0:0:
256,192,96451,1,0,0:0:0:0:
256,192,96727,1,0,0:0:0:0:
256,192,97280,1,4,0:0:0:0:
256,192,97833,1,8,0:0:0:0:
256,192,98110,1,8,0:0:0:0:
256,192,98386,1,0,0:0:0:0:
256,192,98939,1,8,0:0:0:0:
256,192,99492,1,0,0:0:0:0:
256,192,100045,1,8,0:0:0:0:
256,192,100322,1,8,0:0:0:0:
256,192,100598,1,0,0:0:0:0:
256,192,101151,1,8,0:0:0:0:
256,192,101704,1,0,0:0:0:0:
256,192,102810,1,0,0:0:0:0:
256,192,103916,1,0,0:0:0:0:
256,192,104469,1,0,0:0:0:0:
256,192,104745,1,8,0:0:0:0:
256,192,105022,1,0,0:0:0:0:
256,192,105575,1,8,0:0:0:0:
256,192,106128,1,0,0:0:0:0:
256,192,106404,1,8,0:0:0:0:
256,192,106681,1,0,0:0:0:0:
256,192,106957,1,8,0:0:0:0:
256,192,107234,1,0,0:0:0:0:
256,192,107787,1,0,0:0:0:0:
256,192,108340,1,0,0:0:0:0:
256,192,108755,1,0,0:0:0:0:
256,192,109446,1,0,0:0:0:0:
256,192,109861,1,0,0:0:0:0:
256,192,110552,1,0,0:0:0:0:
256,192,111381,1,8,0:0:0:0:
256,192,111658,1,0,0:0:0:0:
256,192,112211,1,8,0:0:0:0:
256,192,112487,1,8,0:0:0:0:
256,192,112764,1,0,0:0:0:0:
256,192,113317,1,0,0:0:0:0:
256,192,113870,1,8,0:0:0:0:
256,192,114146,1,8,0:0:0:0:
256,192,114423,1,8,0:0:0:0:
256,192,114976,1,8,0:0:0:0:
256,192,115529,1,0,0:0:0:0:
256,192,116082,1,0,0:0:0:0:
256,192,116635,1,0,0:0:0:0:
256,192,116911,1,0,0:0:0:0:
256,192,117188,1,0,0:0:0:0:
256,192,117741,1,0,0:0:0:0:
256,192,118294,1,8,0:0:0:0:
256,192,118570,1,8,0:0:0:0:
256,192,118847,1,0,0:0:0:0:
256,192,119400,1,8,0:0:0:0:
256,192,120229,1,8,0:0:0:0:
256,192,120506,1,8,0:0:0:0:
256,192,121335,1,8,0:0:0:0:
256,192,121612,1,8,0:0:0:0:
256,192,122165,1,0,0:0:0:0:
256,192,122718,1,0,0:0:0:0:
256,192,122994,1,0,0:0:0:0:
256,192,123271,1,0,0:0:0:0:
256,192,123824,1,0,0:0:0:0:
256,192,124377,1,8,0:0:0:0:
256,192,124930,1,0,0:0:0:0:
256,192,125206,1,0,0:0:0:0:
256,192,125483,1,8,0:0:0:0:
256,192,126036,1,4,0:0:0:0:
256,192,127142,1,4,0:0:0:0:
256,192,127418,8,0,140206,0:0:0:0:
