osu file format v14

[General]
AudioFilename: The Flash Bulb - Lawn Wake IV.mp3
AudioLeadIn: 0
PreviewTime: 66312
Countdown: 0
SampleSet: Normal
StackLeniency: 0.7
Mode: 1
LetterboxInBreaks: 0
WidescreenStoryboard: 0

[Editor]
Bookmarks: 5540,18259,41762,66312
DistanceSpacing: 0.5
BeatDivisor: 4
GridSize: 32
TimelineZoom: 3.539999

[Metadata]
Title:Lawn Wake IV (Black)
TitleUnicode:Lawn Wake IV (Black)
Artist:The Flashbulb
ArtistUnicode:The Flashbulb
Creator:_Gezo_
Version:Hell Oni
Source:
Tags:Lawn Funeral EP Benn Jordan
BeatmapID:756202
BeatmapSetID:341717

[Difficulty]
HPDrainRate:6
CircleSize:2
OverallDifficulty:7
ApproachRate:10
SliderMultiplier:1.4
SliderTickRate:1

[Events]
//Background and Video events
0,0,"LE DESSERT.jpg",0,0
//Break Periods
//Storyboard Layer 0 (Background)
//Storyboard Layer 1 (Fail)
//Storyboard Layer 2 (Pass)
//Storyboard Layer 3 (Foreground)
//Storyboard Sound Samples

[TimingPoints]
1117,276.497695852535,4,1,0,40,1,0
17568,-100,4,1,0,80,0,0
42037,250,4,1,0,80,1,0
42162,-96.1538461538461,4,1,0,80,0,0
42287,187.5,4,1,0,80,1,8
42287,-123.076923076923,4,1,0,80,0,8
42380,-118.518518518519,4,1,0,80,0,8
42474,166.666666666667,4,1,0,80,1,8
42474,-128.700128700129,4,1,0,80,0,8
42557,-124.146492861577,4,1,0,80,0,8
42640,-120.00048000192,4,1,0,80,0,8
42974,150,4,1,0,80,1,8
42974,-133.333333333333,4,1,0,80,0,8
43290,454.545454545455,4,1,0,80,1,8
43290,-44.000000000528,4,1,0,80,0,8
44193,276.497695852535,4,1,0,80,1,0
66312,-100,4,1,0,80,0,1
83939,-100,4,1,0,60,0,1
86289,-100,4,1,0,80,0,1
119400,-100,4,1,0,80,0,0
127349,-25,4,1,0,5,0,0

[HitObjects]
256,192,1117,5,0,0:0:0:0:
256,192,1393,1,0,0:0:0:0:
256,192,1669,1,0,0:0:0:0:
256,192,1946,1,0,0:0:0:0:
256,192,2084,1,0,0:0:0:0:
256,192,2153,1,0,0:0:0:0:
256,192,2222,1,0,0:0:0:0:
256,192,2499,1,0,0:0:0:0:
256,192,2775,1,0,0:0:0:0:
256,192,2914,1,0,0:0:0:0:
256,192,3052,1,0,0:0:0:0:
256,192,3259,1,0,0:0:0:0:
256,192,3328,1,0,0:0:0:0:
256,192,3605,1,0,0:0:0:0:
256,192,3881,1,0,0:0:0:0:
256,192,4158,1,0,0:0:0:0:
256,192,4434,1,8,0:0:0:0:
256,192,5540,1,0,0:0:0:0:
256,192,5816,1,0,0:0:0:0:
256,192,6092,1,0,0:0:0:0:
256,192,6369,1,0,0:0:0:0:
256,192,6507,1,0,0:0:0:0:
256,192,6576,1,0,0:0:0:0:
256,192,6645,1,0,0:0:0:0:
256,192,6922,1,0,0:0:0:0:
256,192,7198,1,0,0:0:0:0:
256,192,7337,1,0,0:0:0:0:
256,192,7475,1,0,0:0:0:0:
256,192,7683,1,0,0:0:0:0:
256,192,7751,1,0,0:0:0:0:
256,192,8028,1,0,0:0:0:0:
256,192,8304,1,0,0:0:0:0:
256,192,8581,1,0,0:0:0:0:
256,192,8857,1,12,0:0:0:0:
256,192,9964,1,0,0:0:0:0:
256,192,10240,1,0,0:0:0:0:
256,192,10516,1,0,0:0:0:0:
256,192,10793,1,0,0:0:0:0:
256,192,10931,1,0,0:0:0:0:
256,192,11000,1,0,0:0:0:0:
256,192,11069,1,0,0:0:0:0:
256,192,11346,1,0,0:0:0:0:
256,192,11622,1,0,0:0:0:0:
256,192,11761,1,0,0:0:0:0:
256,192,11899,1,0,0:0:0:0:
256,192,12107,1,0,0:0:0:0:
256,192,12175,1,0,0:0:0:0:
256,192,12452,1,0,0:0:0:0:
256,192,12728,1,0,0:0:0:0:
256,192,13005,1,0,0:0:0:0:
256,192,13281,1,8,0:0:0:0:
256,192,14387,1,0,0:0:0:0:
256,192,14665,1,0,0:0:0:0:
256,192,14941,1,0,0:0:0:0:
256,192,15218,1,0,0:0:0:0:
256,192,15356,1,0,0:0:0:0:
256,192,15425,1,0,0:0:0:0:
256,192,15494,1,0,0:0:0:0:
256,192,15771,1,0,0:0:0:0:
256,192,16047,1,0,0:0:0:0:
256,192,16186,1,0,0:0:0:0:
256,192,16324,1,0,0:0:0:0:
256,192,16531,1,0,0:0:0:0:
256,192,16600,1,0,0:0:0:0:
256,192,16877,1,0,0:0:0:0:
256,192,17153,1,0,0:0:0:0:
256,192,17706,1,4,0:0:0:0:
256,192,18398,1,4,0:0:0:0:
256,192,18536,1,12,0:0:0:0:
256,192,18812,1,0,0:0:0:0:
256,192,18881,1,0,0:0:0:0:
256,192,18951,1,0,0:0:0:0:
256,192,19020,1,0,0:0:0:0:
256,192,19089,1,8,0:0:0:0:
256,192,19227,1,8,0:0:0:0:
256,192,19296,1,0,0:0:0:0:
256,192,19365,1,8,0:0:0:0:
256,192,19434,1,8,0:0:0:0:
256,192,19504,1,0,0:0:0:0:
256,192,19573,1,0,0:0:0:0:
256,192,19642,1,8,0:0:0:0:
256,192,19780,1,8,0:0:0:0:
256,192,19918,1,4,0:0:0:0:
256,192,20195,1,8,0:0:0:0:
256,192,20264,1,8,0:0:0:0:
256,192,20333,1,8,0:0:0:0:
256,192,20402,1,8,0:0:0:0:
256,192,20471,1,0,0:0:0:0:
256,192,20610,1,0,0:0:0:0:
256,192,20748,1,8,0:0:0:0:
256,192,20817,1,8,0:0:0:0:
256,192,20886,1,8,0:0:0:0:
256,192,20955,1,8,0:0:0:0:
256,192,21024,1,0,0:0:0:0:
256,192,21232,1,0,0:0:0:0:
256,192,21439,1,0,0:0:0:0:
256,192,21577,1,8,0:0:0:0:
256,192,21646,1,0,0:0:0:0:
256,192,21716,1,0,0:0:0:0:
256,192,21785,1,8,0:0:0:0:
256,192,21854,1,0,0:0:0:0:
256,192,21923,1,8,0:0:0:0:
256,192,21992,1,8,0:0:0:0:
256,192,22061,1,8,0:0:0:0:
256,192,22130,1,0,0:0:0:0:
256,192,22269,1,8,0:0:0:0:
256,192,22407,1,8,0:0:0:0:
256,192,22476,1,8,0:0:0:0:
256,192,22545,1,0,0:0:0:0:
256,192,22614,1,0,0:0:0:0:
256,192,22683,1,8,0:0:0:0:
256,192,22752,1,8,0:0:0:0:
256,192,22822,1,0,0:0:0:0:
256,192,22960,1,0,0:0:0:0:
256,192,23029,1,0,0:0:0:0:
256,192,23098,1,8,0:0:0:0:
256,192,23236,1,0,0:0:0:0:
256,192,23305,1,0,0:0:0:0:
256,192,23375,1,0,0:0:0:0:
256,192,23444,1,8,0:0:0:0:
256,192,23513,1,8,0:0:0:0:
256,192,23582,1,8,0:0:0:0:
256,192,23651,1,0,0:0:0:0:
256,192,23858,1,8,0:0:0:0:
256,192,24066,1,8,0:0:0:0:
256,192,24135,1,8,0:0:0:0:
256,192,24204,1,0,0:0:0:0:
256,192,24342,1,0,0:0:0:0:
256,192,24411,1,0,0:0:0:0:
256,192,24481,1,0,0:0:0:0:
256,192,24550,1,8,0:0:0:0:
256,192,24688,1,0,0:0:0:0:
256,192,24757,1,0,0:0:0:0:
256,192,24826,1,0,0:0:0:0:
256,192,24895,1,8,0:0:0:0:
256,192,25034,1,4,0:0:0:0:
256,192,25448,1,0,0:0:0:0:
256,192,25587,1,8,0:0:0:0:
256,192,25725,1,8,0:0:0:0:
256,192,25863,1,0,0:0:0:0:
256,192,26001,1,8,0:0:0:0:
256,192,26140,1,0,0:0:0:0:
256,192,26209,1,0,0:0:0:0:
256,192,26278,1,8,0:0:0:0:
256,192,26416,1,8,0:0:0:0:
256,192,26554,1,4,0:0:0:0:
256,192,26831,1,8,0:0:0:0:
256,192,26900,1,8,0:0:0:0:
256,192,26969,1,0,0:0:0:0:
256,192,27038,1,8,0:0:0:0:
256,192,27107,1,0,0:0:0:0:
256,192,27176,1,8,0:0:0:0:
256,192,27246,1,8,0:0:0:0:
256,192,27315,1,0,0:0:0:0:
256,192,27384,1,8,0:0:0:0:
256,192,27522,1,0,0:0:0:0:
256,192,27660,1,12,0:0:0:0:
256,192,27799,1,12,0:0:0:0:
256,192,27937,1,0,0:0:0:0:
256,192,28144,1,0,0:0:0:0:
256,192,28213,1,0,0:0:0:0:
256,192,28282,1,0,0:0:0:0:
256,192,28352,1,8,0:0:0:0:
256,192,28490,1,0,0:0:0:0:
256,192,28559,1,8,0:0:0:0:
256,192,28766,1,0,0:0:0:0:
256,192,28835,1,0,0:0:0:0:
256,192,28905,1,0,0:0:0:0:
256,192,29043,1,8,0:0:0:0:
256,192,29181,1,8,0:0:0:0:
256,192,29250,1,8,0:0:0:0:
256,192,29319,1,0,0:0:0:0:
256,192,29388,1,8,0:0:0:0:
256,192,29458,1,0,0:0:0:0:
256,192,29527,1,0,0:0:0:0:
256,192,29596,1,8,0:0:0:0:
256,192,29665,1,0,0:0:0:0:
256,192,29734,1,8,0:0:0:0:
256,192,29872,1,4,0:0:0:0:
256,192,30011,1,0,0:0:0:0:
256,192,30080,1,8,0:0:0:0:
256,192,30149,1,0,0:0:0:0:
256,192,30425,1,4,0:0:0:0:
256,192,30564,1,8,0:0:0:0:
256,192,30633,1,0,0:0:0:0:
256,192,30702,1,8,0:0:0:0:
256,192,30978,1,0,0:0:0:0:
256,192,31117,1,0,0:0:0:0:
256,192,31255,1,8,0:0:0:0:
256,192,31324,1,8,0:0:0:0:
256,192,31393,1,0,0:0:0:0:
256,192,31462,1,8,0:0:0:0:
256,192,31531,1,0,0:0:0:0:
256,192,31600,1,8,0:0:0:0:
256,192,31669,1,0,0:0:0:0:
256,192,31739,1,0,0:0:0:0:
256,192,31808,1,8,0:0:0:0:
256,192,31946,1,0,0:0:0:0:
256,192,32084,1,4,0:0:0:0:
256,192,32637,1,12,0:0:0:0:
256,192,33190,1,0,0:0:0:0:
256,192,33328,1,8,0:0:0:0:
256,192,33398,1,8,0:0:0:0:
256,192,33467,1,0,0:0:0:0:
256,192,33605,1,8,0:0:0:0:
256,192,33674,1,8,0:0:0:0:
256,192,33743,1,0,0:0:0:0:
256,192,33881,1,8,0:0:0:0:
256,192,33951,1,8,0:0:0:0:
256,192,34020,1,0,0:0:0:0:
256,192,34158,1,0,0:0:0:0:
256,192,34227,1,0,0:0:0:0:
256,192,34296,1,8,0:0:0:0:
256,192,34434,1,8,0:0:0:0:
256,192,34504,1,0,0:0:0:0:
256,192,34642,1,8,0:0:0:0:
256,192,34849,1,4,0:0:0:0:
256,192,35402,1,8,0:0:0:0:
256,192,35540,1,0,0:0:0:0:
256,192,35610,1,0,0:0:0:0:
256,192,35679,1,8,0:0:0:0:
256,192,35817,1,0,0:0:0:0:
256,192,35886,1,0,0:0:0:0:
256,192,35955,1,8,0:0:0:0:
256,192,36024,1,0,0:0:0:0:
256,192,36093,1,8,0:0:0:0:
256,192,36163,1,0,0:0:0:0:
256,192,36232,1,8,0:0:0:0:
256,192,36301,1,8,0:0:0:0:
256,192,36370,1,0,0:0:0:0:
256,192,36508,1,4,0:0:0:0:
256,192,36785,1,4,0:0:0:0:
256,192,36923,1,8,0:0:0:0:
256,192,37061,1,8,0:0:0:0:
256,192,37130,1,0,0:0:0:0:
256,192,37199,1,8,0:0:0:0:
256,192,37269,1,8,0:0:0:0:
256,192,37338,1,0,0:0:0:0:
256,192,37407,1,0,0:0:0:0:
256,192,37476,1,8,0:0:0:0:
256,192,37614,1,4,0:0:0:0:
256,192,38305,1,8,0:0:0:0:
256,192,38375,1,8,0:0:0:0:
256,192,38444,1,8,0:0:0:0:
256,192,38513,1,8,0:0:0:0:
256,192,38582,1,8,0:0:0:0:
256,192,38651,1,8,0:0:0:0:
256,192,38720,1,0,0:0:0:0:
256,192,39273,1,4,0:0:0:0:
256,192,39826,1,12,0:0:0:0:
256,192,40379,1,4,0:0:0:0:
256,192,40932,1,4,0:0:0:0:
256,192,41140,1,4,0:0:0:0:
256,192,41347,1,4,0:0:0:0:
256,192,41554,1,4,0:0:0:0:
256,192,41762,1,4,0:0:0:0:
256,192,42037,1,0,0:0:0:0:
256,192,42287,1,0,0:0:0:0:
256,192,42474,1,0,0:0:0:0:
256,192,42640,1,0,0:0:0:0:
256,192,42807,1,0,0:0:0:0:
256,192,42974,1,0,0:0:0:0:
256,192,43124,1,0,0:0:0:0:
256,192,43199,1,0,0:0:0:0:
256,192,43290,1,0,0:0:0:0:
256,192,44193,1,8,0:0:0:0:
256,192,44331,1,0,0:0:0:0:
256,192,44400,1,0,0:0:0:0:
256,192,44469,1,0,0:0:0:0:
256,192,44538,1,0,0:0:0:0:
256,192,44607,1,8,0:0:0:0:
256,192,44884,1,4,0:0:0:0:
256,192,45022,1,4,0:0:0:0:
256,192,45298,1,8,0:0:0:0:
256,192,45437,1,0,0:0:0:0:
256,192,45575,1,8,0:0:0:0:
256,192,45713,1,8,0:0:0:0:
256,192,45782,1,8,0:0:0:0:
256,192,45851,1,0,0:0:0:0:
256,192,45921,1,0,0:0:0:0:
256,192,45990,1,0,0:0:0:0:
256,192,46059,1,0,0:0:0:0:
256,192,46128,1,8,0:0:0:0:
256,192,46404,1,8,0:0:0:0:
256,192,46543,1,8,0:0:0:0:
256,192,46612,1,8,0:0:0:0:
256,192,46681,1,8,0:0:0:0:
256,192,46750,1,8,0:0:0:0:
256,192,46819,1,0,0:0:0:0:
256,192,47096,1,4,0:0:0:0:
256,192,47234,1,4,0:0:0:0:
256,192,47510,1,8,0:0:0:0:
256,192,47649,1,0,0:0:0:0:
256,192,47787,1,8,0:0:0:0:
256,192,47856,1,8,0:0:0:0:
256,192,47925,1,0,0:0:0:0:
256,192,47994,1,0,0:0:0:0:
256,192,48063,1,8,0:0:0:0:
256,192,48202,1,0,0:0:0:0:
256,192,48340,1,8,0:0:0:0:
256,192,48616,1,0,0:0:0:0:
256,192,48755,1,0,0:0:0:0:
256,192,48824,1,0,0:0:0:0:
256,192,48893,1,0,0:0:0:0:
256,192,48962,1,0,0:0:0:0:
256,192,49031,1,8,0:0:0:0:
256,192,49169,1,0,0:0:0:0:
256,192,49308,1,0,0:0:0:0:
256,192,49446,1,0,0:0:0:0:
256,192,49515,1,0,0:0:0:0:
256,192,49584,1,0,0:0:0:0:
256,192,49722,1,8,0:0:0:0:
256,192,49861,1,0,0:0:0:0:
256,192,49999,1,0,0:0:0:0:
256,192,50137,1,0,0:0:0:0:
256,192,50275,1,0,0:0:0:0:
256,192,50414,1,0,0:0:0:0:
256,192,50552,1,12,0:0:0:0:
256,192,50828,1,8,0:0:0:0:
256,192,50967,1,8,0:0:0:0:
256,192,51036,1,8,0:0:0:0:
256,192,51105,1,0,0:0:0:0:
256,192,51174,1,8,0:0:0:0:
256,192,51243,1,0,0:0:0:0:
256,192,51520,1,0,0:0:0:0:
256,192,51658,1,0,0:0:0:0:
256,192,51727,1,0,0:0:0:0:
256,192,51796,1,0,0:0:0:0:
256,192,51934,1,8,0:0:0:0:
256,192,52004,1,8,0:0:0:0:
256,192,52073,1,0,0:0:0:0:
256,192,52142,1,0,0:0:0:0:
256,192,52211,1,8,0:0:0:0:
256,192,52280,1,0,0:0:0:0:
256,192,52349,1,0,0:0:0:0:
256,192,52418,1,0,0:0:0:0:
256,192,52487,1,8,0:0:0:0:
256,192,52557,1,0,0:0:0:0:
256,192,52626,1,0,0:0:0:0:
256,192,52695,1,0,0:0:0:0:
256,192,52764,1,8,0:0:0:0:
256,192,52833,1,0,0:0:0:0:
256,192,52902,1,0,0:0:0:0:
256,192,52971,1,0,0:0:0:0:
256,192,53040,1,8,0:0:0:0:
256,192,53179,1,0,0:0:0:0:
256,192,53248,1,8,0:0:0:0:
256,192,53317,1,0,0:0:0:0:
256,192,53386,1,0,0:0:0:0:
256,192,53455,1,8,0:0:0:0:
256,192,53593,1,8,0:0:0:0:
256,192,53732,1,8,0:0:0:0:
256,192,53801,1,8,0:0:0:0:
256,192,53870,1,8,0:0:0:0:
256,192,53939,1,8,0:0:0:0:
256,192,54008,1,0,0:0:0:0:
256,192,54146,1,0,0:0:0:0:
256,192,54285,1,0,0:0:0:0:
256,192,54354,1,0,0:0:0:0:
256,192,54423,1,0,0:0:0:0:
256,192,54561,1,0,0:0:0:0:
256,192,54630,1,0,0:0:0:0:
256,192,54699,1,0,0:0:0:0:
256,192,54838,1,0,0:0:0:0:
256,192,54907,1,0,0:0:0:0:
256,192,54976,1,0,0:0:0:0:
256,192,55114,1,0,0:0:0:0:
256,192,55183,1,0,0:0:0:0:
256,192,55252,1,0,0:0:0:0:
256,192,55322,1,8,0:0:0:0:
256,192,55805,1,8,0:0:0:0:
256,192,55944,1,8,0:0:0:0:
256,192,56013,1,8,0:0:0:0:
256,192,56082,1,0,0:0:0:0:
256,192,56220,1,8,0:0:0:0:
256,192,56289,1,8,0:0:0:0:
256,192,56358,1,0,0:0:0:0:
256,192,56497,1,8,0:0:0:0:
256,192,56566,1,0,0:0:0:0:
256,192,56704,1,8,0:0:0:0:
256,192,56773,1,0,0:0:0:0:
256,192,56911,1,8,0:0:0:0:
256,192,56981,1,0,0:0:0:0:
256,192,57119,1,8,0:0:0:0:
256,192,57188,1,0,0:0:0:0:
256,192,57326,1,8,0:0:0:0:
256,192,57395,1,0,0:0:0:0:
256,192,57464,1,0,0:0:0:0:
256,192,58018,1,0,0:0:0:0:
256,192,58571,1,8,0:0:0:0:
256,192,59124,1,0,0:0:0:0:
256,192,59676,1,8,0:0:0:0:
256,192,59884,1,0,0:0:0:0:
256,192,59953,1,8,0:0:0:0:
256,192,60022,1,0,0:0:0:0:
256,192,60091,1,0,0:0:0:0:
256,192,60160,1,0,0:0:0:0:
256,192,60229,1,8,0:0:0:0:
256,192,60368,1,0,0:0:0:0:
256,192,60437,1,0,0:0:0:0:
256,192,60506,1,8,0:0:0:0:
256,192,60575,1,8,0:0:0:0:
256,192,60644,1,0,0:0:0:0:
256,192,60713,1,0,0:0:0:0:
256,192,60782,1,8,0:0:0:0:
256,192,60851,1,8,0:0:0:0:
256,192,60921,1,0,0:0:0:0:
256,192,61059,1,8,0:0:0:0:
256,192,61128,1,8,0:0:0:0:
256,192,61197,1,0,0:0:0:0:
256,192,61266,1,0,0:0:0:0:
256,192,61335,1,8,0:0:0:0:
256,192,61404,1,0,0:0:0:0:
256,192,61474,1,0,0:0:0:0:
256,192,61612,1,8,0:0:0:0:
256,192,61681,1,8,0:0:0:0:
256,192,61750,1,8,0:0:0:0:
256,192,61819,1,8,0:0:0:0:
256,192,61888,1,0,0:0:0:0:
256,192,64100,1,4,0:0:0:0:
256,192,66036,1,8,0:0:0:0:
256,192,66105,1,8,0:0:0:0:
256,192,66174,1,8,0:0:0:0:
256,192,66243,1,8,0:0:0:0:
256,192,66312,1,0,0:0:0:0:
256,192,66451,1,0,0:0:0:0:
256,192,66520,1,0,0:0:0:0:
256,192,66589,1,8,0:0:0:0:
256,192,66727,1,0,0:0:0:0:
256,192,66796,1,8,0:0:0:0:
256,192,66865,1,8,0:0:0:0:
256,192,66934,1,0,0:0:0:0:
256,192,67004,1,0,0:0:0:0:
256,192,67073,1,0,0:0:0:0:
256,192,67142,1,8,0:0:0:0:
256,192,67280,1,8,0:0:0:0:
256,192,67418,1,0,0:0:0:0:
256,192,67487,1,0,0:0:0:0:
256,192,67557,1,0,0:0:0:0:
256,192,67695,1,8,0:0:0:0:
256,192,67833,1,0,0:0:0:0:
256,192,67902,1,0,0:0:0:0:
256,192,67971,1,8,0:0:0:0:
256,192,68040,1,8,0:0:0:0:
256,192,68110,1,0,0:0:0:0:
256,192,68248,1,8,0:0:0:0:
256,192,68386,1,8,0:0:0:0:
256,192,68524,1,4,0:0:0:0:
256,192,68663,1,0,0:0:0:0:
256,192,68732,1,0,0:0:0:0:
256,192,68801,1,8,0:0:0:0:
256,192,68870,1,8,0:0:0:0:
256,192,68939,1,0,0:0:0:0:
256,192,69077,1,8,0:0:0:0:
256,192,69146,1,0,0:0:0:0:
256,192,69216,1,8,0:0:0:0:
256,192,69285,1,8,0:0:0:0:
256,192,69354,1,0,0:0:0:0:
256,192,69492,1,8,0:0:0:0:
256,192,69630,1,0,0:0:0:0:
256,192,69769,1,0,0:0:0:0:
256,192,69838,1,0,0:0:0:0:
256,192,69907,1,8,0:0:0:0:
256,192,69976,1,8,0:0:0:0:
256,192,70045,1,0,0:0:0:0:
256,192,70183,1,0,0:0:0:0:
256,192,70252,1,8,0:0:0:0:
256,192,70322,1,0,0:0:0:0:
256,192,70391,1,0,0:0:0:0:
256,192,70460,1,8,0:0:0:0:
256,192,70529,1,8,0:0:0:0:
256,192,70598,1,8,0:0:0:0:
256,192,70736,1,4,0:0:0:0:
256,192,70875,1,0,0:0:0:0:
256,192,70944,1,0,0:0:0:0:
256,192,71013,1,8,0:0:0:0:
256,192,71151,1,0,0:0:0:0:
256,192,71220,1,8,0:0:0:0:
256,192,71289,1,8,0:0:0:0:
256,192,71358,1,0,0:0:0:0:
256,192,71428,1,0,0:0:0:0:
256,192,71497,1,0,0:0:0:0:
256,192,71566,1,8,0:0:0:0:
256,192,71704,1,8,0:0:0:0:
256,192,71842,1,0,0:0:0:0:
256,192,71911,1,0,0:0:0:0:
256,192,71981,1,0,0:0:0:0:
256,192,72119,1,8,0:0:0:0:
256,192,72257,1,0,0:0:0:0:
256,192,72326,1,0,0:0:0:0:
256,192,72395,1,8,0:0:0:0:
256,192,72464,1,8,0:0:0:0:
256,192,72534,1,0,0:0:0:0:
256,192,72672,1,8,0:0:0:0:
256,192,72810,1,8,0:0:0:0:
256,192,72948,1,4,0:0:0:0:
256,192,73087,1,0,0:0:0:0:
256,192,73156,1,0,0:0:0:0:
256,192,73225,1,8,0:0:0:0:
256,192,73294,1,8,0:0:0:0:
256,192,73363,1,0,0:0:0:0:
256,192,73501,1,8,0:0:0:0:
256,192,73570,1,0,0:0:0:0:
256,192,73640,1,8,0:0:0:0:
256,192,73709,1,8,0:0:0:0:
256,192,73778,1,0,0:0:0:0:
256,192,73916,1,8,0:0:0:0:
256,192,74054,1,0,0:0:0:0:
256,192,74193,1,0,0:0:0:0:
256,192,74262,1,0,0:0:0:0:
256,192,74331,1,8,0:0:0:0:
256,192,74400,1,8,0:0:0:0:
256,192,74469,1,0,0:0:0:0:
256,192,74607,1,0,0:0:0:0:
256,192,74676,1,8,0:0:0:0:
256,192,74746,1,0,0:0:0:0:
256,192,74815,1,0,0:0:0:0:
256,192,74884,1,8,0:0:0:0:
256,192,74953,1,8,0:0:0:0:
256,192,75022,1,8,0:0:0:0:
256,192,75160,1,4,0:0:0:0:
256,192,75298,1,0,0:0:0:0:
256,192,75368,1,0,0:0:0:0:
256,192,75437,1,8,0:0:0:0:
256,192,75575,1,0,0:0:0:0:
256,192,75713,1,8,0:0:0:0:
256,192,75851,1,0,0:0:0:0:
256,192,75990,1,8,0:0:0:0:
256,192,76059,1,8,0:0:0:0:
256,192,76128,1,8,0:0:0:0:
256,192,76197,1,8,0:0:0:0:
256,192,76266,1,0,0:0:0:0:
256,192,76404,1,0,0:0:0:0:
256,192,76474,1,0,0:0:0:0:
256,192,76543,1,8,0:0:0:0:
256,192,76681,1,0,0:0:0:0:
256,192,76750,1,0,0:0:0:0:
256,192,76819,1,8,0:0:0:0:
256,192,76957,1,0,0:0:0:0:
256,192,77096,1,8,0:0:0:0:
256,192,77372,1,0,0:0:0:0:
256,192,77441,1,8,0:0:0:0:
256,192,77510,1,0,0:0:0:0:
256,192,77580,1,0,0:0:0:0:
256,192,77649,1,8,0:0:0:0:
256,192,77718,1,8,0:0:0:0:
256,192,77787,1,8,0:0:0:0:
256,192,77856,1,8,0:0:0:0:
256,192,77925,1,0,0:0:0:0:
256,192,77994,1,0,0:0:0:0:
256,192,78063,1,0,0:0:0:0:
256,192,78202,1,8,0:0:0:0:
256,192,78271,1,8,0:0:0:0:
256,192,78340,1,0,0:0:0:0:
256,192,78409,1,0,0:0:0:0:
256,192,78478,1,8,0:0:0:0:
256,192,78616,1,0,0:0:0:0:
256,192,78686,1,0,0:0:0:0:
256,192,78755,1,8,0:0:0:0:
256,192,78893,1,0,0:0:0:0:
256,192,78962,1,0,0:0:0:0:
256,192,79031,1,8,0:0:0:0:
256,192,79100,1,0,0:0:0:0:
256,192,79169,1,0,0:0:0:0:
256,192,79239,1,0,0:0:0:0:
256,192,79308,1,8,0:0:0:0:
256,192,79446,1,8,0:0:0:0:
256,192,79584,1,8,0:0:0:0:
256,192,79653,1,8,0:0:0:0:
256,192,79722,1,0,0:0:0:0:
256,192,79861,1,4,0:0:0:0:
256,192,80137,1,0,0:0:0:0:
256,192,80206,1,8,0:0:0:0:
256,192,80275,1,0,0:0:0:0:
256,192,80345,1,0,0:0:0:0:
256,192,80414,1,8,0:0:0:0:
256,192,80483,1,8,0:0:0:0:
256,192,80552,1,0,0:0:0:0:
256,192,80690,1,8,0:0:0:0:
256,192,80828,1,0,0:0:0:0:
256,192,80898,1,0,0:0:0:0:
256,192,80967,1,8,0:0:0:0:
256,192,81105,1,8,0:0:0:0:
256,192,81243,1,8,0:0:0:0:
256,192,81312,1,8,0:0:0:0:
256,192,81381,1,0,0:0:0:0:
256,192,81451,1,0,0:0:0:0:
256,192,81520,1,8,0:0:0:0:
256,192,81658,1,0,0:0:0:0:
256,192,81796,1,0,0:0:0:0:
256,192,81934,1,8,0:0:0:0:
256,192,82073,1,0,0:0:0:0:
256,192,82142,1,8,0:0:0:0:
256,192,82280,1,0,0:0:0:0:
256,192,82349,1,8,0:0:0:0:
256,192,82487,1,8,0:0:0:0:
256,192,82626,1,8,0:0:0:0:
256,192,82695,1,8,0:0:0:0:
256,192,82764,1,8,0:0:0:0:
256,192,82902,1,0,0:0:0:0:
256,192,83040,1,8,0:0:0:0:
256,192,83110,1,8,0:0:0:0:
256,192,83179,1,0,0:0:0:0:
256,192,83317,1,0,0:0:0:0:
256,192,83455,1,8,0:0:0:0:
256,192,83524,1,8,0:0:0:0:
256,192,83593,1,0,0:0:0:0:
256,192,83732,1,8,0:0:0:0:
256,192,83870,1,8,0:0:0:0:
256,192,84008,1,4,0:0:0:0:
256,192,84285,1,4,0:0:0:0:
256,192,84561,1,12,0:0:0:0:
256,192,84838,1,4,0:0:0:0:
256,192,84976,1,4,0:0:0:0:
256,192,85252,1,12,0:0:0:0:
256,192,85391,1,4,0:0:0:0:
256,192,85529,1,4,0:0:0:0:
256,192,85667,1,12,0:0:0:0:
256,192,85944,1,4,0:0:0:0:
256,192,86220,1,4,0:0:0:0:
256,192,86497,1,0,0:0:0:0:
256,192,86566,1,0,0:0:0:0:
256,192,86635,1,8,0:0:0:0:
256,192,86704,1,8,0:0:0:0:
256,192,86773,1,0,0:0:0:0:
256,192,86842,1,0,0:0:0:0:
256,192,86911,1,8,0:0:0:0:
256,192,86981,1,8,0:0:0:0:
256,192,87050,1,0,0:0:0:0:
256,192,87188,1,8,0:0:0:0:
256,192,87257,1,0,0:0:0:0:
256,192,87326,1,0,0:0:0:0:
256,192,87395,1,0,0:0:0:0:
256,192,87464,1,8,0:0:0:0:
256,192,87534,1,8,0:0:0:0:
256,192,87603,1,0,0:0:0:0:
256,192,87672,1,0,0:0:0:0:
256,192,87741,1,8,0:0:0:0:
256,192,87879,1,8,0:0:0:0:
256,192,88156,1,0,0:0:0:0:
256,192,88294,1,8,0:0:0:0:
256,192,88432,1,4,0:0:0:0:
256,192,88709,1,4,0:0:0:0:
256,192,88985,1,0,0:0:0:0:
256,192,89054,1,8,0:0:0:0:
256,192,89123,1,0,0:0:0:0:
256,192,89193,1,0,0:0:0:0:
256,192,89262,1,8,0:0:0:0:
256,192,89331,1,8,0:0:0:0:
256,192,89400,1,8,0:0:0:0:
256,192,89538,1,4,0:0:0:0:
256,192,89815,1,4,0:0:0:0:
256,192,90091,1,0,0:0:0:0:
256,192,90160,1,8,0:0:0:0:
256,192,90229,1,0,0:0:0:0:
256,192,90298,1,0,0:0:0:0:
256,192,90368,1,8,0:0:0:0:
256,192,90437,1,8,0:0:0:0:
256,192,90506,1,0,0:0:0:0:
256,192,90575,1,0,0:0:0:0:
256,192,90644,1,0,0:0:0:0:
256,192,90782,1,8,0:0:0:0:
256,192,90921,1,8,0:0:0:0:
256,192,91059,1,0,0:0:0:0:
256,192,91128,1,0,0:0:0:0:
256,192,91197,1,8,0:0:0:0:
256,192,91335,1,8,0:0:0:0:
256,192,91404,1,8,0:0:0:0:
256,192,91474,1,0,0:0:0:0:
256,192,91543,1,0,0:0:0:0:
256,192,91612,1,8,0:0:0:0:
256,192,91681,1,8,0:0:0:0:
256,192,91750,1,0,0:0:0:0:
256,192,91819,1,0,0:0:0:0:
256,192,91888,1,8,0:0:0:0:
256,192,91957,1,0,0:0:0:0:
256,192,92027,1,0,0:0:0:0:
256,192,92096,1,0,0:0:0:0:
256,192,92165,1,8,0:0:0:0:
256,192,92234,1,8,0:0:0:0:
256,192,92303,1,0,0:0:0:0:
256,192,92372,1,0,0:0:0:0:
256,192,92441,1,0,0:0:0:0:
256,192,92510,1,0,0:0:0:0:
256,192,92580,1,8,0:0:0:0:
256,192,92718,1,0,0:0:0:0:
256,192,92787,1,8,0:0:0:0:
256,192,92856,1,0,0:0:0:0:
256,192,93133,1,8,0:0:0:0:
256,192,93202,1,8,0:0:0:0:
256,192,93271,1,0,0:0:0:0:
256,192,93340,1,0,0:0:0:0:
256,192,93409,1,8,0:0:0:0:
256,192,93478,1,0,0:0:0:0:
256,192,93547,1,0,0:0:0:0:
256,192,93616,1,0,0:0:0:0:
256,192,93686,1,0,0:0:0:0:
256,192,93755,1,0,0:0:0:0:
256,192,93824,1,8,0:0:0:0:
256,192,93962,1,0,0:0:0:0:
256,192,94239,1,8,0:0:0:0:
256,192,94308,1,8,0:0:0:0:
256,192,94377,1,0,0:0:0:0:
256,192,94446,1,0,0:0:0:0:
256,192,94515,1,8,0:0:0:0:
256,192,94653,1,0,0:0:0:0:
256,192,94722,1,0,0:0:0:0:
256,192,94792,1,8,0:0:0:0:
256,192,94861,1,0,0:0:0:0:
256,192,94930,1,8,0:0:0:0:
256,192,94999,1,0,0:0:0:0:
256,192,95068,1,0,0:0:0:0:
256,192,95137,1,0,0:0:0:0:
256,192,95206,1,8,0:0:0:0:
256,192,95345,1,8,0:0:0:0:
256,192,95414,1,8,0:0:0:0:
256,192,95483,1,8,0:0:0:0:
256,192,95552,1,8,0:0:0:0:
256,192,95621,1,0,0:0:0:0:
256,192,95690,1,0,0:0:0:0:
256,192,95759,1,8,0:0:0:0:
256,192,95898,1,8,0:0:0:0:
256,192,95967,1,8,0:0:0:0:
256,192,96036,1,8,0:0:0:0:
256,192,96105,1,8,0:0:0:0:
256,192,96174,1,0,0:0:0:0:
256,192,96243,1,8,0:0:0:0:
256,192,96312,1,0,0:0:0:0:
256,192,96451,1,8,0:0:0:0:
256,192,96520,1,8,0:0:0:0:
256,192,96589,1,0,0:0:0:0:
256,192,96658,1,0,0:0:0:0:
256,192,96727,1,8,0:0:0:0:
256,192,96865,1,0,0:0:0:0:
256,192,96934,1,0,0:0:0:0:
256,192,97004,1,8,0:0:0:0:
256,192,97142,1,8,0:0:0:0:
256,192,97280,1,4,0:0:0:0:
256,192,97557,1,12,0:0:0:0:
256,192,97833,1,4,0:0:0:0:
256,192,97971,1,0,0:0:0:0:
256,192,98110,1,12,0:0:0:0:
256,192,98386,1,0,0:0:0:0:
256,192,98455,1,0,0:0:0:0:
256,192,98524,1,8,0:0:0:0:
256,192,98593,1,8,0:0:0:0:
256,192,98663,1,8,0:0:0:0:
256,192,98732,1,8,0:0:0:0:
256,192,98801,1,0,0:0:0:0:
256,192,98870,1,0,0:0:0:0:
256,192,98939,1,8,0:0:0:0:
256,192,99077,1,0,0:0:0:0:
256,192,99146,1,0,0:0:0:0:
256,192,99216,1,8,0:0:0:0:
256,192,99354,1,8,0:0:0:0:
256,192,99492,1,0,0:0:0:0:
256,192,99769,1,8,0:0:0:0:
256,192,100045,1,8,0:0:0:0:
256,192,100114,1,0,0:0:0:0:
256,192,100183,1,8,0:0:0:0:
256,192,100252,1,8,0:0:0:0:
256,192,100322,1,0,0:0:0:0:
256,192,100391,1,0,0:0:0:0:
256,192,100460,1,8,0:0:0:0:
256,192,100529,1,8,0:0:0:0:
256,192,100598,1,0,0:0:0:0:
256,192,100736,1,8,0:0:0:0:
256,192,100805,1,8,0:0:0:0:
256,192,100875,1,0,0:0:0:0:
256,192,101013,1,0,0:0:0:0:
256,192,101151,1,8,0:0:0:0:
256,192,101289,1,0,0:0:0:0:
256,192,101428,1,0,0:0:0:0:
256,192,101497,1,8,0:0:0:0:
256,192,101566,1,0,0:0:0:0:
256,192,101635,1,0,0:0:0:0:
256,192,101704,1,8,0:0:0:0:
256,192,101981,1,0,0:0:0:0:
256,192,102257,1,0,0:0:0:0:
256,192,102534,1,8,0:0:0:0:
256,192,102810,1,0,0:0:0:0:
256,192,103363,1,8,0:0:0:0:
256,192,103501,1,0,0:0:0:0:
256,192,103640,1,8,0:0:0:0:
256,192,103778,1,0,0:0:0:0:
256,192,103916,1,8,0:0:0:0:
256,192,103985,1,8,0:0:0:0:
256,192,104054,1,0,0:0:0:0:
256,192,104123,1,0,0:0:0:0:
256,192,104193,1,8,0:0:0:0:
256,192,104262,1,0,0:0:0:0:
256,192,104331,1,0,0:0:0:0:
256,192,104400,1,0,0:0:0:0:
256,192,104469,1,8,0:0:0:0:
256,192,104538,1,0,0:0:0:0:
256,192,104607,1,0,0:0:0:0:
256,192,104676,1,0,0:0:0:0:
256,192,104745,1,8,0:0:0:0:
256,192,104815,1,0,0:0:0:0:
256,192,104884,1,0,0:0:0:0:
256,192,104953,1,0,0:0:0:0:
256,192,105022,1,8,0:0:0:0:
256,192,105091,1,8,0:0:0:0:
256,192,105160,1,0,0:0:0:0:
256,192,105229,1,0,0:0:0:0:
256,192,105298,1,8,0:0:0:0:
256,192,105368,1,8,0:0:0:0:
256,192,105437,1,0,0:0:0:0:
256,192,105506,1,0,0:0:0:0:
256,192,105575,1,8,0:0:0:0:
256,192,105644,1,0,0:0:0:0:
256,192,105713,1,8,0:0:0:0:
256,192,105851,1,8,0:0:0:0:
256,192,105921,1,8,0:0:0:0:
256,192,105990,1,8,0:0:0:0:
256,192,106059,1,8,0:0:0:0:
256,192,106128,1,0,0:0:0:0:
256,192,106266,1,0,0:0:0:0:
256,192,106404,1,8,0:0:0:0:
256,192,106543,1,0,0:0:0:0:
256,192,106612,1,0,0:0:0:0:
256,192,106681,1,0,0:0:0:0:
256,192,106750,1,0,0:0:0:0:
256,192,106819,1,8,0:0:0:0:
256,192,106957,1,8,0:0:0:0:
256,192,107096,1,0,0:0:0:0:
256,192,107234,1,8,0:0:0:0:
256,192,107303,1,0,0:0:0:0:
256,192,107372,1,8,0:0:0:0:
256,192,107441,1,8,0:0:0:0:
256,192,107510,1,0,0:0:0:0:
256,192,107649,1,0,0:0:0:0:
256,192,107787,1,8,0:0:0:0:
256,192,107856,1,8,0:0:0:0:
256,192,107925,1,0,0:0:0:0:
256,192,107994,1,0,0:0:0:0:
256,192,108063,1,8,0:0:0:0:
256,192,108202,1,0,0:0:0:0:
256,192,108340,1,0,0:0:0:0:
256,192,108409,1,0,0:0:0:0:
256,192,108478,1,8,0:0:0:0:
256,192,108616,1,8,0:0:0:0:
256,192,108755,1,0,0:0:0:0:
256,192,108824,1,0,0:0:0:0:
256,192,108893,1,8,0:0:0:0:
256,192,108962,1,8,0:0:0:0:
256,192,109031,1,0,0:0:0:0:
256,192,109169,1,8,0:0:0:0:
256,192,109308,1,0,0:0:0:0:
256,192,109446,1,8,0:0:0:0:
256,192,109515,1,8,0:0:0:0:
256,192,109584,1,0,0:0:0:0:
256,192,109653,1,0,0:0:0:0:
256,192,109722,1,0,0:0:0:0:
256,192,109861,1,0,0:0:0:0:
256,192,109930,1,8,0:0:0:0:
256,192,109999,1,8,0:0:0:0:
256,192,110068,1,0,0:0:0:0:
256,192,110137,1,8,0:0:0:0:
256,192,110206,1,8,0:0:0:0:
256,192,110275,1,0,0:0:0:0:
256,192,110414,1,8,0:0:0:0:
256,192,110483,1,8,0:0:0:0:
256,192,110552,1,0,0:0:0:0:
256,192,110828,1,8,0:0:0:0:
256,192,110898,1,0,0:0:0:0:
256,192,110967,1,8,0:0:0:0:
256,192,111036,1,8,0:0:0:0:
256,192,111105,1,0,0:0:0:0:
256,192,111174,1,0,0:0:0:0:
256,192,111243,1,8,0:0:0:0:
256,192,111381,1,0,0:0:0:0:
256,192,111451,1,0,0:0:0:0:
256,192,111520,1,8,0:0:0:0:
256,192,111589,1,0,0:0:0:0:
256,192,111658,1,0,0:0:0:0:
256,192,111934,1,0,0:0:0:0:
256,192,112004,1,8,0:0:0:0:
256,192,112073,1,0,0:0:0:0:
256,192,112142,1,0,0:0:0:0:
256,192,112211,1,8,0:0:0:0:
256,192,112349,1,8,0:0:0:0:
256,192,112487,1,0,0:0:0:0:
256,192,112626,1,8,0:0:0:0:
256,192,112764,1,8,0:0:0:0:
256,192,112833,1,0,0:0:0:0:
256,192,112902,1,8,0:0:0:0:
256,192,112971,1,8,0:0:0:0:
256,192,113040,1,0,0:0:0:0:
256,192,113110,1,0,0:0:0:0:
256,192,113179,1,0,0:0:0:0:
256,192,113317,1,0,0:0:0:0:
256,192,113386,1,0,0:0:0:0:
256,192,113455,1,0,0:0:0:0:
256,192,113593,1,8,0:0:0:0:
256,192,113663,1,8,0:0:0:0:
256,192,113732,1,0,0:0:0:0:
256,192,113801,1,0,0:0:0:0:
256,192,113870,1,0,0:0:0:0:
256,192,114146,1,0,0:0:0:0:
256,192,114423,1,8,0:0:0:0:
256,192,114699,1,8,0:0:0:0:
256,192,114976,1,0,0:0:0:0:
256,192,115252,1,8,0:0:0:0:
256,192,115529,1,0,0:0:0:0:
256,192,115667,1,0,0:0:0:0:
256,192,115736,1,0,0:0:0:0:
256,192,115805,1,8,0:0:0:0:
256,192,115944,1,8,0:0:0:0:
256,192,116082,1,0,0:0:0:0:
256,192,116497,1,0,0:0:0:0:
256,192,116566,1,0,0:0:0:0:
256,192,116635,1,8,0:0:0:0:
256,192,116704,1,0,0:0:0:0:
256,192,116773,1,0,0:0:0:0:
256,192,116842,1,0,0:0:0:0:
256,192,116911,1,8,0:0:0:0:
256,192,117050,1,0,0:0:0:0:
256,192,117188,1,8,0:0:0:0:
256,192,117326,1,0,0:0:0:0:
256,192,117395,1,0,0:0:0:0:
256,192,117464,1,8,0:0:0:0:
256,192,117603,1,0,0:0:0:0:
256,192,117741,1,0,0:0:0:0:
256,192,117810,1,0,0:0:0:0:
256,192,117879,1,0,0:0:0:0:
256,192,118017,1,8,0:0:0:0:
256,192,118156,1,8,0:0:0:0:
256,192,118294,1,0,0:0:0:0:
256,192,118363,1,0,0:0:0:0:
256,192,118432,1,8,0:0:0:0:
256,192,118570,1,8,0:0:0:0:
256,192,118709,1,8,0:0:0:0:
256,192,118778,1,0,0:0:0:0:
256,192,118847,1,8,0:0:0:0:
256,192,118916,1,8,0:0:0:0:
256,192,118985,1,0,0:0:0:0:
256,192,119123,1,0,0:0:0:0:
256,192,119262,1,8,0:0:0:0:
256,192,119400,1,0,0:0:0:0:
256,192,119469,1,0,0:0:0:0:
256,192,119538,1,0,0:0:0:0:
256,192,119607,1,8,0:0:0:0:
256,192,119676,1,0,0:0:0:0:
256,192,119745,1,0,0:0:0:0:
256,192,119815,1,8,0:0:0:0:
256,192,119884,1,0,0:0:0:0:
256,192,119953,1,0,0:0:0:0:
256,192,120022,1,8,0:0:0:0:
256,192,120091,1,0,0:0:0:0:
256,192,120160,1,0,0:0:0:0:
256,192,120229,1,8,0:0:0:0:
256,192,120298,1,0,0:0:0:0:
256,192,120368,1,0,0:0:0:0:
256,192,120437,1,0,0:0:0:0:
256,192,120506,1,8,0:0:0:0:
256,192,120575,1,0,0:0:0:0:
256,192,120644,1,0,0:0:0:0:
256,192,120713,1,8,0:0:0:0:
256,192,120782,1,0,0:0:0:0:
256,192,120851,1,0,0:0:0:0:
256,192,120920,1,8,0:0:0:0:
256,192,120990,1,0,0:0:0:0:
256,192,121059,1,0,0:0:0:0:
256,192,121128,1,8,0:0:0:0:
256,192,121197,1,0,0:0:0:0:
256,192,121266,1,0,0:0:0:0:
256,192,121335,1,8,0:0:0:0:
256,192,121404,1,0,0:0:0:0:
256,192,121474,1,0,0:0:0:0:
256,192,121543,1,8,0:0:0:0:
256,192,122096,1,8,0:0:0:0:
256,192,122165,1,8,0:0:0:0:
256,192,122234,1,0,0:0:0:0:
256,192,122303,1,0,0:0:0:0:
256,192,122372,1,8,0:0:0:0:
256,192,122441,1,0,0:0:0:0:
256,192,122580,1,8,0:0:0:0:
256,192,122649,1,8,0:0:0:0:
256,192,122718,1,0,0:0:0:0:
256,192,122856,1,8,0:0:0:0:
256,192,122925,1,0,0:0:0:0:
256,192,122994,1,0,0:0:0:0:
256,192,123133,1,8,0:0:0:0:
256,192,123202,1,0,0:0:0:0:
256,192,123271,1,8,0:0:0:0:
256,192,123340,1,8,0:0:0:0:
256,192,123409,1,0,0:0:0:0:
256,192,123478,1,0,0:0:0:0:
256,192,123547,1,8,0:0:0:0:
256,192,123616,1,8,0:0:0:0:
256,192,123686,1,0,0:0:0:0:
256,192,123755,1,8,0:0:0:0:
256,192,123824,1,0,0:0:0:0:
256,192,124100,1,0,0:0:0:0:
256,192,124377,1,8,0:0:0:0:
256,192,124515,1,0,0:0:0:0:
256,192,124653,1,0,0:0:0:0:
256,192,124792,1,8,0:0:0:0:
256,192,124930,1,0,0:0:0:0:
256,192,125068,1,0,0:0:0:0:
256,192,125206,1,8,0:0:0:0:
256,192,125483,1,8,0:0:0:0:
256,192,125759,1,8,0:0:0:0:
256,192,126036,1,4,0:0:0:0:
256,192,127142,1,4,0:0:0:0:
256,192,127418,12,0,140206,0:0:0:0:
