osu file format v14

[General]
AudioFilename: Chik Habit - The Flashbulb.mp3
AudioLeadIn: 0
PreviewTime: 41271
Countdown: 1
SampleSet: Normal
StackLeniency: 0.7
Mode: 0
LetterboxInBreaks: 1
WidescreenStoryboard: 1

[Editor]
Bookmarks: 59771
DistanceSpacing: 1
BeatDivisor: 4
GridSize: 8
TimelineZoom: 1.7

[Metadata]
Title:Chik Habit
TitleUnicode:Chik Habit
Artist:The Flashbulb
ArtistUnicode:The Flashbulb
Creator:quadz
Version:Cheeky
Source:
Tags:
BeatmapID:736800
BeatmapSetID:332549

[Difficulty]
HPDrainRate:4
CircleSize:3.8
OverallDifficulty:8
ApproachRate:9
SliderMultiplier:2
SliderTickRate:1

[Events]
//Background and Video events
0,0,"EerieForest.jpg",0,0
//Break Periods
//Storyboard Layer 0 (Background)
//Storyboard Layer 1 (Fail)
//Storyboard Layer 2 (Pass)
//Storyboard Layer 3 (Foreground)
//Storyboard Sound Samples

[TimingPoints]
271,285.714285714286,4,1,0,50,1,0
271,-200,4,1,0,50,0,0
13985,-133.333333333333,4,1,0,50,0,0
31699,-200,4,1,0,50,0,0
32413,-100,4,1,0,50,0,0
35692,-133.333333333333,4,1,0,50,0,0
36842,-100,4,1,0,50,0,0
50556,-133.333333333333,4,1,0,50,0,0
55128,-200,4,2,0,50,0,0
58556,-50,4,1,0,50,0,0
59699,-100,4,1,0,50,0,0
63699,-100,4,1,0,50,0,0
65413,-66.6666666666667,4,1,0,50,0,0
66271,-100,4,1,0,50,0,0
68842,-200,4,1,0,50,0,0
73413,-133.333333333333,4,1,0,50,0,0
77985,-133.333333333333,4,1,0,50,0,0
86556,-200,4,1,0,50,0,0
87128,250,4,1,0,50,1,0
87128,-200,4,1,0,50,0,0
95128,-100,4,1,0,50,0,0
127128,-66.6666666666667,4,1,0,50,0,0
129378,-50,4,1,0,50,0,0
130128,-66.6666666666667,4,1,0,50,0,0
131378,-100,4,1,0,50,0,0
134253,-50,4,1,0,50,0,0
135378,-100,4,1,0,50,0,0
144128,-66.6666666666667,4,1,0,50,0,0
153128,-66.6666666666667,4,1,0,5,0,0

[Colours]
Combo1 : 106,50,120
Combo2 : 108,141,181
Combo3 : 169,87,75

[HitObjects]
184,160,271,6,0,P|232:128|296:136,1,100,0|2,0:0|0:0,0:0:0:0:
328,208,842,2,0,P|280:256|224:248,1,100,0|2,0:0|0:0,0:0:0:0:
160,240,1413,2,0,P|144:280|160:344,1,100,0|2,0:0|0:0,0:0:0:0:
240,304,1985,2,0,P|288:312|344:280,1,100,0|2,0:0|0:0,0:0:0:0:
290,216,2556,2,0,P|256:232|192:208,1,100,0|2,0:0|0:0,0:0:0:0:
64,56,3128,2,0,B|112:96|104:136|104:136|128:96|128:96|168:152,1,200,0|2,0:0|0:0,0:0:0:0:
280,48,3985,2,0,P|360:120|440:56,1,200,0|2,0:0|0:0,0:0:0:0:
392,312,4842,1,0,0:0:0:0:
296,288,5128,5,0,0:0:0:0:
240,208,5271,1,0,0:0:0:0:
176,272,5413,1,0,0:0:0:0:
112,232,5699,2,0,L|72:176,2,50
312,344,6271,2,0,P|376:336|400:296,1,100
280,40,6842,2,0,P|232:48|192:80,2,100
424,168,7699,1,0,0:0:0:0:
240,192,7985,5,0,0:0:0:0:
336,200,8128,1,0,0:0:0:0:
376,272,8271,1,0,0:0:0:0:
304,336,8461,2,2,L|256:320,1,33.3333333333333
88,200,8842,6,0,P|120:224|160:224,1,66.6666666666667,0|2,0:0|0:0,0:0:0:0:
160,224,9128,2,0,P|144:280|160:304,1,66.6666666666667
152,304,9413,1,0,0:0:0:0:
256,248,9699,1,0,0:0:0:0:
240,160,9842,1,0,0:0:0:0:
160,104,9985,1,0,0:0:0:0:
200,48,10271,2,0,P|232:80|272:80,1,66.6666666666667,0|2,0:0|0:0,0:0:0:0:
288,72,10556,2,0,L|264:168,1,66.6666666666667
288,176,10842,2,0,P|336:160|360:136,1,66.6666666666667,0|2,0:0|0:0,0:0:0:0:
376,128,11128,2,0,L|384:248,1,100
224,280,11699,1,0,0:0:0:0:
432,312,11985,1,0,0:0:0:0:
464,160,12271,1,0,0:0:0:0:
88,296,12556,6,0,P|112:288|136:256,1,50
208,192,12842,2,0,L|168:120,1,66.6666666666667,0|2,0:0|0:0,0:0:0:0:
136,112,13128,2,0,P|195:80|224:80,1,66.6666666666667,0|2,0:0|0:0,0:0:0:0:
224,64,13413,2,0,B|264:120|264:120|320:80|320:80|336:160,1,200
288,264,14128,1,0,0:0:0:0:
376,240,14271,1,0,0:0:0:0:
424,176,14413,1,0,0:0:0:0:
432,88,14556,1,0,0:0:0:0:
360,104,14771,6,0,L|320:128,1,37.5000014305115,0|2,0:0|0:0,0:0:0:0:
248,184,15032,2,2,L|168:128,1,50.0000019073487
264,104,15271,1,0,0:0:0:0:
264,104,15413,1,0,0:0:0:0:
160,64,15699,5,0,0:0:0:0:
72,136,15985,1,0,0:0:0:0:
48,240,16271,2,0,P|88:312|160:336,1,150.000005722046
152,256,16699,1,0,0:0:0:0:
120,184,16842,2,0,P|192:192|224:288,1,150.000005722046
272,328,17318,2,2,L|336:328,1,50.0000019073487
352,264,17604,2,2,L|416:264,1,50.0000019073487
456,208,17985,2,0,P|424:136|376:136,1,100.000003814697
392,112,18271,2,0,B|400:136|384:176|352:168|352:168|328:136|296:152,1,100.000003814697,2|0,0:0|0:0,0:0:0:0:
328,144,18556,2,0,B|312:200|312:200|232:216|168:128|120:120|128:240,1,300.000011444092,2|0,0:0|0:0,0:0:0:0:
136,288,19413,1,0,0:0:0:0:
64,328,19604,2,2,L|32:288,1,50.0000019073487
32,224,19842,1,0,0:0:0:0:
80,184,19985,1,0,0:0:0:0:
88,120,20128,2,0,L|96:64,2,37.5000014305115
104,48,20556,1,0,0:0:0:0:
168,128,20842,6,0,P|240:192|312:168,1,150.000005722046
320,136,21271,1,0,0:0:0:0:
360,88,21413,1,0,0:0:0:0:
424,88,21556,1,0,0:0:0:0:
440,144,21699,2,0,P|416:208|384:224,1,75.0000028610231
360,192,21985,2,0,P|360:264|408:304,1,100.000003814697,0|2,0:0|0:0,0:0:0:0:
384,320,22271,2,0,P|328:280|208:288,1,150.000005722046
224,288,22842,1,0,0:0:0:0:
120,336,23128,1,0,0:0:0:0:
72,272,23342,6,2,L|80:232,1,37.5000014305115
256,152,23699,1,0,0:0:0:0:
176,104,23890,2,2,L|128:160,1,50.0000019073487
112,216,24175,2,2,L|160:232,1,50.0000019073487
288,208,24485,1,0,0:0:0:0:
288,208,24556,2,0,P|216:144|248:64,1,150.000005722046,2|0,0:0|0:0,0:0:0:0:
256,88,25128,2,0,P|345:116|400:48,1,150.000005722046
440,136,25628,1,2,0:0:0:0:
440,136,25699,2,0,P|440:199|352:272,1,150.000005722046
352,336,26128,5,0,0:0:0:0:
280,256,26271,1,0,0:0:0:0:
248,336,26461,2,2,L|192:336,1,50.0000019073487
144,272,26747,2,0,L|88:264,1,50.0000019073487
136,96,27128,1,0,0:0:0:0:
248,200,27413,1,0,0:0:0:0:
328,96,27699,1,0,0:0:0:0:
272,128,27985,6,0,P|280:48|352:40,1,150.000005722046
416,144,28556,1,0,0:0:0:0:
336,200,28747,2,2,L|368:248,1,50.0000019073487
464,224,29128,1,0,0:0:0:0:
416,336,29413,1,0,0:0:0:0:
336,312,29699,2,0,P|272:296|232:216,1,150.000005722046
288,136,30271,2,0,P|216:176|120:160,1,150.000005722046
48,144,30699,1,0,0:0:0:0:
64,240,30842,2,0,L|120:320,1,75.0000028610231
152,248,31128,2,0,L|256:264,1,100.000003814697
240,312,31413,2,0,P|320:320|344:272,1,112.500004291535
360,280,31699,6,0,P|275:267|256:168,1,200
328,208,32413,1,8,0:0:0:0:
384,136,32556,1,0,0:0:0:0:
328,64,32699,1,8,0:0:0:0:
296,64,32771,1,0,0:0:0:0:
256,64,32842,1,0,0:0:0:0:
160,72,32985,1,8,0:0:0:0:
160,104,33056,1,0,0:0:0:0:
160,136,33128,1,0,0:0:0:0:
224,208,33271,5,8,0:0:0:0:
336,128,33413,1,4,0:0:0:0:
360,272,33556,1,8,0:0:0:0:
232,328,33699,2,0,P|168:304|136:240,1,100
136,240,33913,1,0,0:0:0:0:
152,192,33985,1,0,0:0:0:0:
128,152,34056,1,0,0:0:0:0:
88,136,34128,1,0,0:0:0:0:
40,288,34271,5,0,0:0:0:0:
72,264,34342,1,0,0:0:0:0:
104,248,34413,1,0,0:0:0:0:
128,248,34485,1,0,0:0:0:0:
160,248,34556,1,0,0:0:0:0:
192,256,34628,1,0,0:0:0:0:
224,264,34699,1,0,0:0:0:0:
264,272,34771,1,0,0:0:0:0:
296,248,34842,1,8,0:0:0:0:
304,168,34985,1,0,0:0:0:0:
304,128,35056,1,0,0:0:0:0:
304,96,35128,1,4,0:0:0:0:
208,96,35271,1,0,0:0:0:0:
368,168,35413,1,0,0:0:0:0:
224,208,35556,1,0,0:0:0:0:
104,112,35699,5,0,0:0:0:0:
144,304,35985,1,8,0:0:0:0:
344,296,36271,1,8,0:0:0:0:
456,144,36556,1,8,0:0:0:0:
328,64,36842,5,0,0:0:0:0:
288,72,36913,1,2,0:0:0:0:
248,72,36985,1,0,0:0:0:0:
208,64,37056,1,2,0:0:0:0:
176,48,37128,1,0,0:0:0:0:
88,64,37271,5,2,0:0:0:0:
200,144,37413,1,2,0:0:0:0:
120,152,37556,1,0,0:0:0:0:
88,184,37628,1,2,0:0:0:0:
72,224,37699,1,0,0:0:0:0:
80,272,37771,2,0,L|64:320,3,50
160,320,38128,5,2,0:0:0:0:
256,328,38271,1,0,0:0:0:0:
336,272,38413,1,2,0:0:0:0:
248,256,38556,2,0,P|184:256|136:208,1,100,0|2,0:0|0:0,0:0:0:0:
264,120,38842,2,0,P|304:120|352:152,1,100,0|2,0:0|0:0,0:0:0:0:
248,200,39128,2,0,P|184:184|176:88,1,150
184,64,39413,2,0,B|280:96|280:96|336:56,1,150
368,48,39699,5,0,0:0:0:0:
416,48,39771,1,2,0:0:0:0:
448,88,39842,1,0,0:0:0:0:
352,160,39985,1,0,0:0:0:0:
408,264,40128,1,0,0:0:0:0:
448,168,40271,1,0,0:0:0:0:
448,344,40556,1,4,0:0:0:0:
248,200,40842,1,4,0:0:0:0:
160,344,41128,1,4,0:0:0:0:
56,192,41413,6,0,P|72:112|112:80,1,100
120,112,41699,1,0,0:0:0:0:
160,128,41771,1,2,0:0:0:0:
208,128,41842,1,0,0:0:0:0:
248,112,41913,1,2,0:0:0:0:
280,80,41985,1,0,0:0:0:0:
320,80,42056,1,0,0:0:0:0:
352,104,42128,1,0,0:0:0:0:
232,240,42271,2,0,L|184:256,4,50,0|0|0|0|2,0:0|0:0|0:0|0:0|0:0,0:0:0:0:
336,304,42699,1,0,0:0:0:0:
376,288,42771,1,0,0:0:0:0:
400,256,42842,1,2,0:0:0:0:
336,176,43056,6,0,L|296:264,1,50
288,216,43199,2,0,L|280:280,1,50
256,256,43342,2,0,L|240:320,1,50
152,312,43556,1,2,0:0:0:0:
48,248,43699,5,0,0:0:0:0:
70,259,43770,1,0,0:0:0:0:
94,263,43841,1,0,0:0:0:0:
119,261,43913,1,0,0:0:0:0:
142,252,43984,1,0,0:0:0:0:
162,237,44056,1,0,0:0:0:0:
177,217,44127,1,0,0:0:0:0:
186,194,44199,1,0,0:0:0:0:
188,169,44270,1,0,0:0:0:0:
183,144,44341,1,0,0:0:0:0:
171,122,44413,1,0,0:0:0:0:
154,104,44484,1,0,0:0:0:0:
132,92,44556,1,0,0:0:0:0:
64,168,44699,1,0,0:0:0:0:
224,96,44842,1,0,0:0:0:0:
248,80,44913,1,0,0:0:0:0:
272,64,44985,5,0,0:0:0:0:
320,256,45128,1,0,0:0:0:0:
376,56,45413,1,0,0:0:0:0:
440,288,45699,1,0,0:0:0:0:
376,328,45842,5,0,0:0:0:0:
337,335,45913,1,0,0:0:0:0:
298,336,45984,1,0,0:0:0:0:
260,329,46056,1,0,0:0:0:0:
223,316,46127,1,0,0:0:0:0:
190,296,46199,1,0,0:0:0:0:
192,256,46271,1,0,0:0:0:0:
280,256,46413,1,0,0:0:0:0:
296,224,46485,1,0,0:0:0:0:
296,184,46556,1,0,0:0:0:0:
216,184,46699,5,0,0:0:0:0:
216,184,46771,1,0,0:0:0:0:
216,184,46842,1,0,0:0:0:0:
208,152,46913,1,0,0:0:0:0:
208,120,46985,1,0,0:0:0:0:
200,88,47056,1,0,0:0:0:0:
184,64,47128,1,0,0:0:0:0:
64,96,47271,5,0,0:0:0:0:
32,208,47413,2,0,P|64:240|128:248,1,100
176,248,47699,1,0,0:0:0:0:
216,272,47771,1,0,0:0:0:0:
264,256,47842,1,0,0:0:0:0:
312,280,47913,1,0,0:0:0:0:
352,256,47985,1,0,0:0:0:0:
328,184,48128,1,0,0:0:0:0:
312,152,48199,1,0,0:0:0:0:
312,104,48271,1,0,0:0:0:0:
440,144,48556,5,0,0:0:0:0:
368,32,48699,1,0,0:0:0:0:
320,32,48771,1,0,0:0:0:0:
280,32,48842,1,0,0:0:0:0:
240,40,48913,1,0,0:0:0:0:
200,48,48985,1,0,0:0:0:0:
144,40,49056,1,0,0:0:0:0:
112,64,49128,2,0,P|176:136|240:120,1,150
232,152,49413,2,0,B|216:232|216:232|160:208|160:208|160:280,1,200
56,264,49985,1,0,0:0:0:0:
240,344,50271,1,0,0:0:0:0:
376,288,50556,6,0,P|424:216|400:136,1,150.000005722046
376,136,50913,1,0,0:0:0:0:
328,152,50984,1,0,0:0:0:0:
288,144,51055,1,0,0:0:0:0:
256,112,51127,1,0,0:0:0:0:
232,88,51198,1,0,0:0:0:0:
232,56,51271,2,0,B|240:40|240:40|248:56|248:56|248:48|248:48|256:48|256:48|256:40|256:40|256:56|256:56|264:48|264:56|264:56|272:56|272:56|272:48|272:48|280:48|280:48|280:56|280:56|288:56|288:56|288:48|288:48|296:48|296:48|296:56|296:56|304:56|304:56|304:48|304:48|312:48|312:48|312:56|312:56|320:56|320:56|320:48|320:48|328:48|328:48|328:56|328:56|336:56|336:56|336:48,1,225.000008583069
416,80,51842,2,0,B|408:80|408:80|408:88|408:88|416:88|416:88|416:96|416:96|408:96|408:96|408:104|408:104|416:104|416:104|416:112|416:112|408:112|408:112|408:120,3,75.0000028610231
432,144,52342,1,0,0:0:0:0:
416,184,52413,2,0,B|416:200|416:200|440:192|440:192|424:208|424:208|440:208|440:208|432:216|432:216|448:216,1,75.0000028610231
440,224,52628,5,0,0:0:0:0:
440,224,52699,1,0,0:0:0:0:
440,224,52771,1,0,0:0:0:0:
432,232,52842,1,0,0:0:0:0:
424,240,52913,1,0,0:0:0:0:
416,248,52985,1,0,0:0:0:0:
408,256,53056,1,0,0:0:0:0:
408,264,53128,1,0,0:0:0:0:
408,272,53199,1,0,0:0:0:0:
400,280,53271,1,0,0:0:0:0:
392,280,53342,1,0,0:0:0:0:
376,296,53413,5,0,0:0:0:0:
344,304,53508,1,0,0:0:0:0:
320,288,53604,1,0,0:0:0:0:
296,272,53699,1,0,0:0:0:0:
272,280,53794,1,0,0:0:0:0:
256,304,53890,1,0,0:0:0:0:
232,288,53985,1,0,0:0:0:0:
144,256,54128,5,0,0:0:0:0:
144,232,54199,1,0,0:0:0:0:
136,200,54271,1,0,0:0:0:0:
152,304,54556,1,0,0:0:0:0:
32,320,54842,1,0,0:0:0:0:
32,176,55128,6,0,P|56:136|112:104,1,100
136,144,55556,1,0,0:0:0:0:
176,176,55699,1,0,0:0:0:0:
224,192,55842,1,0,0:0:0:0:
272,200,55985,1,0,0:0:0:0:
320,192,56128,1,0,0:0:0:0:
360,168,56271,2,0,P|352:104|312:64,1,100
224,40,56699,1,0,0:0:0:0:
136,56,56842,2,0,P|152:80|176:96,1,50
144,136,57128,2,0,P|176:136|192:128,1,50
224,112,57413,1,0,0:0:0:0:
240,240,57699,1,0,0:0:0:0:
160,328,57985,5,0,0:0:0:0:
88,304,58128,1,0,0:0:0:0:
64,232,58271,1,0,0:0:0:0:
160,240,58413,1,0,0:0:0:0:
232,184,58556,1,0,0:0:0:0:
360,312,58842,1,0,0:0:0:0:
480,176,59128,1,0,0:0:0:0:
408,72,59413,1,0,0:0:0:0:
288,176,59699,6,0,B|328:144|344:96|328:48|328:48|232:32,1,200
256,72,60128,1,0,0:0:0:0:
284,106,60199,1,0,0:0:0:0:
313,141,60270,1,0,0:0:0:0:
342,176,60342,1,0,0:0:0:0:
370,211,60413,1,0,0:0:0:0:
399,246,60485,1,0,0:0:0:0:
416,280,60556,2,0,P|376:296|328:264,1,100
264,208,60842,1,0,0:0:0:0:
248,232,60913,1,0,0:0:0:0:
224,264,60985,1,0,0:0:0:0:
192,288,61056,1,0,0:0:0:0:
160,296,61128,1,0,0:0:0:0:
64,304,61271,5,0,0:0:0:0:
64,288,61342,1,0,0:0:0:0:
72,272,61413,1,0,0:0:0:0:
88,240,61485,1,0,0:0:0:0:
112,208,61556,1,0,0:0:0:0:
112,168,61628,1,0,0:0:0:0:
112,136,61699,2,0,B|96:112|48:104|24:152|64:192|64:192|120:184|168:200,1,200
271,137,62271,2,0,L|311:185,1,50
264,168,62413,2,0,L|224:200,1,50
216,160,62556,2,0,L|152:136,1,50
200,128,62699,2,0,L|216:64,1,50
224,88,62842,2,0,L|280:72,1,50
304,96,62985,2,0,L|352:72,2,50
416,176,63413,5,0,0:0:0:0:
384,248,63699,2,0,B|398:292|359:306|313:249|313:249|351:208|323:131,1,200
416,104,64271,1,0,0:0:0:0:
336,336,64485,2,0,L|272:352,1,50
256,272,64699,1,0,0:0:0:0:
192,328,64842,2,0,L|144:352,2,50
152,280,65128,1,0,0:0:0:0:
120,256,65199,1,0,0:0:0:0:
112,216,65271,1,0,0:0:0:0:
120,176,65342,1,0,0:0:0:0:
152,144,65413,5,0,0:0:0:0:
288,216,65556,1,0,0:0:0:0:
368,88,65699,1,0,0:0:0:0:
232,24,65842,1,0,0:0:0:0:
56,48,65985,1,0,0:0:0:0:
56,48,66128,1,0,0:0:0:0:
24,136,66271,2,0,L|32:200,2,50
88,144,66556,5,0,0:0:0:0:
93,177,66627,1,0,0:0:0:0:
88,208,66698,1,0,0:0:0:0:
64,232,66770,1,0,0:0:0:0:
39,256,66841,1,0,0:0:0:0:
73,293,66913,1,0,0:0:0:0:
107,330,66984,1,0,0:0:0:0:
224,344,67128,5,0,0:0:0:0:
192,216,67271,1,0,0:0:0:0:
168,288,67413,5,0,0:0:0:0:
200,280,67485,1,0,0:0:0:0:
240,272,67556,1,0,0:0:0:0:
272,280,67627,1,0,0:0:0:0:
304,288,67699,2,0,P|368:280|384:216,1,100
320,200,67985,2,0,P|360:160|416:160,1,100
464,240,68271,2,0,L|456:360,1,100
344,336,68556,2,0,P|288:312|264:256,1,100
360,192,68842,6,2,L|392:176,2,25
408,112,69128,1,2,0:0:0:0:
328,88,69271,2,0,L|320:56,2,25
272,160,69556,1,0,0:0:0:0:
192,88,69699,2,0,L|168:64,2,25
160,176,69985,2,0,L|152:224,4,25
56,120,70413,6,0,L|32:104,4,25
104,272,70842,2,0,L|112:312,8,25
208,232,71556,2,0,L|224:200,2,25
272,280,71842,1,0,0:0:0:0:
320,200,71985,6,0,L|352:184,3,25
368,200,72271,1,0,0:0:0:0:
376,240,72413,1,0,0:0:0:0:
360,280,72556,1,0,0:0:0:0:
336,320,72699,2,0,L|320:360,4,25
248,312,73128,2,0,L|224:304,2,25
440,304,73413,6,0,L|464:264,2,37.5000014305115
448,192,73699,2,0,L|392:160,2,37.5000014305115
400,104,73985,2,0,L|376:64,2,37.5000014305115
304,96,74271,2,0,L|256:88,2,37.5000014305115
280,192,74556,2,0,L|240:200,2,37.5000014305115
176,112,74842,2,0,L|128:96,2,37.5000014305115
144,184,75128,1,0,0:0:0:0:
144,184,75199,1,0,0:0:0:0:
144,184,75270,1,0,0:0:0:0:
80,232,75413,2,0,L|104:280,2,37.5000014305115
184,248,75699,6,0,L|120:232,2,37.5000014305115
224,304,75985,1,0,0:0:0:0:
304,312,76128,1,0,0:0:0:0:
304,312,76199,2,0,L|344:312,1,37.5000014305115
432,312,76413,1,0,0:0:0:0:
368,264,76556,1,0,0:0:0:0:
336,248,76628,1,0,0:0:0:0:
296,240,76699,1,0,0:0:0:0:
352,192,76842,1,0,0:0:0:0:
384,176,76913,1,0,0:0:0:0:
424,176,76985,1,0,0:0:0:0:
360,112,77128,1,0,0:0:0:0:
320,104,77199,1,0,0:0:0:0:
280,104,77271,1,0,0:0:0:0:
224,160,77413,2,0,L|184:176,2,37.5000014305115
168,56,77699,2,0,L|128:40,2,37.5000014305115
168,344,77985,6,0,P|104:328|56:256,1,150.000005722046
64,88,78413,1,2,0:0:0:0:
216,128,78556,2,0,P|232:192|224:224,1,75.0000028610231
160,256,78842,2,0,P|120:232|96:184,1,75.0000028610231
208,176,79128,2,0,P|256:184|288:208,1,75.0000028610231
328,288,79413,2,0,P|280:296|248:288,1,75.0000028610231
296,224,79699,5,0,0:0:0:0:
376,232,79842,1,2,0:0:0:0:
424,176,79985,1,0,0:0:0:0:
392,104,80128,1,2,0:0:0:0:
328,144,80271,1,0,0:0:0:0:
272,80,80413,1,2,0:0:0:0:
208,48,80556,6,8,P|128:56|96:72,1,112.500004291535
99,69,80842,1,0,0:0:0:0:
192,128,80985,1,2,0:0:0:0:
104,152,81128,2,0,P|136:200|160:208,1,75.0000028610231
224,216,81413,2,0,P|267:243|275:275,1,75.0000028610231
160,312,81699,2,0,L|224:240,1,75.0000028610231
296,176,81985,2,0,L|376:160,1,75.0000028610231
480,232,82271,2,0,L|464:328,1,75.0000028610231
408,328,82556,6,0,P|376:288|416:192,1,150.000005722046
456,160,82985,1,2,0:0:0:0:
432,80,83128,1,0,0:0:0:0:
360,64,83271,1,2,0:0:0:0:
272,144,83413,2,0,L|184:144,1,75.0000028610231
96,48,83699,2,0,L|184:56,1,75.0000028610231
288,56,83985,1,0,0:0:0:0:
312,208,84128,1,2,0:0:0:0:
200,248,84271,2,0,L|128:224,1,75.0000028610231,0|2,0:0|0:0,0:0:0:0:
128,152,84556,1,0,0:0:0:0:
164,151,84627,1,0,0:0:0:0:
202,151,84698,1,0,0:0:0:0:
239,151,84770,1,0,0:0:0:0:
277,151,84841,1,0,0:0:0:0:
392,208,85128,5,8,0:0:0:0:
368,312,85342,2,0,L|320:304,1,37.5000014305115,2|8,0:0|0:0,0:0:0:0:
248,232,85556,1,0,0:0:0:0:
192,336,85699,1,8,0:0:0:0:
120,312,85985,2,0,P|40:289|52:232,1,150.000005722046
136,240,86556,2,0,P|184:224|160:104,1,200
104,48,87253,1,0,0:0:0:0:
104,48,87378,2,0,L|160:48|224:48,1,100
288,32,87878,2,0,B|272:96|272:96|240:120,1,100
296,208,88378,2,0,L|400:160,1,100
392,128,88878,1,0,0:0:0:0:
392,232,89128,6,0,P|392:272|360:328,1,100
288,344,89503,1,0,0:0:0:0:
208,344,89628,2,0,P|160:320|160:256,1,100
240,240,90128,2,0,P|280:240|344:200,1,100
192,112,90628,2,0,L|128:104,2,50
240,176,91128,2,0,P|184:200|144:192,1,100
96,200,91503,1,0,0:0:0:0:
144,264,91628,1,0,0:0:0:0:
224,304,91878,2,0,P|272:296|320:256,1,100
264,216,92378,6,0,P|264:168|296:120,1,100
360,88,92753,1,0,0:0:0:0:
432,112,92878,1,0,0:0:0:0:
368,192,93128,1,0,0:0:0:0:
344,264,93378,2,0,P|352:312|384:352,2,100
448,184,94128,1,0,0:0:0:0:
288,336,94378,5,0,0:0:0:0:
216,328,94503,1,0,0:0:0:0:
152,296,94628,1,0,0:0:0:0:
120,240,94753,1,0,0:0:0:0:
128,168,94878,1,0,0:0:0:0:
168,104,95003,1,0,0:0:0:0:
240,80,95128,6,0,P|315:89|280:215,1,200
272,152,95503,1,0,0:0:0:0:
352,128,95628,2,0,P|368:176|288:288,1,200
256,224,96003,1,0,0:0:0:0:
184,208,96128,1,0,0:0:0:0:
144,264,96253,1,0,0:0:0:0:
184,328,96378,2,0,P|240:352|384:320,1,200
432,264,96753,1,0,0:0:0:0:
432,264,96878,1,0,0:0:0:0:
432,264,97003,1,0,0:0:0:0:
432,264,97128,6,0,P|392:192|448:72,1,200
336,120,97503,1,0,0:0:0:0:
256,72,97628,2,0,P|264:136|232:168,1,100
128,168,97878,2,0,P|96:128|112:64,1,100
176,120,98128,2,0,L|216:328,1,200
213,316,98503,1,0,0:0:0:0:
213,316,98628,1,0,0:0:0:0:
344,336,98878,6,0,P|416:304|440:168,1,200
344,112,99378,1,0,0:0:0:0:
344,112,99503,2,0,L|304:224,1,100
216,184,99878,2,0,L|176:88,2,100
272,256,100253,1,0,0:0:0:0:
272,256,100378,6,0,P|240:312|88:320,1,200
56,288,100753,1,0,0:0:0:0:
40,216,100878,1,0,0:0:0:0:
80,152,101003,1,0,0:0:0:0:
152,128,101128,2,0,P|192:176|344:160,1,200
248,112,101503,1,0,0:0:0:0:
192,48,101628,2,0,P|256:32|304:48,1,100
368,72,101878,2,0,P|400:128|408:184,1,100
392,320,102128,1,0,0:0:0:0:
224,184,102378,1,0,0:0:0:0:
80,320,102628,1,0,0:0:0:0:
56,136,102878,6,0,L|64:24,1,100
144,32,103128,2,0,P|272:56|344:216,1,300
240,240,103628,2,0,P|192:176|200:136,1,100
280,104,103878,2,0,L|320:72,2,50
160,216,104128,1,0,0:0:0:0:
240,320,104378,6,0,L|360:320,1,100
336,184,104628,2,0,L|232:184,1,100
80,264,104878,2,0,L|184:264,1,100
176,104,105128,2,0,L|64:104,1,100
248,104,105378,2,0,B|256:96|256:96|264:96|264:96|264:104|264:104|272:104|272:104|272:96|272:96|280:96|280:96|280:104|280:104|288:104|288:104|288:96|288:96|296:96|296:96|296:104|296:104|304:104|304:104|304:96|304:96|312:96|312:96|312:104|312:104|320:104|320:104|320:96|320:96|328:96|328:96|328:104|328:104|336:104|336:104|336:96|336:96|344:96|344:96|344:104|344:104|360:104|360:104,1,200
408,128,105753,1,0,0:0:0:0:
440,176,105878,1,0,0:0:0:0:
456,224,106003,1,0,0:0:0:0:
448,280,106128,1,0,0:0:0:0:
352,288,106378,6,0,L|136:288,2,200
400,208,107128,2,0,P|384:128|288:48,1,200
216,56,107503,1,0,0:0:0:0:
144,80,107628,1,0,0:0:0:0:
96,144,107753,1,0,0:0:0:0:
112,224,107878,1,0,0:0:0:0:
176,272,108003,1,0,0:0:0:0:
192,216,108128,2,0,P|215:79|431:141,1,400
432,200,108753,1,0,0:0:0:0:
400,272,108878,1,0,0:0:0:0:
328,304,109003,1,0,0:0:0:0:
240,296,109128,2,0,P|176:280|112:160,1,200
216,128,109628,5,0,0:0:0:0:
304,208,109753,1,0,0:0:0:0:
304,120,109878,1,0,0:0:0:0:
216,208,110003,1,0,0:0:0:0:
336,288,110128,2,0,P|400:200|376:104,1,200
120,272,110628,2,0,P|96:152|152:80,1,200
208,104,111003,1,0,0:0:0:0:
264,144,111128,5,0,0:0:0:0:
264,144,111190,1,0,0:0:0:0:
264,144,111253,1,0,0:0:0:0:
240,192,111378,2,0,B|352:224,1,100
360,232,111565,1,0,0:0:0:0:
360,256,111628,1,0,0:0:0:0:
344,320,111753,1,0,0:0:0:0:
320,320,111815,1,0,0:0:0:0:
296,320,111878,1,0,0:0:0:0:
272,320,111940,1,0,0:0:0:0:
248,320,112003,1,0,0:0:0:0:
256,232,112128,5,0,0:0:0:0:
184,208,112253,2,0,L|152:264,1,50
80,184,112378,2,0,L|144:168,1,50
144,96,112503,2,0,L|184:56,4,50
256,88,112878,5,0,0:0:0:0:
336,88,113003,1,0,0:0:0:0:
416,88,113128,1,0,0:0:0:0:
320,160,113253,2,0,L|288:216,2,50
416,216,113503,2,0,L|432:272,2,50
360,248,113753,1,0,0:0:0:0:
312,328,113878,1,0,0:0:0:0:
224,256,114003,1,0,0:0:0:0:
200,104,114128,5,0,0:0:0:0:
56,224,114378,1,0,0:0:0:0:
248,344,114628,1,0,0:0:0:0:
440,328,114878,1,0,0:0:0:0:
440,88,115128,1,0,0:0:0:0:
416,80,115190,1,0,0:0:0:0:
384,72,115253,1,0,0:0:0:0:
352,72,115315,1,0,0:0:0:0:
320,80,115378,1,0,0:0:0:0:
288,88,115440,1,0,0:0:0:0:
248,80,115503,1,0,0:0:0:0:
216,64,115565,1,0,0:0:0:0:
184,72,115628,1,0,0:0:0:0:
80,64,115753,5,0,0:0:0:0:
40,128,115878,2,0,P|96:160|168:128,1,100
216,152,116128,1,0,0:0:0:0:
296,176,116253,1,0,0:0:0:0:
288,256,116378,1,0,0:0:0:0:
200,232,116503,5,0,0:0:0:0:
168,224,116565,1,0,0:0:0:0:
128,232,116628,2,0,L|168:312,1,50
184,280,116753,2,0,L|232:344,1,50
240,304,116878,2,0,L|280:368,1,50
304,344,117003,1,0,0:0:0:0:
328,312,117065,1,0,0:0:0:0:
352,280,117128,1,0,0:0:0:0:
384,264,117190,1,0,0:0:0:0:
424,264,117253,1,0,0:0:0:0:
448,232,117315,1,0,0:0:0:0:
456,192,117378,1,0,0:0:0:0:
456,152,117440,1,0,0:0:0:0:
448,120,117503,1,0,0:0:0:0:
288,96,117628,6,0,P|344:128|376:200,1,100
264,248,117878,2,0,P|216:224|192:144,1,100
304,176,118128,5,0,0:0:0:0:
152,96,118378,1,0,0:0:0:0:
336,64,118628,1,0,0:0:0:0:
144,200,118878,1,0,0:0:0:0:
208,208,119128,2,0,P|232:272|112:312,1,200
104,312,119440,1,0,0:0:0:0:
120,280,119503,1,0,0:0:0:0:
152,280,119565,1,0,0:0:0:0:
184,280,119628,1,0,0:0:0:0:
208,280,119690,1,0,0:0:0:0:
240,280,119753,1,0,0:0:0:0:
272,272,119815,1,0,0:0:0:0:
296,256,119878,1,0,0:0:0:0:
320,320,120003,5,0,0:0:0:0:
288,184,120128,1,0,0:0:0:0:
400,240,120253,2,0,L|464:256,2,50
416,176,120503,2,0,L|464:224,2,50
464,136,120690,2,0,L|480:184,2,50
376,56,120878,2,0,L|328:40,1,50
360,88,121003,2,0,L|312:112,1,50
312,72,121128,2,0,L|256:80,4,50
80,72,121503,1,0,0:0:0:0:
144,176,121628,1,0,0:0:0:0:
240,80,121753,1,0,0:0:0:0:
48,160,121878,1,0,0:0:0:0:
248,176,122003,1,0,0:0:0:0:
128,344,122128,5,0,0:0:0:0:
320,280,122378,1,0,0:0:0:0:
184,136,122628,1,0,0:0:0:0:
344,136,122878,1,0,0:0:0:0:
436,198,123128,1,0,0:0:0:0:
446,238,123190,1,0,0:0:0:0:
436,278,123253,1,0,0:0:0:0:
409,309,123315,1,0,0:0:0:0:
370,324,123378,1,0,0:0:0:0:
336,240,123503,2,0,L|304:192,2,50
280,320,123753,2,0,L|256:376,2,50
224,232,124003,5,0,0:0:0:0:
136,208,124128,1,0,0:0:0:0:
126,247,124190,1,0,0:0:0:0:
136,287,124253,1,0,0:0:0:0:
163,318,124315,1,0,0:0:0:0:
201,333,124378,1,0,0:0:0:0:
288,272,124503,1,0,0:0:0:0:
200,200,124628,2,0,P|240:136|280:120,1,100
328,168,124878,2,0,P|400:184|440:216,1,100
392,248,125128,2,0,B|400:280|400:320|360:344|360:344|336:232,1,200
300,191,125503,5,0,0:0:0:0:
283,156,125565,1,0,0:0:0:0:
259,125,125628,1,0,0:0:0:0:
230,99,125690,1,0,0:0:0:0:
197,79,125753,1,0,0:0:0:0:
160,66,125815,1,0,0:0:0:0:
122,60,125878,1,0,0:0:0:0:
152,136,126003,1,0,0:0:0:0:
320,88,126128,5,0,0:0:0:0:
448,120,126378,1,0,0:0:0:0:
440,240,126628,1,0,0:0:0:0:
304,248,126878,1,0,0:0:0:0:
240,280,127128,6,0,L|176:328,4,75.0000028610231
208,216,127440,2,0,L|200:120,1,75.0000028610231
272,168,127565,2,0,L|328:112,1,75.0000028610231
368,168,127690,2,0,L|448:160,5,75.0000028610231
376,96,128128,2,0,L|312:56,1,75.0000028610231
296,120,128253,2,0,L|216:128,1,75.0000028610231
256,176,128378,2,0,L|216:240,1,75.0000028610231
176,192,128503,2,0,L|80:176,1,75.0000028610231
152,104,128628,6,0,L|208:48,4,75.0000028610231
24,24,129003,1,0,0:0:0:0:
232,248,129128,2,0,P|216:160|368:24,1,300.000011444092
448,200,129503,1,0,0:0:0:0:
288,288,129628,1,0,0:0:0:0:
96,240,129753,1,0,0:0:0:0:
392,256,129878,1,0,0:0:0:0:
176,288,130003,1,0,0:0:0:0:
72,128,130128,5,0,0:0:0:0:
480,120,130378,1,0,0:0:0:0:
192,304,130628,1,0,0:0:0:0:
48,24,130878,1,0,0:0:0:0:
176,80,131128,1,0,0:0:0:0:
176,80,131190,1,0,0:0:0:0:
176,80,131253,1,0,0:0:0:0:
176,80,131315,1,0,0:0:0:0:
176,80,131378,6,0,P|256:48|368:96,1,200,0|2,0:0|0:0,0:0:0:0:
360,312,131878,2,0,P|256:352|160:312,1,200,0|2,0:0|0:0,0:0:0:0:
64,104,132378,2,0,P|40:192|96:320,1,200,0|2,0:0|0:0,0:0:0:0:
448,104,132878,2,0,P|472:192|416:320,1,200,0|2,0:0|0:0,0:0:0:0:
272,280,133378,2,0,P|176:288|128:176,1,200,0|2,0:0|0:0,0:0:0:0:
192,128,133878,2,0,B|240:168|232:208|232:208|256:168|256:168|296:224,1,200,0|2,0:0|0:0,0:0:0:0:
392,272,134253,1,0,0:0:0:0:
136,64,134378,1,0,0:0:0:0:
136,296,134628,1,0,0:0:0:0:
416,112,134878,1,0,0:0:0:0:
32,160,135128,2,0,L|248:160,1,200
264,160,135378,5,0,0:0:0:0:
280,184,135440,1,0,0:0:0:0:
312,200,135503,1,0,0:0:0:0:
344,192,135565,1,0,0:0:0:0:
368,160,135628,1,0,0:0:0:0:
336,120,135711,1,0,0:0:0:0:
328,64,135794,1,0,0:0:0:0:
352,24,135878,2,0,L|440:40,2,50
104,72,136128,5,0,0:0:0:0:
96,112,136190,1,0,0:0:0:0:
96,144,136253,1,0,0:0:0:0:
96,176,136315,1,0,0:0:0:0:
96,216,136378,1,0,0:0:0:0:
152,304,136503,6,0,L|192:336,2,50
272,296,136690,2,0,L|328:288,2,50
368,352,136878,2,0,P|432:328|480:184,1,200
392,104,137378,2,0,L|296:104,1,66.6666666666667
360,80,137544,2,0,L|312:32,1,66.6666666666667
240,96,137690,1,0,0:0:0:0:
248,144,137752,1,0,0:0:0:0:
288,184,137815,1,0,0:0:0:0:
333,192,137877,1,0,0:0:0:0:
432,152,138003,1,0,0:0:0:0:
440,152,138128,2,0,P|408:232|328:288,1,150
256,328,138378,2,0,P|184:336|112:312,1,133.333333333333
48,192,138628,2,0,P|112:224|200:216,1,133.333333333333
456,192,138878,2,0,P|392:224|320:224,1,133.333333333333
48,72,139128,2,0,P|128:120|224:104,1,150
208,96,139378,6,0,B|224:80|224:80|224:104|224:104|248:88|248:88|240:112|240:112|264:104|264:104|264:120|264:120|280:112|280:112|288:136|288:136|304:120|304:120,1,200
288,224,139711,1,0,0:0:0:0:
352,144,139878,1,0,0:0:0:0:
368,88,139961,1,0,0:0:0:0:
424,64,140044,1,0,0:0:0:0:
456,128,140128,1,0,0:0:0:0:
392,176,140253,1,0,0:0:0:0:
448,240,140378,1,0,0:0:0:0:
368,272,140503,1,0,0:0:0:0:
352,344,140628,2,0,P|312:320|288:248,1,100
312,240,140815,1,0,0:0:0:0:
304,200,140878,1,0,0:0:0:0:
272,184,140940,1,0,0:0:0:0:
232,168,141003,1,0,0:0:0:0:
224,128,141065,1,0,0:0:0:0:
248,88,141128,1,0,0:0:0:0:
240,56,141190,1,0,0:0:0:0:
200,48,141253,1,0,0:0:0:0:
72,120,141378,5,0,0:0:0:0:
136,160,141461,1,0,0:0:0:0:
104,232,141544,1,0,0:0:0:0:
112,304,141628,2,0,P|176:336|264:320,1,133.333333333333
272,256,141878,5,0,0:0:0:0:
368,328,141961,5,0,0:0:0:0:
424,296,142044,1,0,0:0:0:0:
432,224,142128,1,0,0:0:0:0:
368,192,142211,1,0,0:0:0:0:
424,120,142294,1,0,0:0:0:0:
360,72,142378,5,0,0:0:0:0:
64,128,142628,1,0,0:0:0:0:
288,328,142878,1,0,0:0:0:0:
