osu file format v5

[General]
AudioFilename: 006-the_fall_of_troy-oh_the_casino.mp3
AudioLeadIn: 0
PreviewTime: -1
Countdown: 1
SampleSet: Normal
StackLeniency: 0.7
Mode: 0

[Metadata]
Title:Oh, The Casino!
Artist:The Fall Of Troy
Creator:CheeseWarlock
Version:Insane
Source:
Tags:

[Difficulty]
HPDrainRate:7
CircleSize:6
OverallDifficulty:6
SliderMultiplier:0.8
SliderTickRate:1

[Events]
//Background and Video events
//Break Periods
2,60436,71847
//Storyboard Layer 0 (Background)
//Storyboard Layer 1 (Failing)
//Storyboard Layer 2 (Passing)
//Storyboard Layer 3 (Foreground)
//Storyboard Sound Samples
//Background Colour Transformations
3,100,168,116,19

[TimingPoints]
140,188.999999999999,4,1,0,100
17546,266.333333333333,3,1,0,100
27932,261.433333333332,4,1,0,100
30546,263.333333333332,4,1,0,100
39762,261.033333333332,4,1,0,100
42894,188.412623645784,4,1,0,100
58720,189.612623645784,4,1,0,100
60236,259.508733624453,4,1,0,100
63350,255.208733624452,4,1,0,100
77131,259.908733624453,4,1,0,100
84928,258.308733624452,4,1,0,100
100426,255.408733624451,4,1,0,100
109620,189.280418940661,4,1,0,100
113938,198.079245283018,4,1,0,100
116906,195.579245283019,4,1,0,100
121404,193.679245283019,4,1,0,100
125858,196.979245283019,4,1,0,100
127424,271.879245283019,4,1,0,100
129308,271.179245283019,4,1,0,100

[Colours]
Combo1 : 244,189,230
Combo2 : 249,94,28
Combo3 : 172,197,223
Combo4 : 250,244,135

[HitObjects]
80,320,8833,1,0
176,320,9117,1,0
272,320,9400,1,2
272,320,9589,1,2
272,320,9778,1,0
272,224,10062,1,0
176,224,10345,1,2
176,224,10534,1,2
176,224,10723,1,0
176,128,11007,1,0
272,128,11290,1,2
272,128,11479,1,2
272,128,11668,2,4,C|400:128,2,120
208,128,12424,2,0,C|80:128,2,120
272,128,13180,5,0
272,224,13464,1,0
272,320,13747,1,2
336,320,13936,1,2
400,320,14125,1,0
320,272,14409,1,0
224,272,14692,1,2
160,272,14881,1,2
96,272,15070,1,0
96,176,15354,1,0
96,272,15637,1,2
160,272,15826,1,2
224,272,16015,1,4
224,176,16299,1,4
288,112,16582,1,4
288,176,16771,2,4,C|192:80,2,120
304,336,17546,6,4,B|208:336,3,80
128,336,18611,1,0
128,240,18877,1,0
128,144,19144,2,0,B|188:52|368:32,1,240
400,96,20209,1,0
448,176,20475,1,0
464,256,20742,2,2,B|288:256,1,160
304,160,21540,2,2,B|128:160,1,160
144,240,22339,1,0
32,32,23138,5,0
48,80,23272,1,0
64,128,23405,1,0
128,64,23671,1,0
144,112,23804,1,0
160,160,23937,1,0
416,128,25003,5,0
416,32,25269,1,0
336,80,25535,2,2,B|192:176,2,160
416,32,26867,1,0
480,96,27133,1,0
416,160,27400,1,0
448,192,27533,1,0
480,224,27666,2,0,B|400:304,1,80
256,80,28716,5,0
192,128,28977,1,2
176,160,29108,1,2
192,192,29239,1,2
256,240,29500,1,0
336,256,29762,1,0
416,240,30023,1,2
448,208,30154,1,2
464,160,30284,1,2
448,80,30546,6,0,B|368:16,1,80
304,32,31072,1,0
208,32,31335,2,0,B|128:80,1,80
96,144,31862,1,0
96,224,32125,2,0,B|160:304,1,80
224,320,32652,1,0
304,288,32915,2,0,B|336:192,1,80
352,128,33442,2,2,B|416:64,1,80
448,64,33837,1,0
496,64,33969,1,0
496,128,34232,2,2,B|416:176,1,80
384,192,34627,1,0
336,192,34759,1,0
240,192,35022,2,2,B|144:192,1,80
112,192,35417,1,0
64,192,35549,2,0,B|16:80,2,120
112,272,36602,1,2
288,112,37655,5,0
368,112,37919,1,0
416,112,38050,1,0
464,112,38182,2,4,B|354:209|534:148|400:256,2,160
288,64,39762,1,0
256,144,40023,1,0
240,192,40153,1,0
224,240,40284,1,0
80,336,41328,5,0
128,272,41589,1,0
160,304,41719,1,0
192,336,41850,1,0
256,272,42111,1,0
320,336,42372,1,0
352,304,42502,1,0
384,272,42633,1,0
480,336,42894,5,0
480,240,43176,1,0
480,144,43459,1,2
480,144,43648,1,2
480,144,43836,1,0
384,144,44119,1,0
432,64,44402,1,2
432,64,44590,1,2
432,64,44779,1,0
480,144,45062,1,0
384,144,45344,1,2
384,144,45533,1,2
384,144,45721,1,4
288,176,46004,1,4
240,256,46287,1,4
240,320,46476,2,4,B|112:320,2,120
304,320,47230,5,0
304,224,47512,1,0
400,224,47795,1,2
400,160,47984,1,2
400,224,48172,1,0
352,304,48455,1,0
240,304,48738,1,2
240,224,48926,1,2
240,304,49115,1,0
160,256,49398,1,0
160,160,49681,1,2
160,160,49869,1,2
160,160,50058,1,4
224,80,50340,1,4
304,128,50623,1,4
304,64,50812,2,4,B|224:160,2,106.666666666667
368,112,51566,6,0,B|496:112,1,120
480,208,52131,1,2
432,256,52320,1,2
384,304,52509,2,0,B|384:160,1,120
384,96,53074,1,2
384,96,53263,1,2
384,96,53451,2,0,B|240:96,1,120
208,96,54017,1,2
208,96,54205,1,2
208,96,54394,2,4,B|208:224,2,120
208,96,55148,2,4,B|80:96,2,120
272,96,55894,5,0
352,48,56176,1,0
432,96,56459,1,2
432,96,56648,1,2
432,96,56837,1,0
432,192,57119,1,0
352,256,57402,1,2
352,256,57591,1,2
352,256,57780,1,0
272,192,58063,1,0
192,256,58345,1,2
192,256,58534,1,2
192,256,58720,2,4,B|64:256,2,120
192,256,59478,2,4,B|192:128,2,120
160,224,60236,1,6
432,32,72792,6,2,B|384:112,1,80
320,144,73303,2,0,B|208:144,2,80
384,192,74068,1,0
416,272,74323,1,2
368,336,74579,1,2
288,336,74834,1,0
208,304,75089,2,2,B|128:224,1,80
80,192,75600,2,2,B|80:64,1,120
80,32,76110,1,0
80,112,76365,2,2,B|208:64,1,120
240,48,76876,1,0
320,48,77123,1,0
400,80,77390,1,0
432,160,77650,1,0
432,240,77910,1,0
448,288,78040,1,2
432,240,78170,1,0
352,192,78430,6,0,B|278:123|192:192,3,160
144,240,80249,2,0,B|32:368,2,160
176,160,81549,1,0
224,96,81809,1,2
256,64,81939,1,0
304,48,82069,1,0
352,48,82199,1,0
400,48,82329,1,2
256,192,82589,12,0,85707
384,48,86477,1,4
112,144,86994,1,4
80,240,87252,1,4
448,224,87769,1,4
416,320,88027,1,4
320,96,88802,1,4
480,320,89577,1,4
80,112,90352,1,4
80,304,91127,2,2,C|128:256|176:304|224:256|272:304|320:256|368:304,1,400
448,176,92677,5,0
208,48,93193,1,0
304,48,93452,1,0
64,288,93968,1,0
64,176,94227,1,4
256,192,94485,12,0,95776
128,48,96551,5,0
208,112,96810,1,0
272,176,97068,1,0
240,208,97197,1,0
272,240,97326,6,2,L|368:208|320:144,1,160
368,288,98101,6,2,L|464:256|416:192,1,160
192,352,98876,5,0
288,320,99134,1,0
256,288,99264,1,0
224,256,99393,1,0
48,288,99651,6,2,L|144:256|96:192,1,160
224,160,100426,6,0,L|244:83|352:80,1,160
368,224,101192,6,0,L|388:147|496:144,1,160
288,144,101958,5,0
224,64,102213,1,0
192,80,102341,1,0
160,112,102469,1,0
64,112,102724,5,2
48,208,102980,1,2
128,272,103235,1,2
224,240,103490,6,2,L|272:240,4,40
112,208,104257,6,2,L|160:208,4,40
176,112,105023,6,2,L|224:112,4,40
288,160,105789,6,2,L|336:160,4,40
256,192,106555,12,2,107832
256,192,108088,12,2,108599
256,192,108854,12,2,109365
144,336,109620,5,0
240,336,109902,1,0
144,336,110184,1,2
80,336,110373,1,2
144,336,110561,1,0
240,336,110843,1,0
240,240,111126,1,2
240,240,111314,1,2
240,240,111502,1,0
144,240,111785,1,0
144,144,112067,1,2
192,96,112255,1,2
240,144,112444,1,4
320,96,112726,1,4
400,144,113009,1,4
448,224,113197,2,4,L|480:340|384:256,1,240
352,208,113938,5,0
256,224,114235,1,0
160,224,114532,2,2,B|64:224,2,80
160,128,115225,1,0
256,128,115522,1,2
256,128,115720,1,2
256,128,115918,1,0
160,128,116215,1,0
208,208,116513,1,2
208,272,116711,1,2
208,336,116906,1,4
208,240,117199,1,4
208,336,117492,1,4
272,336,117688,2,4,L|400:336,2,120
208,336,118470,5,0
272,272,118764,1,0
272,176,119057,1,2
336,144,119252,1,2
336,208,119448,1,0
240,176,119741,1,0
144,176,120035,1,2
80,144,120230,1,2
80,208,120426,1,0
176,176,120719,1,0
176,80,121013,1,2
176,80,121208,1,2
176,80,121404,2,4,L|320:80,2,120
224,32,122178,2,4,L|224:176,2,120
288,48,122953,5,0
304,144,123243,1,0
224,96,123534,2,2,B|128:96,2,80
128,96,124212,1,0
224,96,124502,1,2
176,144,124696,1,2
128,96,124890,1,0
128,192,125180,1,0
128,288,125471,1,2
192,288,125664,1,2
256,288,125858,1,4
336,224,126153,1,4
272,144,126448,1,4
240,192,126645,2,4,C|112:192,2,120
368,192,127424,5,2
368,96,127695,1,2
256,48,127967,1,2
144,96,128239,1,2
144,224,128511,1,2
256,192,128851,1,2
256,48,129308,1,6
