osu file format v14

[General]
AudioFilename: Lost.mp3
AudioLeadIn: 0
PreviewTime: 78847
Countdown: 0
SampleSet: Soft
StackLeniency: 0.7
Mode: 0
LetterboxInBreaks: 0
WidescreenStoryboard: 0

[Editor]
DistanceSpacing: 1
BeatDivisor: 4
GridSize: 4
TimelineZoom: 0.9999994

[Metadata]
Title:Lost
TitleUnicode:Lost
Artist:The Eden Project
ArtistUnicode:The Eden Project
Creator:Bearizm
Version:Normal
Source:
Tags:wendao wendao2000 Harez entrance ep drum and bass dnb nocopyrightsounds ncs
BeatmapID:845623
BeatmapSetID:247747

[Difficulty]
HPDrainRate:2
CircleSize:3.2
OverallDifficulty:2
ApproachRate:3.5
SliderMultiplier:1
SliderTickRate:1

[Events]
//Background and Video events
0,0,"BG.jpg",0,0
//Break Periods
2,136222,138217
2,142797,144217
//Storyboard Layer 0 (Background)
//Storyboard Layer 1 (Fail)
//Storyboard Layer 2 (Pass)
//Storyboard Layer 3 (Foreground)
//Storyboard Sound Samples

[TimingPoints]
1222,375,4,2,1,70,1,0
37222,-100,4,2,1,70,0,0
49222,-100,4,2,1,80,0,0
61222,-100,4,1,1,80,0,0
67222,-100,4,1,1,90,0,0
68722,-100,4,1,1,80,0,0
70222,-100,4,1,1,70,0,0
71722,-100,4,1,1,60,0,0
73222,-100,4,2,1,60,0,0
78847,-100,4,2,1,100,0,0
79222,-100,4,2,1,100,0,1
91222,-100,4,2,1,100,0,0
91597,-100,4,2,1,100,0,1
103222,-100,4,2,1,90,0,0
127222,-100,4,2,1,100,0,1
133034,-100,4,2,1,100,0,0
139597,-100,4,2,1,40,0,0
166222,-100,4,2,1,80,0,0
178222,-100,4,1,1,80,0,0
184222,-100,4,1,1,90,0,0
185722,-100,4,1,1,80,0,0
187222,-100,4,1,1,70,0,0
187972,-100,4,1,1,60,0,0
188722,-100,4,1,1,50,0,0
189472,-100,4,1,1,40,0,0
190222,-100,4,1,1,30,0,0
194722,-100,4,1,1,5,0,0
196222,-90.9090909090909,4,2,1,100,0,1
220222,-100,4,1,1,70,0,0
220972,-100,4,1,1,75,0,0
221722,-100,4,1,1,80,0,0
222472,-100,4,1,1,85,0,0
223222,-100,4,1,1,75,0,0
223597,-100,4,1,1,80,0,0
223972,-100,4,1,1,85,0,0
224347,-100,4,1,1,90,0,0
224722,-100,4,1,1,95,0,0
224909,-100,4,1,1,90,0,0
225097,-100,4,1,1,85,0,0
225284,-100,4,1,1,80,0,0
225472,-100,4,1,1,70,0,0
225659,-100,4,1,1,60,0,0
225847,-100,4,1,1,50,0,0
226034,-100,4,1,1,40,0,0
226222,-100,4,2,1,100,0,1
247222,-100,4,2,1,90,0,0
250222,-100,4,2,1,100,0,1
274222,-100,4,2,1,30,0,0
279847,-100,4,2,1,5,0,0

[Colours]
Combo1 : 128,128,255
Combo2 : 255,128,64
Combo3 : 221,60,0
Combo4 : 128,255,255

[HitObjects]
164,84,37222,6,0,B|172:136|172:136|160:232|160:232|168:284,1,200,0|8,1:0|1:0,0:0:0:0:
252,332,38347,1,0,0:0:0:0:
352,336,38722,2,0,P|424:304|384:212,1,200,0|8,1:0|1:0,0:0:0:0:
188,244,40222,6,0,B|136:252|136:252|68:192|108:116,1,200,0|8,1:0|1:0,0:0:0:0:
168,40,41347,1,0,0:0:0:0:
224,124,41722,2,0,P|328:136|372:60,1,200,0|8,1:0|1:0,0:0:0:0:
512,204,43222,6,0,P|408:192|364:268,1,200,0|8,1:0|1:0,0:0:0:0:
192,368,44722,2,0,B|180:316|180:316|204:224|204:224|197:174,1,200,0|8,1:0|1:0,0:0:0:0:
0,156,46222,6,0,P|99:170|118:87,1,200,0|8,1:0|1:0,0:0:0:0:
312,24,47722,2,0,B|324:72|324:72|312:172|312:172|320:224,1,200,0|8,1:0|1:0,0:0:0:0:
492,320,49222,6,0,B|448:292|404:316|348:344|296:320,1,200,0|8,1:0|1:0,0:0:0:0:
100,364,50722,2,0,L|88:264,1,100,0|0,1:0|1:0,0:0:0:0:
156,192,51472,2,0,B|164:140|164:140|152:92,1,100,8|0,1:0|0:0,0:0:0:0:
68,40,52222,6,0,P|166:71|219:1,1,200,0|8,1:0|1:0,0:0:0:0:
416,44,53722,2,0,B|420:92|420:92|400:140,1,100,0|0,1:0|1:0,0:0:0:0:
324,204,54472,2,0,B|328:256|328:256|356:304,1,100,8|0,1:0|1:0,0:0:0:0:
448,328,55222,6,0,B|396:324|396:324|304:356|304:356|252:352,1,200,0|8,1:0|1:0,0:0:0:0:
60,296,56722,2,0,P|48:248|64:200,1,100,0|0,1:0|1:0,0:0:0:0:
144,144,57472,2,0,L|244:152,1,100,8|0,1:0|0:0,0:0:0:0:
344,156,58222,6,0,P|320:58|237:68,1,200,0|8,1:0|1:0,0:0:0:0:
244,268,59722,2,0,L|344:260,2,100,0|0|8,1:0|1:0|1:0,0:0:0:0:
172,340,60847,1,0,1:0:0:0:
100,272,61222,6,0,L|108:172,1,100,0|0,1:0|0:0,0:0:0:0:
208,156,61972,2,0,L|216:56,1,100,8|0,0:0|0:0,0:0:0:0:
316,56,62722,2,0,L|324:156,1,100,0|0,0:0|0:0,0:0:0:0:
424,172,63472,2,0,L|432:272,1,100,8|0,0:0|0:0,0:0:0:0:
360,340,64222,6,0,P|268:312|264:220,1,200,0|8,0:0|0:0,0:0:0:0:
300,128,65347,1,0,0:0:0:0:
228,60,65722,2,0,B|176:52|176:52|80:80|80:80|32:72,1,200,0|8,0:0|0:0,0:0:0:0:
72,268,67222,6,0,L|64:368,1,100,0|0,0:0|0:0,0:0:0:0:
164,376,67972,2,0,L|172:276,1,100,8|0,0:0|0:0,0:0:0:0:
236,200,68722,2,0,P|288:212|332:196,1,100,0|0,0:0|0:0,0:0:0:0:
328,96,69472,2,0,P|276:84|232:100,1,100,8|0,0:0|0:0,0:0:0:0:
152,160,70222,6,0,B|104:172|104:172|52:164,1,100,0|0,0:0|0:0,0:0:0:0:
54,64,70972,2,0,B|102:52|102:52|154:60,1,100,8|0,0:0|0:0,0:0:0:0:
244,96,71722,2,0,L|236:200,1,100,0|0,0:0|0:0,0:0:0:0:
320,250,72472,2,0,L|328:146,1,100,8|0,0:0|0:0,0:0:0:0:
256,192,73222,12,0,77722,1:0:0:0:
327,150,79222,6,0,B|228:140|228:140|176:156,2,150,4|2|8,1:0|0:0|1:0,0:0:0:0:
388,232,80722,2,0,L|376:80,2,150,0|2|8,1:0|0:0|1:0,0:0:0:0:
336,320,82222,6,0,P|264:348|196:316,2,150,0|2|8,1:0|0:0|1:0,0:0:0:0:
268,245,83722,2,0,B|272:193|272:193|260:141|260:141|264:97,2,150,0|2|8,1:0|0:0|1:0,0:0:0:0:
200,320,85222,6,0,B|100:308|100:308|52:320,1,150,0|2,1:0|0:0,0:0:0:0:
4,176,86347,1,8,1:0:0:0:
72,104,86722,2,0,P|141:121|161:190,2,150,0|2|8,1:0|0:0|1:0,0:0:0:0:
4,176,88222,6,0,B|16:228|16:228|8:276|8:276|16:324,1,150,0|2,1:0|0:0,0:0:0:0:
160,372,89347,1,8,1:0:0:0:
200,280,89722,2,0,B|300:268|300:268|348:284,1,150,0|2,1:0|0:0,0:0:0:0:
496,288,90847,2,0,P|508:240|508:188,1,100,8|0,1:0|3:0,0:0:0:0:
428,132,91597,6,0,L|328:140,1,100,12|2,1:0|0:0,0:0:0:0:
240,88,92347,1,8,1:0:0:0:
164,152,92722,2,0,B|184:252|184:252|168:300,2,150,0|2|8,1:0|0:0|1:0,0:0:0:0:
76,100,94222,6,0,P|152:104|188:44,2,150,0|2|8,1:0|0:0|1:0,0:0:0:0:
8,172,95722,2,0,L|28:320,1,150,0|2,1:0|0:0,0:0:0:0:
168,376,96847,1,8,1:0:0:0:
236,300,97222,6,0,P|212:256|200:208,2,100,0|12|2,1:0|1:0|0:0,0:0:0:0:
328,340,98347,1,12,1:0:0:0:
404,276,98722,2,0,L|504:280,2,100,0|12|2,1:3|1:0|0:0,0:0:0:0:
328,212,99847,1,12,1:0:0:0:
412,156,100222,6,0,B|428:56|428:56|416:8,2,150,0|2|0,1:0|0:0|1:0,0:0:0:0:
328,212,101722,2,0,L|228:220,1,100,2|12,0:0|1:0,0:0:0:0:
140,176,102472,2,0,L|40:168,1,100,2|12,0:0|1:0,0:0:0:0:
8,264,103222,5,4,1:0:0:0:
76,340,103597,2,0,P|169:347|193:257,1,200,8|8,1:0|1:0,0:0:0:0:
140,176,104722,1,0,1:0:0:0:
188,88,105097,2,0,B|240:80|240:80|336:108|336:108|384:100,1,200,8|8,1:0|1:0,0:0:0:0:
476,64,106222,6,0,L|468:164,1,100,0|8,1:0|1:0,0:0:0:0:
392,232,106972,2,0,L|400:332,2,100,2|8|0,0:0|1:0|1:0,0:0:0:0:
356,140,108097,2,0,P|304:104|236:196,1,200,8|8,1:0|1:0,0:0:0:0:
308,260,109222,6,0,P|232:232|180:268,2,150,0|2|8,1:0|0:0|1:0,0:0:0:0:
288,360,110722,2,0,L|188:352,1,100,0|8,1:0|1:0,0:0:0:0:
92,376,111472,2,0,B|80:324|80:324|92:276,1,100,2|8,0:0|1:0,0:0:0:0:
168,212,112222,6,0,L|152:60,2,150,0|2|8,1:0|0:0|1:0,0:0:0:0:
256,260,113722,2,0,P|308:264|348:240,1,100,0|8,1:0|1:0,0:0:0:0:
392,152,114472,2,0,L|384:52,1,100,2|8,0:0|1:0,0:0:0:0:
292,12,115222,5,4,1:1:0:0:
216,76,115597,2,0,B|164:72|164:72|68:100|68:100|16:96,1,200,8|8,1:0|1:0,0:0:0:0:
4,196,116722,1,0,1:0:0:0:
48,284,117097,2,0,P|128:308|180:216,1,200,8|8,1:0|1:0,0:0:0:0:
256,156,118222,6,0,L|356:168,2,100,0|8|2,1:0|1:0|0:0,0:0:0:0:
192,80,119347,1,8,1:0:0:0:
110,139,119722,2,0,P|94:191|110:239,2,100,0|8|2,1:0|1:0|0:0,0:0:0:0:
192,80,120847,1,8,1:0:0:0:
268,148,121222,6,0,L|252:300,2,150,0|2|8,1:0|0:0|1:0,0:0:0:0:
368,152,122722,2,0,L|352:0,2,150,0|2|8,1:0|0:0|1:0,0:0:0:0:
452,204,124222,6,0,B|444:256|444:256|456:308|456:300,1,100,0|8,1:0|1:0,0:0:0:0:
376,360,124972,2,0,L|276:348,1,100,2|8,0:0|1:0,0:0:0:0:
192,296,125722,2,0,L|44:316,2,150,0|2|8,1:0|0:0|1:0,0:0:0:0:
280,248,127222,6,0,P|312:180|272:116,1,150,12|8,1:0|1:0,0:0:0:0:
128,96,128347,1,8,1:0:0:0:
144,196,128722,2,0,L|160:348,1,150,8|8,1:0|1:0,0:0:0:0:
284,260,129847,1,8,1:0:0:0:
300,160,130222,6,0,L|316:8,1,150,8|8,1:0|1:0,0:0:0:0:
440,96,131347,1,8,1:0:0:0:
448,196,131722,2,0,L|456:296,1,100,0|8,1:0|1:0,0:0:0:0:
384,364,132472,1,8,1:0:0:0:
304,308,132847,6,0,P|276:308|252:312,1,50,8|0,1:0|1:0,0:0:0:0:
120,200,139597,6,0,L|112:96,2,100,0|0|0,0:0|0:0|0:0,0:0:0:0:
204,256,140722,2,0,B|252:244|252:244|352:264|352:264|400:252,2,200,2|2|0,0:0|0:0|0:0,0:0:0:0:
108,284,142597,1,0,0:0:0:0:
192,120,145597,6,0,B|244:132|244:132|292:120,2,100,0|0|0,0:0|0:0|0:0,0:0:0:0:
96,100,146722,2,0,P|32:180|72:256,2,200,2|2|2,0:0|0:0|0:0,0:0:0:0:
172,168,148597,6,0,P|356:126|183:50,1,500,0|0,0:0|0:0,0:0:0:0:
96,100,150847,1,0,0:0:0:0:
40,184,151222,6,0,B|52:284|52:284|40:332,2,150
96,100,152722,2,0,B|148:96|148:96|240:132|240:132|288:128,1,200,2|2,0:0|0:0,0:0:0:0:
488,112,154222,1,2,0:0:0:0:
488,112,156472,1,2,0:0:0:0:
408,296,157222,6,0,B|362:315|310:291|310:291|262:315|214:291,1,200,2|0,0:0|0:0,0:0:0:0:
88,136,158722,2,0,L|80:36,2,100,2|0|2,0:0|0:0|0:0,0:0:0:0:
176,184,159847,6,0,L|164:384,2,200,2|0|0,0:0|0:0|0:0,0:0:0:0:
348,80,162097,2,0,P|438:130|424:212,1,200,0|0,0:0|0:0,0:0:0:0:
328,244,163222,6,0,B|228:232|228:232|180:248,2,150,2|0|0,0:0|0:0|0:0,0:0:0:0:
388,324,164722,2,0,L|376:124,1,200,2|0,0:0|0:0,0:0:0:0:
200,220,166222,6,0,P|124:216|96:104,2,200,0|8|0,1:0|1:0|1:0,0:0:0:0:
288,176,168097,1,0,1:0:0:0:
280,276,168472,2,0,L|272:376,1,100,8|0,1:0|0:0,0:0:0:0:
368,348,169222,6,0,L|384:144,2,200,0|8|0,1:0|1:0|1:0,0:0:0:0:
268,368,171097,1,0,1:0:0:0:
196,296,171472,2,0,P|144:288|100:304,1,100,8|0,1:0|1:0,0:0:0:0:
12,252,172222,6,0,B|24:204|24:204|8:104|8:104|20:56,1,200,0|8,1:0|1:0,0:0:0:0:
220,28,173722,2,0,L|232:128,1,100,0|0,1:0|1:0,0:0:0:0:
320,176,174472,2,0,L|308:276,1,100,8|0,1:0|0:0,0:0:0:0:
228,336,175222,6,0,P|124:324|116:240,2,200,0|8|0,1:0|1:0|1:0,0:0:0:0:
308,276,177097,1,0,1:0:0:0:
284,180,177472,2,0,L|180:188,1,100,8|0,1:0|1:0,0:0:0:0:
100,132,178222,6,0,P|84:80|96:36,1,100,0|0,0:0|0:0,0:0:0:0:
196,36,178972,2,0,P|212:88|200:132,1,100,8|0,0:0|0:0,0:0:0:0:
144,212,179722,2,0,L|156:316,1,100,0|0,0:0|0:0,0:0:0:0:
248,348,180472,2,0,L|236:244,1,100,8|0,0:0|0:0,0:0:0:0:
316,188,181222,6,0,P|388:208|444:112,1,200,0|8,0:0|0:0,0:0:0:0:
384,36,182347,1,0,0:0:0:0:
284,44,182722,2,0,L|84:60,1,200,0|8,0:0|0:0,0:0:0:0:
32,144,183847,1,0,0:0:0:0:
120,192,184222,6,0,B|132:240|132:240|120:292,1,100,0|0,0:0|0:0,0:0:0:0:
184,364,184972,2,0,L|284:352,1,100,8|0,0:0|0:0,0:0:0:0:
364,296,185722,2,0,P|376:248|360:200,1,100,0|0,0:0|0:0,0:0:0:0:
288,132,186472,2,0,L|300:28,1,100,8|0,0:0|0:0,0:0:0:0:
400,20,187222,6,0,P|428:64|432:112,1,100,0|0,0:0|0:0,0:0:0:0:
376,192,187972,2,0,P|360:240|368:292,1,100,8|0,0:0|0:0,0:0:0:0:
284,344,188722,2,0,L|184:340,1,100,0|0,0:0|0:0,0:0:0:0:
140,252,189472,2,0,L|240:256,1,100,8|0,1:0|0:0,0:0:0:0:
256,192,190222,12,0,194722,2:0:0:0:
120,288,196222,6,0,L|112:204,2,82.5000025177003,6|2|2,1:2|0:0|0:0,0:0:0:0:
188,336,197065,2,0,P|236:344|268:332,2,82.5000025177003,2|2|2,0:0|0:0|0:0,0:0:0:0:
225,262,197909,2,0,L|233:174,1,82.5000025177003,2|2,0:0|0:0,0:0:0:0:
292,120,198472,1,8,1:0:0:0:
356,172,198753,2,0,P|400:184|440:172,1,82.5000025177003,2|2,0:0|0:0,0:0:0:0:
320,248,199503,6,0,L|328:332,1,82.5000025177003,2|2,0:0|0:0,0:0:0:0:
252,360,200065,2,0,L|244:276,1,82.5000025177003,2|2,0:0|0:0,0:0:0:0:
188,220,200628,2,0,P|144:212|108:224,2,82.5000025177003,2|2|2,0:0|0:0|0:0,0:0:0:0:
268,200,201472,2,0,P|288:180|304:124,2,82.5000025177003,8|2|2,1:0|0:0|0:0,0:0:0:0:
272,256,202222,6,0,L|279:338,1,82.5000025177003,4|2,1:0|0:0,0:0:0:0:
352,376,202784,1,2,0:0:0:0:
416,324,203065,2,0,P|448:340|496:348,2,82.5000025177003,2|2|2,0:0|0:0|0:0,0:0:0:0:
380,252,203909,2,0,L|388:168,1,82.5000025177003,2|2,0:0|0:0,0:0:0:0:
348,96,204472,1,8,1:0:0:0:
280,144,204753,2,0,P|232:148|196:136,1,82.5000025177003,2|2,0:0|0:0,0:0:0:0:
72,88,205503,6,0,L|80:172,1,82.5000025177003,2|2,0:0|0:0,0:0:0:0:
40,244,206065,2,0,L|28:328,2,82.5000025177003,2|2|2,0:0|0:0|0:0,0:0:0:0:
124,244,206909,2,0,P|172:252|204:240,1,82.5000025177003,2|2,0:0|0:0,0:0:0:0:
268,192,207472,1,8,1:0:0:0:
340,232,207753,2,0,L|332:316,1,82.5000025177003,2|0,0:0|0:0,0:0:0:0:
280,336,208222,6,0,P|224:324|196:332,2,82.5000025177003,4|2|2,1:0|0:0|0:0,0:0:0:0:
360,360,209065,2,0,L|444:352,1,82.5000025177003,2|2,0:0|0:0,0:0:0:0:
504,296,209628,1,2,0:0:0:0:
436,248,209909,2,0,P|456:196|460:168,2,82.5000025177003,2|2|8,0:0|0:0|1:0,0:0:0:0:
360,276,210753,1,2,0:0:0:0:
284,248,211034,1,2,0:0:0:0:
164,184,211503,6,0,L|80:192,2,82.5000025177003,2|2|2,0:0|0:0|0:0,0:0:0:0:
224,128,212347,2,0,L|308:136,1,82.5000025177003,2|2,0:0|0:0,0:0:0:0:
388,144,212909,2,0,P|403:182|401:222,1,82.5000025177003,2|2,0:0|0:0,0:0:0:0:
348,284,213472,2,0,L|356:372,2,82.5000025177003,8|2|2,1:0|0:0|0:0,0:0:0:0:
308,248,214222,6,0,P|260:236|228:244,1,82.5000025177003,4|2,1:0|0:0,0:0:0:0:
164,292,214784,2,0,L|80:284,1,82.5000025177003,2|2,0:0|0:0,0:0:0:0:
20,232,215347,2,0,P|8:176|8:148,1,82.5000025177003,2|2,0:0|0:0,0:0:0:0:
64,92,215909,1,2,1:2:0:0:
132,140,216190,1,0,0:0:0:0:
200,96,216472,2,0,L|288:88,2,82.5000025177003,8|2|2,1:0|0:0|0:0,0:0:0:0:
152,224,217503,6,0,P|200:240|232:232,1,82.5000025177003,2|2,0:0|0:0,0:0:0:0:
288,172,218065,2,0,L|372:188,1,82.5000025177003,2|2,0:0|0:0,0:0:0:0:
416,120,218628,1,2,0:0:0:0:
452,196,218909,2,0,P|449:237|435:275,2,82.5000025177003,2|2|8,0:0|0:0|1:0,0:0:0:0:
508,136,219753,2,0,L|500:52,1,82.5000025177003,2|2,0:0|0:0,0:0:0:0:
460,24,220222,6,0,P|412:8|364:20,1,100,4|0,0:0|0:0,0:0:0:0:
288,84,220972,2,0,L|188:72,1,100,8|0,0:0|0:0,0:0:0:0:
92,96,221722,2,0,P|72:144|84:192,1,100
132,276,222472,2,0,B|184:268|184:268|232:280,1,100,8|0,0:0|0:0,0:0:0:0:
312,336,223222,5,0,0:0:0:0:
404,296,223597,1,0,0:0:0:0:
436,200,223972,2,0,L|428:100,1,100,0|0,0:0|0:0,0:0:0:0:
356,32,224722,2,0,P|304:24|260:44,1,100,0|0,0:0|0:0,0:0:0:0:
192,116,225472,2,0,L|92:104,1,100,0|0,0:0|0:0,0:0:0:0:
16,168,226222,6,0,P|0:216|12:264,1,100,6|2,1:2|0:0,0:0:0:0:
96,316,226972,2,0,B|248:296|248:296|296:312,1,200,8|2,1:0|0:0,0:0:0:0:
388,340,228097,1,2,0:0:0:0:
468,280,228472,2,0,P|480:228|468:184,1,100,8|2,1:0|0:0,0:0:0:0:
380,136,229222,6,0,L|280:144,1,100,4|2,1:0|0:0,0:0:0:0:
228,60,229972,2,0,B|252:208|252:208|240:256,1,200,8|2,1:0|0:0,0:0:0:0:
148,300,231097,1,2,0:0:0:0:
236,352,231472,2,0,L|336:340,1,100,8|2,1:0|0:0,0:0:0:0:
416,280,232222,5,4,1:0:0:0:
352,204,232597,1,4,1:0:0:0:
412,124,232972,2,0,B|260:104|260:104|212:116,1,200,8|2,1:0|0:0,0:0:0:0:
160,200,234097,1,2,0:0:0:0:
248,248,234472,2,0,P|264:300|252:344,1,100,8|2,1:0|0:0,0:0:0:0:
160,384,235222,6,0,L|60:372,1,100,4|2,1:0|0:0,0:0:0:0:
16,284,235972,2,0,P|36:236|44:188,1,100,8|2,1:0|0:0,0:0:0:0:
36,88,236722,2,0,P|81:178|168:158,1,200,0|8,1:0|1:0,2:0:0:0:
228,88,237847,1,2,0:0:0:0:
260,184,238222,6,0,L|252:284,1,100,4|2,1:0|0:0,0:0:0:0:
336,340,238972,2,0,L|352:136,1,200,8|2,1:0|0:0,0:0:0:0:
404,56,240097,1,2,0:0:0:0:
484,112,240472,2,0,P|508:156|504:208,1,100,8|2,1:0|0:0,0:0:0:0:
412,244,241222,6,0,L|312:236,1,100,4|2,1:0|0:0,0:0:0:0:
224,188,241972,2,0,B|212:236|212:236|240:336|240:336|228:384,1,200,8|2,1:0|2:0,0:0:0:0:
140,336,243097,1,2,2:0:0:0:
52,384,243472,2,0,P|40:336|52:288,1,100,8|2,1:0|1:2,0:0:0:0:
112,208,244222,5,4,1:0:0:0:
64,120,244597,1,4,1:0:0:0:
124,40,244972,2,0,B|276:28|276:28|324:44,1,200,8|2,1:0|0:0,0:0:0:0:
412,80,246097,1,2,0:0:0:0:
328,136,246472,2,0,P|316:184|328:232,1,100,8|2,1:0|0:0,0:0:0:0:
396,304,247222,6,0,P|320:216|328:340,1,300,4|2,1:0|0:0,0:0:0:0:
216,368,248722,2,0,P|192:324|188:268,1,100,2|2,0:0|0:0,0:0:0:0:
260,208,249472,2,0,L|272:108,1,100,2|2,0:0|0:0,0:0:0:0:
220,24,250222,6,0,P|172:12|124:28,1,100,4|2,1:2|0:0,0:0:0:0:
56,100,250972,2,0,B|84:248|84:248|72:296,1,200,8|2,1:0|0:0,0:0:0:0:
132,376,252097,1,2,0:0:0:0:
196,300,252472,2,0,B|248:288|248:288|296:300,1,100,8|2,1:0|0:0,0:0:0:0:
392,276,253222,2,0,P|412:228|400:180,1,100,4|2,1:0|0:0,0:0:0:0:
316,132,253972,6,0,P|426:136|438:65,1,200,8|2,1:0|0:0,0:0:0:0:
352,16,255097,1,2,0:0:0:0:
252,32,255472,2,0,L|152:44,1,100,8|2,1:0|0:0,0:0:0:0:
60,84,256222,6,0,P|48:132|64:180,1,100,4|2,1:0|0:0,0:0:0:0:
160,204,256972,2,0,P|76:228|108:312,1,200,8|2,1:0|0:0,0:0:0:0:
204,340,258097,1,2,0:0:0:0:
260,260,258472,2,0,L|248:160,1,100,8|2,1:0|0:0,0:0:0:0:
344,192,259222,6,0,L|356:292,1,100,4|2,1:0|0:0,0:0:0:0:
448,332,259972,2,0,L|424:132,1,200,8|2,1:0|0:0,0:0:0:0:
360,56,261097,1,2,0:0:0:0:
276,112,261472,2,0,P|224:120|176:104,1,100,8|2,1:0|0:0,0:0:0:0:
88,64,262222,6,0,L|104:164,1,100,4|2,1:0|0:0,0:0:0:0:
20,220,262972,2,0,P|104:188|156:272,1,200,8|2,1:0|0:0,0:0:0:0:
212,348,264097,1,2,0:0:0:0:
304,312,264472,2,0,P|328:264|324:216,1,100,8|2,1:0|0:0,0:0:0:0:
248,156,265222,6,0,L|232:56,1,100,4|2,1:0|0:0,0:0:0:0:
144,8,265972,2,0,P|48:40|52:124,1,200,8|2,1:0|0:0,0:0:0:0:
144,164,267097,1,2,0:0:0:0:
100,252,267472,2,0,L|0:248,1,100,8|2,1:0|0:0,0:0:0:0:
28,344,268222,6,0,L|128:348,1,100,4|2,1:0|0:0,0:0:0:0:
216,296,268972,2,0,B|268:288|268:288|364:312|364:312|412:304,1,200,8|2,1:0|0:0,0:0:0:0:
496,248,270097,1,2,0:0:0:0:
408,200,270472,2,0,L|416:100,1,100,8|2,1:0|0:0,0:0:0:0:
344,32,271222,6,0,P|292:20|248:36,1,100,4|2,1:0|0:0,0:0:0:0:
240,136,271972,2,0,P|184:60|96:96,1,200,8|2,1:0|0:0,0:0:0:0:
60,184,273097,1,2,0:0:0:0:
140,240,273472,2,0,L|244:232,1,100,8|2,1:0|0:0,0:0:0:0:
256,192,274222,12,0,279847,0:0:0:0:
