osu file format v14

[General]
AudioFilename: Lost.mp3
AudioLeadIn: 0
PreviewTime: 78847
Countdown: 0
SampleSet: Soft
StackLeniency: 0.7
Mode: 0
LetterboxInBreaks: 0
WidescreenStoryboard: 0

[Editor]
DistanceSpacing: 1.2
BeatDivisor: 4
GridSize: 4
TimelineZoom: 2.099999

[Metadata]
Title:Lost
TitleUnicode:Lost
Artist:The Eden Project
ArtistUnicode:The Eden Project
Creator:Bearizm
Version:Insane
Source:
Tags:wendao wendao2000 Harez entrance ep drum and bass dnb nocopyrightsounds ncs
BeatmapID:837078
BeatmapSetID:247747

[Difficulty]
HPDrainRate:6
CircleSize:4.2
OverallDifficulty:7
ApproachRate:9.2
SliderMultiplier:1.75
SliderTickRate:1

[Events]
//Background and Video events
0,0,"BG.jpg",0,0
//Break Periods
2,136222,139027
2,142797,145027
2,194922,195652
//Storyboard Layer 0 (Background)
//Storyboard Layer 1 (Fail)
//Storyboard Layer 2 (Pass)
//Storyboard Layer 3 (Foreground)
//Storyboard Sound Samples

[TimingPoints]
1222,375,4,2,1,70,1,0
37222,-200,4,2,1,70,0,0
49222,-200,4,2,1,80,0,0
61222,-200,4,1,1,80,0,0
67222,-133.333333333333,4,1,1,90,0,0
68722,-133.333333333333,4,1,1,80,0,0
70222,-133.333333333333,4,1,1,70,0,0
71722,-133.333333333333,4,1,1,60,0,0
73222,-100,4,2,1,60,0,0
78847,-50,4,2,1,100,0,0
79128,-50,4,2,1,5,0,0
79222,-100,4,2,2,100,0,1
80253,-100,4,2,2,5,0,1
80347,-100,4,2,2,100,0,1
81753,-100,4,2,2,5,0,1
81847,-100,4,2,2,100,0,1
83253,-100,4,2,2,5,0,1
83347,-100,4,2,2,100,0,1
84753,-100,4,2,2,5,0,1
84847,-100,4,2,2,100,0,1
86253,-100,4,2,2,5,0,1
86347,-100,4,2,2,100,0,1
87753,-100,4,2,2,5,0,1
87847,-100,4,2,2,100,0,1
89253,-100,4,2,2,5,0,1
89347,-100,4,2,2,100,0,1
91222,-200,4,2,2,100,0,0
91503,-200,4,2,2,5,0,0
91597,-66.6666666666667,4,2,2,100,0,1
91784,-100,4,2,2,100,0,1
92253,-100,4,2,2,5,0,1
92347,-100,4,2,2,100,0,1
93753,-100,4,2,2,5,0,1
93847,-100,4,2,2,100,0,1
95253,-100,4,2,2,5,0,1
95347,-100,4,2,2,100,0,1
96753,-100,4,2,2,5,0,1
96847,-100,4,2,2,100,0,1
98253,-100,4,2,2,5,0,1
98347,-100,4,2,2,100,0,1
99753,-100,4,2,2,5,0,1
99847,-100,4,2,2,100,0,1
102472,-100,4,2,2,5,0,1
102659,-100,4,2,2,100,0,1
103222,-100,4,2,1,90,0,0
127222,-100,4,2,1,100,0,1
133034,-100,4,2,1,100,0,0
139597,-200,4,2,1,40,0,0
166222,-200,4,2,1,80,0,0
178222,-200,4,1,1,80,0,0
184222,-100,4,1,1,90,0,0
185722,-100,4,1,1,80,0,0
187222,-100,4,1,1,70,0,0
187972,-100,4,1,1,60,0,0
188722,-100,4,1,1,50,0,0
189472,-100,4,1,1,40,0,0
190222,-100,4,1,1,30,0,0
194722,-100,4,1,1,5,0,0
196222,-66.6666666666667,4,2,1,100,0,1
199222,-133.333333333333,4,2,1,100,0,1
199503,-66.6666666666667,4,2,1,100,0,1
205222,-133.333333333333,4,2,1,100,0,1
205503,-66.6666666666667,4,2,1,100,0,1
211222,-133.333333333333,4,2,1,100,0,1
211503,-66.6666666666667,4,2,1,100,0,1
217222,-133.333333333333,4,2,1,100,0,1
217503,-66.6666666666667,4,2,1,100,0,1
220222,-100,4,1,1,70,0,0
220972,-100,4,1,1,75,0,0
221722,-100,4,1,1,80,0,0
222472,-100,4,1,1,85,0,0
223222,-100,4,1,1,75,0,0
223597,-100,4,1,1,80,0,0
223972,-100,4,1,1,85,0,0
224347,-100,4,1,1,90,0,0
224722,-100,4,1,1,95,0,0
224909,-100,4,1,1,90,0,0
225097,-100,4,1,1,85,0,0
225284,-100,4,1,1,80,0,0
225472,-100,4,1,1,70,0,0
225659,-100,4,1,1,60,0,0
225847,-100,4,1,1,50,0,0
226034,-100,4,1,1,40,0,0
226222,-100,4,2,1,100,0,1
247222,-100,4,2,1,90,0,0
250222,-100,4,2,1,100,0,1
274222,-100,4,2,1,30,0,0
279847,-100,4,2,1,5,0,0

[Colours]
Combo1 : 128,128,255
Combo2 : 255,128,64
Combo3 : 221,60,0
Combo4 : 128,255,255

[HitObjects]
104,52,37222,6,0,L|112:188,1,131.25,0|0,1:0|0:0,0:0:0:0:
180,240,37972,2,0,P|224:244|264:228,1,87.5,8|0,1:0|0:0,0:0:0:0:
280,212,38722,6,0,L|268:344,1,131.25,0|0,1:0|0:0,0:0:0:0:
372,216,39472,2,0,L|360:128,1,87.5,8|0,1:0|0:0,0:0:0:0:
368,108,40222,6,0,P|324:116|272:56,1,131.25,0|0,1:0|0:0,0:0:0:0:
192,20,40972,2,0,L|104:32,1,87.5,8|0,1:0|0:0,0:0:0:0:
96,52,41722,6,0,L|108:140,1,87.5,0|0,1:0|0:0,0:0:0:0:
64,216,42284,1,0,0:0:0:0:
52,302,42472,2,0,L|64:216,1,87.5,8|0,1:0|0:0,0:0:0:0:
12,144,43034,1,0,0:0:0:0:
152,240,43222,6,0,B|196:236|196:236|240:248|240:248|284:244,1,131.25,0|0,1:0|0:0,0:0:0:0:
220,360,43972,2,0,L|232:272,1,87.5,8|0,1:0|0:0,0:0:0:0:
252,264,44722,6,0,L|238:177,1,87.5,0|0,1:0|0:0,0:0:0:0:
304,120,45284,1,0,0:0:0:0:
312,32,45472,2,0,L|304:120,1,87.5,8|0,1:0|0:0,0:0:0:0:
224,153,46034,1,0,0:0:0:0:
224,153,46222,6,0,B|180:148|180:148|136:160|136:160|92:152,1,131.25,0|0,1:0|0:0,0:0:0:0:
24,208,46972,2,0,L|36:300,1,87.5,8|0,1:0|0:0,0:0:0:0:
56,304,47722,6,0,P|88:272|160:300,1,131.25,0|0,1:0|0:0,0:0:0:0:
328,260,48472,2,0,P|278:256|245:274,1,87.5,8|0,1:0|0:0,0:0:0:0:
344,288,49222,6,0,L|356:156,1,131.25,0|0,1:0|0:0,0:0:0:0:
288,104,49972,2,0,L|280:16,1,87.5,8|0,1:0|0:0,0:0:0:0:
228,176,50534,1,0,1:0:0:0:
228,176,50722,6,0,B|184:172|184:172|140:180,1,87.5,0|0,1:0|1:0,0:0:0:0:
228,284,51472,1,8,1:0:0:0:
228,284,51659,2,0,L|240:196,1,87.5,0|0,1:0|0:0,0:0:0:0:
176,340,52222,6,0,P|240:312|300:348,1,131.25,0|0,1:0|0:0,0:0:0:0:
380,344,52972,2,0,P|400:304|404:260,1,87.5,8|0,1:0|0:0,0:0:0:0:
348,196,53534,1,0,1:0:0:0:
348,196,53722,6,0,L|340:108,1,87.5,0|0,1:0|1:0,0:0:0:0:
440,32,54472,1,8,1:0:0:0:
440,32,54659,2,0,L|432:120,1,87.5,0|0,1:0|0:0,0:0:0:0:
256,148,55222,6,0,B|212:144|212:144|168:156|168:156|124:152,1,131.25,0|0,1:0|0:0,0:0:0:0:
96,224,55972,2,0,P|60:196|48:156,1,87.5,8|0,1:0|0:0,0:0:0:0:
184,236,56534,1,0,1:0:0:0:
184,236,56722,6,0,P|192:280|180:324,1,87.5,0|0,1:0|1:0,0:0:0:0:
24,336,57472,1,8,1:0:0:0:
24,336,57659,2,0,L|112:328,1,87.5,0|0,1:0|0:0,0:0:0:0:
240,352,58222,6,0,L|328:360,1,87.5,0|0,1:0|0:0,0:0:0:0:
404,184,58972,2,0,B|396:225|396:225|404:269|404:269|396:313,1,131.25,8|0,1:0|1:0,0:0:0:0:
492,137,59722,6,0,L|476:225,1,87.5,0|0,1:0|1:0,0:0:0:0:
264,120,60472,2,0,L|260:76,2,43.75,8|0|0,1:0|1:0|1:0,0:0:0:0:
96,192,61222,5,0,1:0:0:0:
96,192,61597,1,0,0:0:0:0:
180,252,61972,1,8,0:0:0:0:
164,120,62347,1,0,0:0:0:0:
416,192,62722,5,0,0:0:0:0:
416,192,63097,1,0,0:0:0:0:
332,252,63472,1,8,0:0:0:0:
416,192,63659,1,0,0:0:0:0:
348,120,63847,1,0,0:0:0:0:
96,192,64222,5,0,0:0:0:0:
180,252,64597,1,0,0:0:0:0:
164,120,64972,1,8,0:0:0:0:
416,192,65347,5,0,0:0:0:0:
332,252,65534,1,8,0:0:0:0:
348,120,65722,1,0,0:0:0:0:
348,120,66097,1,0,0:0:0:0:
96,192,66472,5,8,0:0:0:0:
180,252,66659,1,0,0:0:0:0:
164,120,66847,1,0,0:0:0:0:
164,120,67222,5,0,0:0:0:0:
128,36,67409,1,0,0:0:0:0:
260,120,67597,1,0,0:0:0:0:
296,36,67784,1,0,0:0:0:0:
156,128,67972,5,8,0:0:0:0:
120,44,68159,1,0,0:0:0:0:
268,128,68347,1,0,0:0:0:0:
304,44,68534,1,0,0:0:0:0:
328,212,68722,5,0,0:0:0:0:
416,188,68909,1,0,0:0:0:0:
352,132,69097,1,0,0:0:0:0:
392,268,69284,1,0,0:0:0:0:
336,220,69472,5,8,0:0:0:0:
424,196,69659,1,0,0:0:0:0:
360,140,69847,1,0,0:0:0:0:
400,276,70034,1,0,0:0:0:0:
240,320,70222,5,0,0:0:0:0:
228,236,70409,1,0,0:0:0:0:
148,244,70597,1,0,0:0:0:0:
160,324,70784,1,0,0:0:0:0:
248,328,70972,5,8,0:0:0:0:
236,244,71159,1,0,0:0:0:0:
156,252,71347,1,0,0:0:0:0:
168,332,71534,1,0,0:0:0:0:
440,300,71722,5,0,0:0:0:0:
440,300,71909,1,0,0:0:0:0:
368,256,72097,1,0,0:0:0:0:
368,256,72284,1,0,0:0:0:0:
440,220,72472,1,8,0:0:0:0:
440,220,72659,1,0,0:0:0:0:
368,336,72847,1,0,0:0:0:0:
368,336,73034,1,0,0:0:0:0:
308,188,73222,6,0,L|316:144,1,43.75,0|0,1:0|0:0,0:0:0:0:
336,64,73409,1,0,0:0:0:0:
336,64,73503,1,0,0:0:0:0:
336,64,73597,1,0,0:0:0:0:
200,208,73784,6,0,L|204:252,1,43.75,0|0,1:0|0:0,0:0:0:0:
212,336,73972,1,0,0:0:0:0:
212,336,74065,1,0,0:0:0:0:
212,336,74159,1,0,0:0:0:0:
116,160,74347,5,0,1:0:0:0:
116,160,74440,1,0,0:0:0:0:
116,160,74534,1,0,0:0:0:0:
292,264,74722,6,0,L|336:260,1,43.75,0|0,1:0|0:0,0:0:0:0:
424,252,74909,1,0,0:0:0:0:
424,252,75003,1,0,0:0:0:0:
424,252,75097,1,0,0:0:0:0:
244,176,75284,6,0,L|200:172,1,43.75,0|0,1:0|0:0,0:0:0:0:
116,160,75472,1,0,0:0:0:0:
116,160,75565,1,0,0:0:0:0:
116,160,75659,1,0,0:0:0:0:
324,112,75847,5,0,1:0:0:0:
324,112,75940,1,0,0:0:0:0:
324,112,76034,1,0,0:0:0:0:
160,248,76222,6,0,L|152:292,1,43.75,0|0,1:0|0:0,0:0:0:0:
128,372,76409,1,0,0:0:0:0:
128,372,76503,1,0,0:0:0:0:
128,372,76597,1,0,0:0:0:0:
272,252,76784,6,0,L|276:300,1,43.75,0|0,1:0|0:0,0:0:0:0:
288,380,76972,1,0,0:0:0:0:
288,380,77065,1,0,0:0:0:0:
288,380,77159,1,0,0:0:0:0:
364,200,77347,5,0,1:0:0:0:
160,248,77534,1,0,0:0:0:0:
160,248,77628,1,0,0:0:0:0:
160,248,77722,1,0,1:0:0:0:
232,148,77909,5,0,0:0:0:0:
148,120,78096,1,0,0:0:0:0:
148,33,78283,1,0,0:0:0:0:
232,6,78471,1,0,0:0:0:0:
283,77,78659,1,0,0:0:0:0:
240,232,78847,6,0,P|304:292|308:176,1,262.5,8|0,1:0|0:0,0:0:0:0:
299,234,79222,5,4,1:0:0:0:
416,172,79409,1,0,0:0:0:0:
232,148,79597,1,8,1:0:0:0:
412,264,79784,1,2,0:0:0:0:
412,264,79878,2,0,L|408:308,1,43.75,2|0,0:0|0:0,0:0:0:0:
332,152,80065,1,2,0:0:0:0:
332,152,80159,2,0,L|328:108,1,43.75,2|0,1:2|0:0,0:0:0:0:
299,234,80347,2,0,B|256:232|256:232|212:244|212:244|168:240,1,131.25,8|0,1:0|0:0,0:0:0:0:
80,200,80722,6,0,L|92:292,1,87.5,0|0,1:0|0:0,0:0:0:0:
160,156,81097,1,8,1:0:0:0:
40,88,81284,1,2,0:0:0:0:
40,88,81378,2,0,L|36:44,1,43.75,2|0,0:0|0:0,0:0:0:0:
176,72,81565,1,2,0:0:0:0:
176,72,81659,2,0,L|184:24,1,43.75,2|0,1:2|0:0,0:0:0:0:
80,200,81847,1,8,1:0:0:0:
160,156,82034,1,0,0:0:0:0:
108,308,82222,6,0,L|20:296,1,87.5,0|0,1:0|0:0,0:0:0:0:
188,252,82597,1,8,1:0:0:0:
272,356,82784,1,2,0:0:0:0:
272,356,82878,2,0,L|268:312,1,43.75,2|0,0:0|0:0,0:0:0:0:
344,240,83065,1,2,0:0:0:0:
344,240,83159,2,0,L|348:196,1,43.75,0|0,1:2|0:0,0:0:0:0:
372,340,83347,2,0,B|400:352|400:352|452:336|448:272,1,131.25,8|0,1:0|0:0,0:0:0:0:
428,196,83722,6,0,L|438:106,1,87.5,0|0,1:0|0:0,0:0:0:0:
344,240,84097,1,8,1:0:0:0:
240,180,84284,1,2,0:0:0:0:
240,180,84378,2,0,L|192:184,1,43.75,2|0,0:0|0:0,0:0:0:0:
316,92,84565,1,2,0:0:0:0:
316,92,84659,2,0,L|360:96,1,43.75,2|0,1:2|0:0,0:0:0:0:
208,80,84847,1,8,1:0:0:0:
384,20,85034,1,0,0:0:0:0:
344,240,85222,6,0,B|360:260|360:260|352:328,1,87.5,0|0,1:0|0:0,0:0:0:0:
260,352,85597,1,8,1:0:0:0:
432,300,85784,1,2,0:0:0:0:
432,300,85878,2,0,L|476:304,1,43.75,2|0,0:0|0:0,0:0:0:0:
344,240,86065,1,2,0:0:0:0:
344,240,86159,2,0,L|300:236,1,43.75,2|0,1:2|0:0,0:0:0:0:
448,208,86347,2,0,B|420:172|420:172|428:84,1,131.25,8|0,1:0|0:0,0:0:0:0:
348,128,86722,6,0,B|304:136|304:136|260:128,1,87.5,0|0,1:0|0:0,0:0:0:0:
300,40,87097,1,8,1:0:0:0:
212,196,87284,1,2,0:0:0:0:
212,196,87378,2,0,L|224:240,1,43.75,2|0,0:0|0:0,0:0:0:0:
196,76,87565,1,2,0:0:0:0:
196,76,87659,2,0,L|204:28,1,43.75,2|0,1:2|0:0,0:0:0:0:
140,144,87847,2,0,B|96:136|96:136|52:144,1,87.5,8|0,1:0|0:0,0:0:0:0:
104,56,88222,5,0,1:0:0:0:
96,216,88409,1,0,1:0:0:0:
108,32,88597,1,8,1:0:0:0:
92,244,88784,1,2,0:0:0:0:
92,244,88878,2,0,L|96:288,1,43.75,2|0,0:0|0:0,0:0:0:0:
212,196,89065,1,2,0:0:0:0:
212,196,89159,2,0,L|216:152,1,43.75,2|0,1:2|0:0,0:0:0:0:
184,296,89347,2,0,B|228:292|228:292|272:304|272:304|316:300,1,131.25,8|0,1:0|0:0,0:0:0:0:
400,252,89722,6,0,L|388:340,1,87.5,0|0,1:0|0:0,0:0:0:0:
320,196,90097,1,8,1:0:0:0:
464,148,90284,1,0,1:0:0:0:
464,148,90378,1,8,1:0:0:0:
288,108,90565,1,0,1:0:0:0:
288,108,90659,1,0,1:0:0:0:
400,252,90847,1,8,1:0:0:0:
356,40,91034,1,2,0:0:0:0:
408,280,91222,6,0,L|398:351,1,65.625,0|0,3:0|0:0,0:0:0:0:
319,381,91597,6,0,L|312:316,1,65.6250025033952,12|0,1:0|0:0,0:0:0:0:
240,228,91784,5,2,0:0:0:0:
240,228,91878,2,0,L|244:184,1,43.75,2|0,0:0|0:0,0:0:0:0:
160,312,92065,1,2,0:0:0:0:
160,312,92159,2,0,L|168:356,1,43.75,2|0,1:2|0:0,0:0:0:0:
40,240,92347,2,0,P|72:208|156:228,1,131.25,8|0,1:0|0:0,0:0:0:0:
32,260,92722,6,0,L|24:172,1,87.5,0|0,1:0|0:0,0:0:0:0:
12,80,93097,1,8,1:0:0:0:
128,124,93284,1,2,0:0:0:0:
128,124,93378,2,0,L|172:120,1,43.75,2|0,0:0|0:0,0:0:0:0:
256,56,93565,1,2,0:0:0:0:
256,56,93659,2,0,L|300:60,1,43.75,2|0,1:2|0:0,0:0:0:0:
140,48,93847,1,8,1:0:0:0:
248,140,94034,1,0,0:0:0:0:
384,100,94222,6,0,B|392:56|392:56|380:12,1,87.5,0|0,1:0|0:0,0:0:0:0:
332,164,94597,1,8,1:0:0:0:
440,228,94784,1,2,0:0:0:0:
440,228,94878,2,0,L|484:224,1,43.75,2|0,0:0|0:0,0:0:0:0:
320,280,95065,1,2,0:0:0:0:
320,280,95159,2,0,L|364:288,1,43.75,2|0,1:2|0:0,0:0:0:0:
236,160,95347,2,0,B|216:200|216:200|224:288,1,131.25,8|0,1:0|0:0,0:0:0:0:
136,180,95722,6,0,L|180:104,1,87.5,0|0,1:0|0:0,0:0:0:0:
148,260,96097,1,8,1:0:0:0:
72,120,96284,1,2,0:0:0:0:
72,120,96378,2,0,L|28:112,1,43.75,2|0,0:0|0:0,0:0:0:0:
72,232,96565,1,2,0:0:0:0:
72,232,96659,2,0,L|28:236,1,43.75,2|0,1:2|0:0,0:0:0:0:
179,104,96847,1,8,1:0:0:0:
72,120,97034,1,0,0:0:0:0:
240,180,97222,5,0,1:0:0:0:
120,28,97409,1,0,1:0:0:0:
148,260,97597,1,12,1:0:0:0:
260,100,97784,1,2,0:0:0:0:
260,100,97878,2,0,L|252:56,1,43.75,2|0,0:0|0:0,0:0:0:0:
136,180,98065,1,2,0:0:0:0:
136,180,98159,2,0,L|144:136,1,43.75,2|0,1:2|0:0,0:0:0:0:
240,268,98347,2,0,B|284:260|284:260|328:272|328:272|368:264,1,131.25,12|0,1:0|0:0,0:0:0:0:
448,292,98722,6,0,P|470:252|473:211,1,87.5,0|0,1:3|0:0,0:0:0:0:
332,180,99097,1,12,1:0:0:0:
364,340,99284,1,2,0:0:0:0:
364,340,99378,2,0,L|372:384,1,43.75,2|0,0:0|0:0,0:0:0:0:
240,268,99565,1,2,0:0:0:0:
240,268,99659,2,0,L|244:224,1,43.75,2|0,1:2|0:0,0:0:0:0:
332,180,99847,2,0,L|320:92,1,87.5,12|0,1:0|0:0,0:0:0:0:
448,292,100222,6,0,L|464:112,1,175,0|12,1:0|1:0,0:0:0:0:
476,28,100784,1,0,0:0:0:0:
332,180,100972,2,0,L|288:172,1,43.75,2|2,0:0|0:0,0:0:0:0:
200,152,101159,1,0,1:0:0:0:
320,93,101347,1,0,1:0:0:0:
216,240,101534,6,0,L|128:244,1,87.5,12|0,1:0|0:0,0:0:0:0:
200,152,101909,1,0,1:0:0:0:
296,272,102097,1,12,1:0:0:0:
184,132,102284,1,0,1:0:0:0:
184,132,102378,2,0,L|192:88,2,43.75,2|0|2,0:0|0:0|0:0,0:0:0:0:
100,160,102659,1,0,1:0:0:0:
88,140,102753,1,0,1:0:0:0:
84,117,102847,1,12,1:0:0:0:
276,112,103034,1,0,1:0:0:0:
128,260,103222,6,0,L|40:248,1,87.5,4|0,1:0|0:0,0:0:0:0:
200,216,103597,1,8,1:0:0:0:
264,360,103784,1,2,0:0:0:0:
273,340,103877,1,0,0:0:0:0:
280,319,103971,1,2,0:0:0:0:
285,298,104065,1,0,0:0:0:0:
287,276,104159,1,0,1:0:0:0:
306,102,104347,2,0,P|314:146|330:186,1,87.5,8|0,1:0|0:0,0:0:0:0:
200,216,104722,6,0,P|240:160|332:188,1,175,0|8,1:0|1:0,0:0:0:0:
452,184,105284,1,2,0:0:0:0:
460,164,105377,1,0,0:0:0:0:
467,143,105471,1,2,0:0:0:0:
470,121,105565,1,0,0:0:0:0:
472,99,105659,1,0,1:0:0:0:
364,216,105847,2,0,L|376:304,1,87.5,8|0,1:0|0:0,0:0:0:0:
380,128,106222,6,0,P|344:96|240:144,1,175,0|8,1:0|1:0,0:0:0:0:
104,192,106784,1,2,0:0:0:0:
125,188,106877,1,0,0:0:0:0:
146,191,106971,1,2,0:0:0:0:
167,197,107065,1,0,0:0:0:0:
186,207,107159,1,0,1:0:0:0:
300,252,107347,2,0,P|316:208|316:160,1,87.5,8|0,1:0|0:0,0:0:0:0:
196,304,107722,6,0,L|372:296,1,175,0|8,1:0|1:0,0:0:0:0:
460,212,108284,1,2,0:0:0:0:
448,193,108377,1,0,0:0:0:0:
440,173,108471,1,2,0:0:0:0:
434,151,108565,1,0,0:0:0:0:
432,130,108659,1,0,1:0:0:0:
368,20,108847,2,0,P|360:64|344:104,1,87.5,8|0,1:0|0:0,0:0:0:0:
264,136,109128,1,0,0:0:0:0:
276,156,109222,6,0,L|188:148,1,87.5,0|0,1:0|0:0,0:0:0:0:
132,60,109597,1,8,1:0:0:0:
216,228,109784,1,2,0:0:0:0:
212,249,109877,1,0,0:0:0:0:
208,271,109971,1,2,0:0:0:0:
204,292,110065,1,0,0:0:0:0:
200,314,110159,1,0,1:0:0:0:
20,256,110347,2,0,P|60:236|132:280,1,131.25,8|0,1:0|0:0,0:0:0:0:
200,316,110722,6,0,P|244:312|284:296,1,87.5,0|0,1:0|0:0,0:0:0:0:
384,248,111097,2,0,P|424:260|460:288,1,87.5,8|2,1:0|0:0,0:0:0:0:
476,304,111378,1,0,0:0:0:0:
479,282,111471,1,2,0:0:0:0:
483,260,111565,1,0,0:0:0:0:
487,239,111659,1,0,1:0:0:0:
448,88,111847,2,0,P|404:80|348:144,1,131.25,8|0,1:0|0:0,0:0:0:0:
272,112,112222,6,0,P|232:136|192:144,1,87.5,0|0,1:0|0:0,0:0:0:0:
24,68,112597,2,0,P|68:72|108:88,1,87.5,8|2,1:0|0:0,0:0:0:0:
120,108,112878,1,0,0:0:0:0:
116,129,112971,1,2,0:0:0:0:
112,151,113065,1,0,0:0:0:0:
108,172,113159,1,0,1:0:0:0:
172,328,113347,2,0,P|216:320|252:292,1,87.5,8|0,1:0|0:0,0:0:0:0:
316,336,113628,1,0,0:0:0:0:
316,336,113722,6,0,P|360:336|404:352,1,87.5,0|0,1:0|0:0,0:0:0:0:
512,240,114097,2,0,P|472:232|428:244,1,87.5,8|2,1:0|0:0,0:0:0:0:
412,228,114378,1,0,0:0:0:0:
399,210,114471,1,2,0:0:0:0:
389,190,114565,1,0,0:0:0:0:
381,170,114659,1,0,1:0:0:0:
480,96,114847,1,8,1:0:0:0:
312,220,115034,1,0,0:0:0:0:
296,232,115128,1,0,0:0:0:0:
280,244,115222,6,0,L|148:236,1,131.25,4|0,1:1|0:0,0:0:0:0:
56,176,115597,2,0,L|72:264,1,87.5,8|2,1:0|0:0,0:0:0:0:
136,160,115878,1,0,0:0:0:0:
138,138,115971,1,2,0:0:0:0:
141,116,116065,1,0,0:0:0:0:
144,94,116159,1,0,1:0:0:0:
240,160,116347,2,0,P|280:140|324:140,1,87.5,8|0,1:0|0:0,0:0:0:0:
396,180,116628,1,0,0:0:0:0:
396,180,116722,6,0,L|376:356,1,175,0|8,1:0|1:0,0:0:0:0:
268,276,117284,1,2,0:0:0:0:
288,267,117377,1,0,0:0:0:0:
309,264,117471,1,2,0:0:0:0:
331,266,117565,1,0,0:0:0:0:
351,273,117659,1,0,1:0:0:0:
192,344,117847,2,0,L|184:212,1,131.25,8|0,1:0|0:0,0:0:0:0:
112,264,118222,6,0,B|68:256|68:256|24:264,1,87.5,0|0,1:0|0:0,0:0:0:0:
68,356,118597,1,8,1:0:0:0:
200,236,118784,1,2,0:0:0:0:
207,215,118877,1,0,0:0:0:0:
212,194,118972,1,2,0:0:0:0:
215,172,119065,1,0,0:0:0:0:
216,150,119159,1,0,1:0:0:0:
96,92,119347,2,0,B|52:100|52:100|8:92,1,87.5,8|0,1:0|0:0,0:0:0:0:
172,40,119629,1,0,0:0:0:0:
192,48,119722,6,0,B|234:55|234:55|278:47,1,87.5,0|0,1:0|0:0,0:0:0:0:
468,120,120097,2,0,P|424:112|380:124,1,87.5,8|2,1:0|0:0,0:0:0:0:
364,132,120378,1,0,0:0:0:0:
343,140,120471,1,2,0:0:0:0:
322,144,120565,1,0,0:0:0:0:
300,143,120659,1,0,1:0:0:0:
436,52,120847,2,0,L|424:184,1,131.25,8|0,1:0|0:0,0:0:0:0:
360,236,121222,6,0,L|368:324,1,87.5,0|0,1:0|0:0,0:0:0:0:
476,264,121597,1,8,1:0:0:0:
276,216,121784,1,2,0:0:0:0:
266,196,121877,1,0,0:0:0:0:
259,175,121971,1,2,0:0:0:0:
256,153,122065,1,0,0:0:0:0:
255,132,122159,1,0,1:0:0:0:
416,92,122347,2,0,L|329:80,1,87.5,8|0,1:0|0:0,0:0:0:0:
256,132,122628,1,0,0:0:0:0:
256,132,122722,6,0,L|80:144,1,175,0|8,1:0|1:0,0:0:0:0:
144,256,123284,1,2,0:0:0:0:
153,236,123377,1,0,0:0:0:0:
160,215,123471,1,2,0:0:0:0:
163,193,123565,1,0,0:0:0:0:
164,172,123659,1,0,1:0:0:0:
64,288,123847,2,0,P|108:280|168:336,1,131.25,8|0,1:0|0:0,0:0:0:0:
240,292,124222,6,0,P|308:344|384:312,1,175,0|8,1:0|1:0,0:0:0:0:
338,175,124784,1,2,0:0:0:0:
329,195,124878,1,0,0:0:0:0:
323,216,124972,1,2,0:0:0:0:
320,238,125066,1,0,0:0:0:0:
320,260,125159,1,0,1:0:0:0:
396,124,125347,2,0,L|264:136,1,131.25,8|0,1:0|0:0,0:0:0:0:
184,160,125722,6,0,L|204:72,1,87.5,0|0,1:0|0:0,0:0:0:0:
88,168,126097,2,0,L|104:256,1,87.5,8|2,1:0|0:0,0:0:0:0:
32,272,126378,1,0,0:0:0:0:
29,293,126471,1,2,0:0:0:0:
26,315,126565,1,0,0:0:0:0:
23,337,126659,1,0,1:0:0:0:
88,168,126847,1,8,1:0:0:0:
258,306,127034,1,8,1:0:0:0:
256,285,127128,1,8,1:0:0:0:
256,264,127222,6,0,L|272:176,1,87.5,12|0,1:0|0:0,0:0:0:0:
380,368,127597,1,0,1:0:0:0:
248,256,127784,6,0,L|264:168,1,87.5,8|0,1:0|0:0,0:0:0:0:
364,352,128159,1,0,1:0:0:0:
240,248,128347,6,0,L|256:160,1,87.5,8|0,1:0|1:0,0:0:0:0:
332,116,128628,1,0,1:0:0:0:
332,116,128722,6,0,L|316:28,1,87.5,8|0,1:0|0:0,0:0:0:0:
160,112,129097,1,0,1:0:0:0:
340,124,129284,6,0,L|324:36,1,87.5,8|0,1:0|0:0,0:0:0:0:
168,120,129659,1,0,1:0:0:0:
348,132,129847,6,0,L|332:44,1,87.5,8|0,1:0|1:0,0:0:0:0:
432,176,130128,1,0,1:0:0:0:
432,176,130222,6,0,L|416:262,1,87.5,8|0,1:0|0:0,0:0:0:0:
256,196,130597,1,0,1:0:0:0:
424,184,130784,6,0,L|408:270,1,87.5,8|0,1:0|0:0,0:0:0:0:
248,204,131159,1,0,1:0:0:0:
416,192,131347,6,0,L|400:278,1,87.5,8|0,1:0|1:0,0:0:0:0:
380,356,131628,1,0,1:0:0:0:
380,356,131722,1,0,1:0:0:0:
240,212,131909,5,8,1:0:0:0:
400,278,132097,1,8,1:0:0:0:
268,324,132284,1,0,1:0:0:0:
336,144,132472,5,8,1:0:0:0:
260,344,132659,1,0,1:0:0:0:
252,128,132847,5,8,1:0:0:0:
380,356,133034,1,0,1:0:0:0:
480,152,139597,6,0,L|392:144,1,87.5
320,192,140347,1,0,0:0:0:0:
248,144,140722,2,0,P|228:80|316:72,2,175,2|2|0,0:0|0:0|0:0,0:0:0:0:
320,192,142597,1,0,0:0:0:0:
320,192,145597,6,0,L|408:200,2,87.5
248,240,146722,2,0,P|200:244|196:144,2,175,2|2|2,0:0|0:0|0:0,0:0:0:0:
284,160,148597,6,0,P|360:112|316:284,1,437.5
248,240,150847,1,0,0:0:0:0:
176,192,151222,6,0,P|120:228|112:292,2,131.25
248,240,152722,2,0,B|256:196|256:196|240:112|240:112|248:64,1,175,2|2,0:0|0:0,0:0:0:0:
420,104,154222,6,0,P|352:160|316:104,1,175,2|0,0:0|0:0,0:0:0:0:
220,52,155417,1,0,0:0:0:0:
144,92,155815,2,0,B|152:160|152:160|144:204|144:204|148:252,1,153.125,0|2,0:0|0:0,0:0:0:0:
384,352,157222,6,0,B|396:308|396:308|392:284|392:284|400:244|400:244|372:220|372:184,1,175,2|0,0:0|0:0,0:0:0:0:
372,188,158722,2,0,L|376:100,2,87.5,2|0|2,0:0|0:0|0:0,0:0:0:0:
296,236,159847,6,0,B|252:220|212:240|168:264|120:236,2,175,2|0|0,0:0|0:0|0:0,0:0:0:0:
296,236,162097,2,0,B|304:192|304:192|268:128|192:148,1,175
116,188,163222,6,0,B|100:104|100:104|112:60,2,131.25,2|0|0,0:0|0:0|0:0,0:0:0:0:
176,252,164722,2,0,P|264:268|304:204,1,175,2|0,0:0|0:0,0:0:0:0:
303,204,166222,6,0,L|312:336,1,131.25,0|0,1:0|0:0,0:0:0:0:
232,300,166972,2,0,B|188:296|188:296|144:308,1,87.5,8|0,1:0|0:0,0:0:0:0:
64,276,167534,1,8,1:0:0:0:
64,276,167722,2,0,L|76:188,1,87.5,0|0,1:0|1:0,0:0:0:0:
224,128,168472,1,8,1:0:0:0:
224,128,168659,2,0,B|180:120|180:120|136:128,1,87.5,0|0,1:0|0:0,0:0:0:0:
264,196,169222,6,0,L|256:60,1,131.25,0|0,1:0|0:0,0:0:0:0:
352,132,169972,2,0,P|400:120|424:92,1,87.5,8|0,1:0|0:0,0:0:0:0:
344,32,170534,1,8,1:0:0:0:
352,132,170722,2,0,L|356:220,1,87.5,0|0,1:0|1:0,0:0:0:0:
508,272,171472,1,8,1:0:0:0:
508,272,171659,2,0,B|464:268|464:268|424:284,1,87.5,0|0,1:0|0:0,0:0:0:0:
304,324,172222,6,0,L|172:312,1,131.25,0|0,1:0|0:0,0:0:0:0:
88,268,172972,2,0,L|96:356,1,87.5,8|0,1:0|0:0,0:0:0:0:
180,220,173534,1,8,1:0:0:0:
180,220,173722,2,0,L|192:132,1,87.5,0|0,1:0|1:0,0:0:0:0:
256,280,174472,1,8,1:0:0:0:
344,276,174659,2,0,L|256:280,1,87.5,0|0,1:0|0:0,0:0:0:0:
400,208,175222,6,0,B|428:244|428:244|416:332,1,131.25,0|0,1:0|0:0,0:0:0:0:
316,184,175972,2,0,L|332:96,1,87.5,8|0,1:0|0:0,0:0:0:0:
232,216,176534,1,8,1:0:0:0:
232,216,176722,2,0,B|188:208|188:208|144:216,1,87.5,0|0,1:0|1:0,0:0:0:0:
28,144,177472,1,8,1:0:0:0:
144,132,177659,1,0,1:0:0:0:
4,148,177847,1,0,1:0:0:0:
132,272,178034,1,0,1:0:0:0:
132,272,178128,1,0,1:0:0:0:
132,272,178222,5,0,0:0:0:0:
132,272,178597,1,0,0:0:0:0:
196,208,178972,1,8,0:0:0:0:
144,132,179347,1,0,0:0:0:0:
380,272,179722,5,0,0:0:0:0:
380,272,180097,1,0,0:0:0:0:
316,208,180472,1,8,0:0:0:0:
380,272,180659,1,0,0:0:0:0:
368,132,180847,1,0,0:0:0:0:
132,272,181222,5,0,0:0:0:0:
196,208,181597,1,0,1:0:0:0:
144,132,181972,1,8,0:0:0:0:
380,272,182347,5,0,0:0:0:0:
316,208,182534,1,8,1:0:0:0:
368,132,182722,1,0,0:0:0:0:
368,132,183097,1,0,0:0:0:0:
132,272,183472,5,8,0:0:0:0:
196,208,183659,1,0,1:0:0:0:
144,132,183847,1,0,0:0:0:0:
380,272,184034,1,0,0:0:0:0:
380,272,184128,1,0,0:0:0:0:
380,272,184222,5,0,0:0:0:0:
424,196,184409,1,0,0:0:0:0:
296,248,184597,1,0,0:0:0:0:
296,160,184784,1,0,0:0:0:0:
388,280,184972,5,8,0:0:0:0:
432,188,185159,1,0,0:0:0:0:
288,256,185347,1,0,0:0:0:0:
288,152,185534,1,0,0:0:0:0:
168,300,185722,5,0,0:0:0:0:
108,232,185909,1,0,0:0:0:0:
192,216,186097,1,0,0:0:0:0:
84,316,186284,1,0,0:0:0:0:
160,292,186472,5,8,0:0:0:0:
100,224,186659,1,0,0:0:0:0:
184,208,186847,1,0,0:0:0:0:
76,308,187034,1,0,0:0:0:0:
120,144,187222,6,0,L|112:100,3,43.75
232,136,187597,2,0,L|244:92,3,43.75
280,228,187972,5,8,0:0:0:0:
297,256,188065,1,0,0:0:0:0:
324,278,188159,1,0,0:0:0:0:
357,288,188253,1,0,0:0:0:0:
391,287,188347,1,0,0:0:0:0:
422,274,188440,1,0,0:0:0:0:
448,252,188534,1,0,0:0:0:0:
464,221,188628,1,0,0:0:0:0:
470,192,188722,6,0,L|464:144,3,43.75
392,100,189097,2,0,L|400:56,3,43.75
275,128,189472,6,0,L|227:136,3,43.75,8|0|0|0,1:0|0:0|0:0|0:0,0:0:0:0:
339,184,189847,1,0,0:0:0:0:
357,189,189940,1,0,0:0:0:0:
375,194,190034,1,0,0:0:0:0:
393,199,190128,1,0,0:0:0:0:
256,192,190222,12,0,193128,2:0:0:0:
256,192,193222,12,0,194722,2:0:0:0:
393,199,196222,6,0,P|332:176|272:204,1,131.25000500679,6|0,1:2|0:0,0:0:0:0:
168,212,196503,2,0,P|120:168|120:104,1,131.25000500679,2|0,0:0|0:0,0:0:0:0:
196,36,196784,2,0,L|328:52,1,131.25000500679,2|8,0:0|1:0,0:0:0:0:
468,28,197065,2,0,P|408:60|408:124,1,131.25000500679,2|0,0:0|0:0,0:0:0:0:
456,210,197347,2,0,B|392:198|392:198|332:230,1,131.25000500679,2|0,0:0|0:0,0:0:0:0:
404,284,197628,2,0,P|424:348|360:372,1,131.25000500679,2|0,0:0|0:0,0:0:0:0:
316,295,197909,6,0,B|320:255|320:255|304:207|304:207|308:167,1,131.25000500679,2|0,0:0|0:0,0:0:0:0:
236,264,198190,1,2,0:0:0:0:
236,264,198284,2,0,L|224:332,1,65.6250025033952,0|0,1:0|0:0,0:0:0:0:
172,184,198472,2,0,L|144:316,1,131.25000500679,8|0,1:0|0:0,0:0:0:0:
232,124,198753,2,0,P|173:98|113:122,1,131.25000500679,2|0,0:0|0:0,0:0:0:0:
64,204,199034,2,0,L|71:269,1,65.6250025033952,2|0,0:0|0:0,0:0:0:0:
113,121,199222,6,0,L|128:56,1,65.6250025033952,0|0,1:0|0:0,0:0:0:0:
172,184,199503,6,0,L|144:316,1,131.25000500679,2|0,0:0|0:0,0:0:0:0:
236,264,199784,2,0,P|304:260|344:304,1,131.25000500679,2|8,0:0|1:0,0:0:0:0:
444,332,200065,2,0,P|492:288|496:224,1,131.25000500679,2|0,0:0|0:0,0:0:0:0:
404,118,200347,2,0,B|384:182|384:182|404:244,1,131.25000500679,2|0,0:0|0:0,0:0:0:0:
488,120,200628,2,0,P|460:54|408:33,1,131.25000500679,2|0,0:0|0:0,0:0:0:0:
208,80,200909,6,0,B|300:92|300:92|336:76,1,131.25000500679,2|0,0:0|0:0,0:0:0:0:
300,200,201190,1,2,0:0:0:0:
300,200,201284,2,0,L|292:132,1,65.6250025033952,0|0,1:0|0:0,0:0:0:0:
220,240,201472,2,0,P|284:288|332:284,1,131.25000500679,8|0,1:0|0:0,0:0:0:0:
217,162,201753,2,0,B|125:150|125:150|89:166,1,131.25000500679,2|0,0:0|0:0,0:0:0:0:
124,292,202034,2,0,L|140:228,1,65.6250025033952,2|0,0:0|0:0,0:0:0:0:
56,344,202222,6,0,P|120:320|172:348,1,131.25000500679,4|0,1:0|0:0,0:0:0:0:
307,339,202503,2,0,P|249:364|192:336,1,131.25000500679,2|0,0:0|0:0,0:0:0:0:
348,252,202784,2,0,L|336:384,1,131.25000500679,2|8,0:0|1:0,0:0:0:0:
252,284,203065,2,0,L|248:152,1,131.25000500679,2|0,0:0|0:0,0:0:0:0:
168,224,203347,2,0,P|103:200|76:142,1,131.25000500679,2|0,0:0|0:0,0:0:0:0:
169,8,203628,2,0,B|174:94|174:94|162:136,1,131.25000500679,2|0,0:0|0:0,0:0:0:0:
0,140,203909,6,0,P|40:80|100:76,1,131.25000500679,2|0,0:0|0:0,0:0:0:0:
84,212,204190,1,2,0:0:0:0:
84,212,204284,2,0,L|77:147,1,65.6250025033952,0|0,1:0|0:0,0:0:0:0:
32,272,204472,2,0,P|92:292|148:260,1,131.25000500679,8|0,1:0|0:0,0:0:0:0:
288,248,204753,2,0,P|228:228|172:260,1,131.25000500679,2|0,0:0|0:0,0:0:0:0:
228,372,205034,2,0,L|235:306,1,65.6250025033952,2|0,0:0|0:0,0:0:0:0:
280,182,205222,6,0,L|288:248,1,65.6250025033952,0|0,1:0|0:0,0:0:0:0:
356,308,205503,6,0,B|396:304|396:304|448:320|448:320|484:316,1,131.25000500679,2|0,0:0|0:0,0:0:0:0:
492,240,205784,2,0,B|452:244|452:244|400:228|400:228|364:232,1,131.25000500679,2|8,0:0|1:0,0:0:0:0:
424,76,206065,2,0,P|452:140|428:196,1,131.25000500679,2|0,0:0|0:0,0:0:0:0:
242,138,206347,2,0,B|274:126|274:126|370:138,1,131.25000500679,2|0,0:0|0:0,0:0:0:0:
189,210,206628,2,0,P|153:154|165:94,1,131.25000500679,2|0,0:0|0:0,0:0:0:0:
272,216,206909,6,0,L|256:348,1,131.25000500679,2|0,0:0|0:0,0:0:0:0:
152,292,207190,1,2,0:0:0:0:
152,292,207284,2,0,L|220:284,1,65.6250025033952,0|0,1:0|0:0,0:0:0:0:
80,248,207472,2,0,B|72:292|72:292|80:340|80:340|72:380,1,131.25000500679,8|0,1:0|0:0,0:0:0:0:
160,164,207753,2,0,B|152:208|152:208|160:256|160:256|152:296,1,131.25000500679,2|0,0:0|0:0,0:0:0:0:
242,138,208034,2,0,L|231:203,1,65.6250025033952
236,284,208222,6,0,B|300:272|300:272|336:280|336:280|364:276,1,131.25000500679,4|0,1:0|0:0,0:0:0:0:
416,192,208503,1,2,0:0:0:0:
424,208,208597,2,0,L|436:140,1,65.6250025033952,4|0,1:0|0:0,0:0:0:0:
316,52,208784,2,0,L|324:184,1,131.25000500679,2|8,0:0|1:0,0:0:0:0:
169,227,209065,2,0,P|184:166|242:138,1,131.25000500679,2|0,0:0|0:0,0:0:0:0:
363,269,209347,2,0,B|327:278|327:278|273:272|273:272|235:283,1,131.25000500679,2|0,0:0|0:0,0:0:0:0:
424,208,209628,2,0,P|449:268|426:328,1,131.25000500679,2|0,0:0|0:0,0:0:0:0:
340,184,209909,6,0,P|384:129|445:123,1,131.25000500679,2|0,0:0|0:0,0:0:0:0:
363,269,210190,1,2,0:0:0:0:
363,269,210284,2,0,L|296:260,1,65.6250025033952,0|0,1:0|0:0,0:0:0:0:
200,184,210472,2,0,B|212:220|212:220|204:264|204:264|216:312,1,131.25000500679,8|0,1:0|0:0,0:0:0:0:
108,96,210753,2,0,B|120:132|120:132|112:176|112:176|124:224,1,131.25000500679,2|0,0:0|0:0,0:0:0:0:
12,76,211034,2,0,L|32:140,1,65.6250025033952,2|0,0:0|0:0,0:0:0:0:
172,40,211222,6,0,P|144:16|108:12,1,65.6250025033952,0|0,1:0|0:0,0:0:0:0:
224,104,211503,6,0,B|260:100|260:100|316:112|316:112|356:108,1,131.25000500679,2|0,0:0|0:0,0:0:0:0:
312,264,211784,2,0,P|276:200|292:148,1,131.25000500679,2|8,0:0|1:0,0:0:0:0:
484,204,212065,2,0,B|446:207|446:207|390:195|390:195|354:199,1,131.25000500679,2|0,0:0|0:0,0:0:0:0:
416,28,212347,2,0,B|432:120|432:120|424:156,1,131.25000500679,2|0,0:0|0:0,0:0:0:0:
312,264,212628,2,0,B|404:248|404:248|440:256,1,131.25000500679,2|0,0:0|0:0,0:0:0:0:
264,320,212909,6,0,L|276:188,1,131.25000500679,2|0,0:0|0:0,0:0:0:0:
328,60,213190,1,2,0:0:0:0:
328,60,213284,2,0,L|340:128,1,65.6250025033952,0|0,1:0|0:0,0:0:0:0:
212,128,213472,2,0,B|172:124|172:124|124:136|124:136|80:132,1,131.25000500679,8|0,1:0|0:0,0:0:0:0:
172,248,213753,1,2,0:0:0:0:
164,240,213847,2,0,L|156:168,1,65.6250025033952,0|0,1:0|0:0,0:0:0:0:
156,384,214034,2,0,L|148:318,1,65.6250025033952,2|0,0:0|0:0,0:0:0:0:
68,344,214222,6,0,L|84:212,1,131.25000500679,4|0,1:0|0:0,0:0:0:0:
172,344,214503,2,0,B|212:336|212:336|260:348|260:348|300:340,1,131.25000500679,2|0,0:0|0:0,0:0:0:0:
360,212,214784,2,0,P|292:212|260:260,1,131.25000500679,2|8,0:0|1:0,0:0:0:0:
414,276,215065,2,0,B|410:240|394:212|394:212|410:184|414:152,1,131.25000500679,2|0,0:0|0:0,0:0:0:0:
363,78,215347,2,0,P|426:63|482:95,1,131.25000500679,2|0,0:0|0:0,0:0:0:0:
308,148,215628,2,0,P|276:92|288:28,1,131.25000500679,2|0,0:0|0:0,0:0:0:0:
414,151,215909,6,0,L|396:288,1,131.25000500679,2|0,1:2|0:0,0:0:0:0:
320,376,216190,1,0,0:0:0:0:
320,376,216284,2,0,L|312:310,1,65.6250025033952,0|0,1:0|0:0,0:0:0:0:
184,248,216472,2,0,B|220:240|248:256|248:256|276:232|308:232,1,131.25000500679,8|0,1:0|0:0,0:0:0:0:
132,180,216753,2,0,P|100:232|114:297,1,131.25000500679,2|0,0:0|0:0,0:0:0:0:
216,168,217034,2,0,L|208:100,1,65.6250025033952,2|0,0:0|0:0,0:0:0:0:
299,297,217222,6,0,L|307:232,1,65.6250025033952,0|0,1:0|0:0,0:0:0:0:
296,140,217503,6,0,B|332:136|332:136|384:148|384:148|428:144,1,131.25000500679,2|0,0:0|0:0,0:0:0:0:
488,204,217784,2,0,P|512:140|488:84,1,131.25000500679,2|8,0:0|1:0,0:0:0:0:
408,224,218065,2,0,L|420:356,1,131.25000500679,2|0,0:0|0:0,0:0:0:0:
256,304,218347,2,0,B|284:296|312:272|312:272|340:296|372:304,1,131.25000500679,2|0,0:0|0:0,0:0:0:0:
200,368,218628,2,0,P|172:308|192:248,1,131.25000500679,2|0,0:0|0:0,0:0:0:0:
300,144,218909,6,0,B|320:232|320:232|312:272,1,131.25000500679,2|0,0:0|0:0,0:0:0:0:
220,168,219190,1,2,0:0:0:0:
220,168,219284,2,0,L|154:171,1,65.6250025033952,0|0,1:0|0:0,0:0:0:0:
240,88,219472,2,0,P|295:62|359:89,1,131.25000500679,8|0,1:0|0:0,0:0:0:0:
512,164,219753,2,0,B|420:176|420:176|384:164,1,131.25000500679,2|0,0:0|0:0,0:0:0:0:
448,24,220034,2,0,L|440:92,1,65.6250025033952,2|0,0:0|0:0,0:0:0:0:
436,220,220222,6,0,L|448:308,1,87.5,4|0,0:0|0:0,0:0:0:0:
360,240,220597,2,0,L|372:328,1,87.5
76,220,220972,6,0,L|64:308,1,87.5,8|0,0:0|0:0,0:0:0:0:
152,240,221347,2,0,L|140:328,1,87.5
436,164,221722,6,0,L|448:76,1,87.5
360,144,222097,2,0,L|372:56,1,87.5
76,164,222472,6,0,L|64:76,1,87.5,8|0,0:0|0:0,0:0:0:0:
152,144,222847,2,0,L|140:56,1,87.5
320,240,223222,5,0,0:0:0:0:
306,252,223315,1,0,0:0:0:0:
289,261,223409,1,0,0:0:0:0:
271,266,223503,1,0,0:0:0:0:
253,268,223597,1,0,0:0:0:0:
234,264,223690,1,0,0:0:0:0:
217,257,223784,1,0,0:0:0:0:
202,246,223878,1,0,0:0:0:0:
220,224,223972,5,0,0:0:0:0:
221,248,224065,1,0,0:0:0:0:
214,272,224159,1,0,0:0:0:0:
199,292,224253,1,0,0:0:0:0:
178,305,224347,1,0,0:0:0:0:
153,309,224440,1,0,0:0:0:0:
129,304,224534,1,0,0:0:0:0:
108,291,224628,1,0,0:0:0:0:
96,268,224722,6,0,L|104:224,3,43.75
136,140,225097,2,0,L|128:96,3,43.75
51,118,225472,5,0,0:0:0:0:
49,160,225565,1,0,0:0:0:0:
68,199,225659,1,0,0:0:0:0:
103,224,225753,1,0,0:0:0:0:
146,230,225847,2,0,L|191:226,1,43.75
308,108,226034,2,0,L|264:104,1,43.75
136,140,226222,5,6,1:2:0:0:
284,200,226409,1,0,0:0:0:0:
146,230,226597,1,2,0:0:0:0:
309,190,226784,1,0,0:0:0:0:
122,238,226972,2,0,P|106:198|102:154,1,87.5,8|0,1:0|0:0,0:0:0:0:
275,272,227347,5,2,0:0:0:0:
146,314,227534,1,0,0:0:0:0:
226,204,227722,1,2,0:0:0:0:
226,340,227909,1,0,0:0:0:0:
146,230,228097,1,2,0:0:0:0:
298,282,228284,1,0,1:0:0:0:
298,282,228472,2,0,L|386:274,1,87.5,8|0,1:0|0:0,0:0:0:0:
492,240,228847,2,0,P|504:196|496:156,1,87.5,2|0,0:0|0:0,0:0:0:0:
432,104,229128,1,0,0:0:0:0:
432,104,229222,6,0,L|336:112,1,87.5,4|0,1:0|0:0,0:0:0:0:
212,152,229597,2,0,P|184:112|176:72,1,87.5,2|0,0:0|0:0,0:0:0:0:
300,192,229972,2,0,P|296:236|280:276,1,87.5,8|0,1:0|0:0,0:0:0:0:
120,300,230347,5,2,0:0:0:0:
200,240,230534,1,0,0:0:0:0:
192,352,230722,1,2,0:0:0:0:
100,284,230909,1,0,0:0:0:0:
224,236,231097,1,2,0:0:0:0:
184,372,231284,1,0,1:0:0:0:
76,268,231472,2,0,B|96:228|100:184|100:184,1,87.5,8|0,1:0|0:0,0:0:0:0:
104,88,231847,1,2,0:0:0:0:
16,56,232034,1,2,0:0:0:0:
192,120,232222,6,0,L|280:112,1,87.5,4|0,1:0|0:0,0:0:0:0:
192,260,232597,2,0,L|280:268,1,87.5,4|0,1:0|0:0,0:0:0:0:
124,200,232972,2,0,P|104:240|104:284,1,87.5,8|0,1:0|0:0,0:0:0:0:
300,271,233347,5,2,0:0:0:0:
192,260,233534,1,0,0:0:0:0:
328,276,233722,1,2,0:0:0:0:
252,192,233909,1,0,0:0:0:0:
264,344,234097,1,2,0:0:0:0:
248,164,234284,1,0,1:0:0:0:
328,276,234472,2,0,L|416:268,1,87.5,8|0,1:0|0:0,0:0:0:0:
252,192,234847,2,0,L|164:184,1,87.5,2|0,0:0|0:0,0:0:0:0:
344,188,235128,1,0,0:0:0:0:
360,172,235222,6,0,P|376:132|380:88,1,87.5,4|0,1:0|0:0,0:0:0:0:
252,192,235597,2,0,L|260:280,1,87.5,2|0,0:0|0:0,0:0:0:0:
176,136,235972,2,0,L|188:44,1,87.5,8|0,1:0|0:0,0:0:0:0:
272,112,236347,1,2,0:0:0:0:
152,224,236534,5,0,0:0:0:0:
130,222,236627,1,0,0:0:0:0:
108,220,236721,1,0,1:0:0:0:
257,236,236909,1,8,1:0:0:0:
160,312,237097,5,2,0:0:0:0:
138,310,237190,1,0,0:0:0:0:
116,308,237284,1,0,1:0:0:0:
265,324,237472,2,0,L|352:312,1,87.5,8|0,1:0|1:0,0:0:0:0:
444,240,237847,1,2,0:0:0:0:
420,368,238034,1,2,0:0:0:0:
460,156,238222,6,0,P|440:116|432:72,1,87.5,4|0,1:0|0:0,0:0:0:0:
360,200,238597,2,0,P|352:244|336:284,1,87.5,2|0,0:0|0:0,0:0:0:0:
272,112,238972,2,0,L|360:120,1,87.5,8|0,1:0|0:0,0:0:0:0:
188,184,239347,5,2,0:0:0:0:
160,88,239534,1,0,0:0:0:0:
264,216,239722,1,2,0:0:0:0:
232,312,239909,1,0,0:0:0:0:
176,192,240097,1,2,0:0:0:0:
148,96,240284,1,0,1:0:0:0:
276,228,240472,2,0,L|256:316,1,87.5,8|0,1:0|0:0,0:0:0:0:
100,316,240847,2,0,P|144:308|184:328,1,87.5,2|0,0:0|0:0,0:0:0:0:
316,360,241128,1,0,0:0:0:0:
336,368,241222,6,0,P|384:360|412:336,1,87.5,4|0,1:0|0:0,0:0:0:0:
424,212,241597,1,2,0:0:0:0:
348,292,241784,1,0,0:0:0:0:
440,196,241972,2,0,L|432:108,1,87.5,8|0,1:0|0:0,0:0:0:0:
216,128,242347,5,2,2:0:0:0:
355,107,242534,1,0,2:0:0:0:
231,41,242722,1,2,2:0:0:0:
293,170,242909,1,0,2:0:0:0:
318,30,243097,1,2,2:0:0:0:
288,200,243284,1,0,1:0:0:0:
208,24,243472,2,0,L|120:36,1,87.5,8|0,1:0|0:0,0:0:0:0:
60,124,243847,1,2,1:2:0:0:
24,28,244034,1,2,0:0:0:0:
149,138,244222,6,0,L|136:224,1,87.5,4|0,1:0|0:0,0:0:0:0:
208,24,244597,2,0,L|220:112,1,87.5,4|0,1:0|0:0,0:0:0:0:
172,288,244972,2,0,B|216:280|216:280|260:288,1,87.5,8|0,1:0|0:0,0:0:0:0:
364,240,245347,5,2,0:0:0:0:
316,348,245534,1,0,0:0:0:0:
288,200,245722,2,0,L|280:112,1,87.5,2|0,0:0|0:0,0:0:0:0:
360,72,246097,1,2,0:0:0:0:
196,124,246284,1,0,1:0:0:0:
376,160,246472,2,0,B|420:152|420:152|464:164,1,87.5,8|0,1:0|0:0,0:0:0:0:
288,200,246847,2,0,L|276:288,1,87.5,2|0,0:0|0:0,0:0:0:0:
336,352,247128,1,0,0:0:0:0:
336,352,247222,5,4,1:0:0:0:
464,340,247409,1,0,0:0:0:0:
336,268,247597,5,2,0:0:0:0:
464,256,247784,1,0,0:0:0:0:
336,180,247972,5,2,0:0:0:0:
464,168,248159,1,0,0:0:0:0:
336,96,248347,5,2,0:0:0:0:
464,84,248534,1,0,0:0:0:0:
336,180,248722,6,0,L|248:172,1,87.5,2|0,0:0|0:0,0:0:0:0:
336,268,249097,2,0,L|248:260,1,87.5,2|0,0:0|0:0,0:0:0:0:
74,268,249472,6,0,L|166:260,1,87.5,2|0,0:0|0:0,0:0:0:0:
74,356,249847,2,0,L|166:348,1,87.5,2|0,0:0|0:0,0:0:0:0:
412,264,250222,6,0,P|356:192|284:212,1,175,4|2,1:2|0:0,0:0:0:0:
312,348,250784,1,0,0:0:0:0:
336,268,250972,2,0,B|344:224|344:224|324:140|324:140|332:96,1,175,8|2,1:0|0:0,0:0:0:0:
380,24,251534,1,0,0:0:0:0:
420,100,251722,6,0,L|512:92,1,87.5,2|0,0:0|0:0,0:0:0:0:
420,200,252097,2,0,L|512:208,1,87.5,2|0,0:0|1:0,0:0:0:0:
336,268,252472,2,0,B|316:224|316:224|340:100,1,175,8|2,1:0|0:0,0:0:0:0:
416,308,253034,1,0,0:0:0:0:
416,308,253128,1,0,0:0:0:0:
416,308,253222,6,0,L|240:292,1,175,4|2,1:0|0:0,0:0:0:0:
152,224,253784,1,0,0:0:0:0:
150,312,253972,2,0,B|142:268|142:268|162:184|162:184|154:140,1,175,8|2,1:0|0:0,0:0:0:0:
64,184,254534,1,0,0:0:0:0:
152,224,254722,6,0,L|240:216,1,87.5,2|0,0:0|0:0,0:0:0:0:
148,312,255097,2,0,L|60:304,1,87.5,2|0,0:0|1:0,0:0:0:0:
64,184,255472,2,0,P|120:128|208:145,1,175,8|2,1:0|0:0,0:0:0:0:
152,224,256034,1,2,0:0:0:0:
272,284,256222,6,0,B|264:240|264:240|284:152|284:152|276:108,1,175,4|2,1:0|0:0,0:0:0:0:
352,240,256784,1,0,0:0:0:0:
248,308,256972,2,0,B|204:304|204:304|172:332|112:332|88:280,1,175,8|2,1:0|0:0,0:0:0:0:
48,188,257534,1,0,0:0:0:0:
168,160,257722,6,0,L|156:248,1,87.5,2|0,0:0|0:0,0:0:0:0:
40,100,258097,2,0,L|48:188,1,87.5,2|0,0:0|1:0,0:0:0:0:
256,152,258472,2,0,P|240:108|124:84,1,175,8|2,1:0|0:0,0:0:0:0:
236,232,259034,1,0,0:0:0:0:
236,232,259128,1,0,0:0:0:0:
236,232,259222,6,0,L|412:220,1,175,4|2,1:0|0:0,0:0:0:0:
344,144,259784,1,0,0:0:0:0:
488,264,259972,2,0,B|496:220|496:220|476:136|476:136|484:92,1,175,8|2,1:0|0:0,0:0:0:0:
396,36,260534,1,0,0:0:0:0:
344,144,260722,6,0,L|432:152,1,87.5,2|0,0:0|0:0,0:0:0:0:
291,72,261097,1,2,0:0:0:0:
264,240,261284,1,0,1:0:0:0:
264,240,261378,1,0,0:0:0:0:
264,240,261472,2,0,B|252:196|252:196|260:152|260:152,1,87.5,8|0,1:0|0:0,0:0:0:0:
172,268,261847,1,2,0:0:0:0:
360,236,262034,1,2,0:0:0:0:
148,272,262222,6,0,L|60:264,1,87.5,4|0,1:0|0:0,0:0:0:0:
88,140,262597,2,0,B|100:96|100:96|92:52,1,87.5,2|0,0:0|0:0,0:0:0:0:
24,188,262972,2,0,L|200:172,1,175,8|2,1:0|0:0,0:0:0:0:
276,96,263534,1,0,0:0:0:0:
316,192,263722,6,0,B|308:236|308:236|316:280,1,87.5,2|0,0:0|0:0,0:0:0:0:
276,96,264097,2,0,L|188:92,1,87.5,2|0,0:0|1:0,0:0:0:0:
328,204,264472,2,0,L|504:192,1,175,8|2,1:0|0:0,0:0:0:0:
284,289,265034,1,0,0:0:0:0:
284,289,265128,1,0,0:0:0:0:
284,289,265222,6,0,B|304:325|304:325|316:181,1,175,4|2,1:0|0:0,0:0:0:0:
216,228,265784,1,0,0:0:0:0:
128,220,265972,2,0,L|216:228,1,87.5,8|0,1:0|0:0,0:0:0:0:
60,160,266347,2,0,P|40:200|40:244,1,87.5,2|0,0:0|0:0,0:0:0:0:
144,136,266722,6,0,P|140:92|120:52,1,87.5,2|0,0:0|0:0,0:0:0:0:
128,220,267097,2,0,L|216:228,1,87.5,2|0,0:0|1:0,0:0:0:0:
296,188,267378,1,0,0:0:0:0:
296,188,267472,2,0,L|304:276,1,87.5,8|0,1:0|0:0,0:0:0:0:
376,152,267847,1,2,0:0:0:0:
280,102,268034,1,2,0:0:0:0:
380,244,268222,6,0,B|427:235|453:202|453:202|449:247|465:289,1,175,4|2,1:0|0:0,0:0:0:0:
376,152,268784,1,0,0:0:0:0:
376,152,268878,1,0,0:0:0:0:
376,152,268972,2,0,L|388:64,1,87.5,8|0,1:0|0:0,0:0:0:0:
296,188,269347,2,0,L|280:100,1,87.5,2|0,0:0|0:0,0:0:0:0:
112,32,269722,6,0,B|104:76|104:76|124:160|124:160|116:204,1,175,2|2,0:0|0:0,0:0:0:0:
20,164,270284,1,0,1:0:0:0:
180,280,270472,2,0,L|268:272,1,87.5,8|0,1:0|0:0,0:0:0:0:
116,203,270847,1,2,0:0:0:0:
116,203,270940,1,0,0:0:0:0:
116,203,271034,1,0,0:0:0:0:
324,132,271222,5,4,1:0:0:0:
311,153,271315,1,0,0:0:0:0:
302,176,271409,1,0,0:0:0:0:
298,201,271503,1,0,0:0:0:0:
299,226,271597,1,2,0:0:0:0:
305,250,271690,1,0,0:0:0:0:
315,273,271784,1,0,0:0:0:0:
330,293,271878,1,0,0:0:0:0:
380,280,271972,6,0,L|424:284,3,43.75,8|0|0|0,1:0|0:0|0:0|0:0,0:0:0:0:
304,248,272347,2,0,L|260:252,1,43.75,2|0,0:0|0:0,0:0:0:0:
156,320,272534,2,0,L|200:324,1,43.75
284,356,272722,5,2,0:0:0:0:
302,354,272815,1,0,0:0:0:0:
321,353,272909,1,0,0:0:0:0:
340,352,273003,1,0,0:0:0:0:
358,351,273097,1,2,0:0:0:0:
377,350,273190,1,0,0:0:0:0:
396,348,273284,2,0,P|408:328|414:309,1,43.75,0|0,1:0|0:0,0:0:0:0:
384,200,273472,2,0,L|380:157,3,43.75,8|0|0|0,1:0|0:0|0:0|0:0,0:0:0:0:
304,248,273847,6,0,P|280:245|260:236,1,43.75,2|0,0:0|0:0,0:0:0:0:
156,320,274034,2,0,P|177:314|200:312,1,43.75
256,192,274222,12,0,279847,0:0:0:0:
