osu file format v12

[General]
AudioFilename: Circles.mp3
AudioLeadIn: 0
PreviewTime: 48891
Countdown: 0
SampleSet: Soft
StackLeniency: 0.7
Mode: 0
LetterboxInBreaks: 0
WidescreenStoryboard: 0

[Editor]
DistanceSpacing: 1.2
BeatDivisor: 4
GridSize: 4
TimelineZoom: 1

[Metadata]
Title:Circles
TitleUnicode:Circles
Artist:The Downtown Fiction
ArtistUnicode:The Downtown Fiction
Creator:Zero__wind
Version:Normal
Source:
Tags:Pineapple ep punk Irie Miyuki
BeatmapID:366596
BeatmapSetID:144029

[Difficulty]
HPDrainRate:4
CircleSize:3
OverallDifficulty:4
ApproachRate:5
SliderMultiplier:1.5
SliderTickRate:1

[Events]
//Background and Video events
0,0,"bg.jpg",0,0
//Break Periods
//Storyboard Layer 0 (Background)
//Storyboard Layer 1 (Fail)
//Storyboard Layer 2 (Pass)
//Storyboard Layer 3 (Foreground)
//Storyboard Sound Samples
//Background Colour Transformations
3,100,163,162,255

[TimingPoints]
468,652.173913043478,4,2,1,40,1,0
32424,-100,4,2,1,50,0,0
32750,-100,4,2,1,40,0,0
37641,-100,4,2,1,50,0,0
43185,-100,4,2,1,40,0,0
44815,-100,4,2,1,30,0,0
45467,-100,4,2,1,40,0,0
47424,-100,4,2,1,50,0,0
48076,-100,4,2,1,55,0,0
48728,-100,4,2,1,60,0,0
50033,-100,4,2,1,70,0,1
51011,-100,4,2,1,30,0,1
51337,-100,4,2,1,70,0,1
53620,-100,4,2,1,30,0,1
53946,-100,4,2,1,70,0,1
56228,-100,4,2,1,30,0,1
56554,-100,4,2,1,70,0,1
57044,-100,4,2,1,30,0,1
57207,-100,4,2,1,70,0,1
57696,-100,4,2,1,50,0,1
57859,-100,4,2,1,70,0,1
59652,-100,4,2,1,50,0,1
59978,-100,4,2,1,60,0,1
60141,-100,4,2,1,70,0,1
61446,-100,4,2,1,30,0,1
61772,-100,4,2,1,70,0,1
63402,-100,4,2,1,50,0,1
64054,-100,4,2,1,30,0,1
64381,-100,4,2,1,70,0,1
65033,-100,4,2,1,50,0,1
65359,-100,4,2,1,70,0,1
68294,-100,4,2,1,60,0,0
69598,-100,4,2,1,50,0,0
69924,-100,4,2,1,40,0,0
70250,-100,4,2,1,30,0,0
70576,-100,4,2,1,20,0,0
70902,-100,4,2,1,40,0,0
73837,-100,4,2,1,50,0,0
74000,-100,4,2,1,40,0,0
74163,-100,4,2,1,50,0,0
74326,-100,4,2,1,30,0,0
74489,-100,4,2,1,40,0,0
74815,-100,4,2,1,50,0,0
74978,-100,4,2,1,40,0,0
76120,-100,4,2,1,40,0,0
79381,-100,4,2,1,50,0,0
79707,-100,4,2,1,40,0,0
84598,-100,4,2,1,50,0,0
84924,-100,4,2,1,40,0,0
86228,-100,4,2,1,50,0,0
86554,-100,4,2,1,40,0,0
91772,-100,4,2,1,30,0,0
92098,-100,4,2,1,40,0,0
93728,-100,4,2,1,45,0,0
94381,-100,4,2,1,50,0,0
95033,-100,4,2,1,55,0,0
95685,-100,4,2,1,60,0,0
96989,-100,4,2,1,70,0,1
97967,-100,4,2,1,30,0,1
98294,-100,4,2,1,70,0,1
100576,-100,4,2,1,30,0,1
100902,-100,4,2,1,70,0,1
103185,-100,4,2,1,30,0,1
103511,-100,4,2,1,70,0,1
108402,-100,4,2,1,30,0,1
108728,-100,4,2,1,70,0,1
111011,-100,4,2,1,30,0,1
111337,-100,4,2,1,70,0,1
111989,-100,4,2,1,50,0,1
112478,-100,4,2,1,40,0,1
112641,-100,4,2,1,70,0,1
114272,-100,4,2,1,50,0,1
114598,-100,4,2,1,70,0,1
114924,-100,4,2,1,50,0,1
115087,-100,4,2,1,40,0,1
115250,-100,4,2,1,60,0,1
115576,-100,4,2,1,70,0,1
116717,-100,4,2,1,40,0,1
116881,-100,4,2,1,70,0,1
117370,-100,4,2,1,60,0,1
117859,-100,4,2,1,60,0,0
119000,-100,4,2,1,40,0,0
119163,-100,4,2,1,60,0,0
120304,-100,4,2,1,40,0,0
120467,-100,4,2,1,60,0,0
121935,-100,4,2,1,40,0,0
122098,-100,4,2,1,60,0,0
122424,-100,4,2,1,50,0,0
122587,-100,4,2,1,60,0,0
124217,-100,4,2,1,40,0,0
124381,-100,4,2,1,60,0,0
125522,-100,4,2,1,40,0,0
125685,-100,4,2,1,60,0,0
126663,-100,4,2,1,40,0,0
126826,-100,4,2,1,60,0,0
129272,-100,4,2,1,40,0,0
129598,-100,4,2,1,60,0,0
130576,-100,4,2,1,40,0,0
131228,-100,4,2,1,60,0,0
131881,-100,4,2,1,40,0,0
132207,-100,4,2,1,60,0,0
132370,-100,4,2,1,40,0,0
132533,-100,4,2,1,60,0,0
132859,-100,4,2,1,40,0,0
133185,-100,4,2,1,60,0,0
143457,-100,4,2,1,30,0,0
143620,-100,4,2,1,60,0,0
144761,-100,4,2,1,30,0,0
144924,-100,4,2,1,60,0,0
145576,-100,4,2,1,50,0,0
146065,-100,4,2,1,40,0,0
146228,-100,4,2,1,50,0,0
146391,-100,4,2,1,40,0,0
146554,-100,4,2,1,60,0,0
149000,-100,4,2,1,40,0,0
149163,-100,4,2,1,60,0,0
149489,-100,4,2,1,40,0,0
149652,-100,4,2,1,60,0,0
152098,-100,4,2,1,40,0,0
152424,-100,4,2,1,60,0,0
154054,-100,4,2,1,40,0,0
154217,-100,4,2,1,60,0,0
155690,666.666666666667,4,2,1,65,1,0
156361,697.674418604651,4,2,1,65,1,0
157098,1120.8668036615,4,2,1,70,1,0
157378,-100,4,2,1,60,0,0
158218,-100,4,2,1,50,0,0
159339,-100,4,2,1,40,0,0
160460,-100,4,2,1,30,0,0
161021,-100,4,2,1,20,0,0
161581,652.173913043478,4,2,1,10,1,0
162616,645.161290322581,4,2,1,40,1,0
163583,-100,4,2,1,25,0,0
163906,656.455142231947,4,2,1,25,1,0
164070,-100,4,2,1,35,0,0
164234,-100,4,2,1,30,0,0
164562,-100,4,2,1,40,0,0
164890,-100,4,2,1,30,0,0
165218,660.79295154185,4,2,1,40,1,0
165548,-100,4,2,1,25,0,0
165878,-100,4,2,1,40,0,0
166374,-100,4,2,1,30,0,0
166539,-100,4,2,1,40,0,0
166704,-100,4,2,1,30,0,0
167200,-100,4,2,1,40,0,0
167530,-100,4,2,1,30,0,0
167861,657.894736842105,4,2,1,40,1,0
169012,-100,4,2,1,25,0,0
169176,-100,4,2,1,30,0,0
169834,-100,4,2,1,40,0,0
170163,-100,4,2,1,30,0,0
170486,663.716814159292,4,2,1,40,1,0
172809,-100,4,2,1,30,0,0
173140,660.79295154185,4,2,1,40,1,0
174296,-100,4,2,1,30,0,0
174461,-100,4,2,1,25,0,0
174626,-100,4,2,1,40,0,0
174791,-100,4,2,1,30,0,0
175122,-100,4,2,1,40,0,0
175452,-100,4,2,1,30,0,0
175783,-100,4,2,1,40,0,0
176113,-100,4,2,1,25,0,0
176443,-100,4,2,1,40,0,0
176939,-100,4,2,1,30,0,0
177765,-100,4,2,1,40,0,0
178095,-100,4,2,1,30,0,0
178424,686.49885583524,4,2,1,40,1,0
179488,648.648648648649,4,2,1,40,1,0
180136,-100,4,2,1,30,0,0
180460,697.674418604651,4,2,1,30,1,0
181506,-100,4,2,1,20,0,0
182553,-100,4,2,1,10,0,0
185343,-100,4,2,1,5,0,0

[Colours]
Combo1 : 218,29,48
Combo2 : 24,156,147
Combo3 : 170,219,0
Combo4 : 43,105,154

[HitObjects]
392,72,10902,6,0,L|424:140,1,75
444,224,11554,2,0,P|405:288|335:310,1,150,2|0,0:0|0:0,0:0:0:0:
260,268,12533,1,0,0:0:0:0:
247,182,12859,2,0,L|235:97,1,75,2|0,0:0|0:0,0:0:0:0:
324,92,13511,6,0,L|340:204,2,112.5,0|2|0,0:0|0:0|0:0,0:0:0:0:
172,20,15141,1,0,0:0:0:0:
90,20,15467,2,0,L|52:28,2,37.5,0|0|2,0:0|0:0|0:0,0:0:0:0:
132,92,16120,6,0,L|152:164,1,75
160,252,16772,2,0,P|103:298|31:290,1,150,2|0,0:0|0:0,0:0:0:0:
80,216,17750,1,0,0:0:0:0:
152,164,18076,2,0,L|232:168,1,75,2|0,0:0|0:0,0:0:0:0:
280,240,18728,6,0,P|313:192|311:138,2,112.5,0|2|0,0:0|0:0|0:0,0:0:0:0:
392,368,20359,1,0,0:0:0:0:
474,368,20685,2,0,L|512:360,2,37.5,0|0|2,0:0|0:0|0:0,0:0:0:0:
432,296,21338,6,0,L|412:224,1,75
332,184,21989,2,0,P|393:140|466:152,1,150,2|0,0:0|0:0,0:0:0:0:
496,68,22967,1,0,0:0:0:0:
408,48,23294,2,0,P|371:53|336:65,1,75,2|0,0:0|0:0,0:0:0:0:
260,112,23946,6,0,P|208:87|192:36,2,112.5,0|2|0,0:0|0:0|0:0,0:0:0:0:
304,276,25576,1,0,0:0:0:0:
252,344,25902,2,0,P|195:353|144:336,1,112.5,2|0,0:0|0:0,0:0:0:0:
108,312,26554,5,0,0:0:0:0:
44,252,26881,1,0,0:0:0:0:
36,164,27207,2,0,L|68:96,1,75,2|0,0:0|0:0,0:0:0:0:
132,32,27859,1,2,0:0:0:0:
196,92,28186,1,0,0:0:0:0:
204,180,28512,2,0,L|172:248,1,75,2|0,0:0|0:0,0:0:0:0:
240,304,29163,6,0,L|272:236,1,75,4|0,3:0|0:0,0:0:0:0:
348,192,29815,2,0,P|356:115|305:67,1,150,2|8,1:2|0:0,0:0:0:0:
272,148,30794,1,8,0:0:0:0:
348,192,31120,2,0,L|424:204,1,75,2|0,1:2|0:0,0:0:0:0:
496,156,31772,6,0,P|512:80|476:20,1,150,8|2,0:0|1:2,0:0:0:0:
388,16,32750,2,0,L|244:56,1,150,12|8,0:0|0:0,0:0:0:0:
184,120,33728,1,2,1:2:0:0:
96,104,34054,2,0,L|80:68,2,37.5,0|0|8,0:0|0:0|0:0,0:0:0:0:
126,188,34707,5,0,0:0:0:0:
136,276,35033,2,0,P|118:347|51:377,1,150,2|8,1:2|0:0,0:0:0:0:
48,288,36011,1,8,0:0:0:0:
37,200,36337,2,0,P|38:162|55:130,1,75,2|0,1:2|0:0,0:0:0:0:
123,186,36989,6,0,L|273:178,1,150,8|2,0:0|1:2,0:0:0:0:
248,268,37967,2,0,L|398:260,1,150,12|8,0:0|0:0,0:0:0:0:
480,296,38946,2,0,L|488:336,2,37.5,0|0|2,0:0|1:0|1:2,0:0:0:0:
506,209,39598,5,8,0:0:0:0:
504,120,39924,1,0,0:0:0:0:
480,36,40250,2,0,P|404:12|332:24,1,150,2|8,1:2|0:0,0:0:0:0:
268,76,41228,1,8,0:0:0:0:
280,160,41554,2,0,L|304:232,1,75,2|0,1:2|0:0,0:0:0:0:
384,268,42207,6,0,P|333:310|251:302,1,150,8|2,0:0|1:2,0:0:0:0:
196,372,43185,2,0,P|168:311|197:234,1,150,12|8,0:0|0:0,0:0:0:0:
244,164,44163,1,2,1:2:0:0:
244,76,44489,2,0,L|232:40,2,37.5,0|0|12,0:0|0:0|0:0,0:0:0:0:
320,232,45467,5,2,1:2:0:0:
168,312,46120,1,8,0:0:0:0:
80,304,46446,1,8,0:0:0:0:
20,240,46772,2,0,L|12:164,1,75,2|8,1:2|0:0,0:0:0:0:
36,80,47424,5,8,3:0:0:0:
116,48,47750,1,8,3:0:0:0:
200,68,48076,1,8,3:0:0:0:
272,116,48402,1,8,3:0:0:0:
296,200,48728,1,4,3:0:0:0:
100,180,50033,6,0,L|200:68,1,150,12|0,3:2|1:0,0:0:0:0:
284,44,51011,1,0,0:0:0:0:
364,80,51337,1,10,3:2:0:0:
376,122,51500,1,0,1:0:0:0:
376,166,51663,2,0,L|348:236,1,75,8|2,3:2|1:2,0:0:0:0:
284,296,52315,1,2,0:0:0:0:
336,368,52641,6,0,P|412:372|472:332,1,150,10|0,3:2|1:0,0:0:0:0:
496,248,53620,1,0,0:0:0:0:
480,164,53946,1,8,3:2:0:0:
440,148,54109,1,0,1:0:0:0:
396,144,54272,2,0,L|320:156,1,75,8|2,3:2|1:2,0:0:0:0:
248,200,54924,1,2,0:0:0:0:
164,176,55250,6,0,P|128:104|151:43,1,150,12|0,3:2|1:0,0:0:0:0:
237,25,56228,1,0,0:0:0:0:
256,112,56554,1,10,3:2:0:0:
256,156,56717,1,0,1:0:0:0:
248,200,56881,2,0,P|251:243|260:276,1,75,8|2,3:2|1:2,0:0:0:0:
316,340,57533,2,0,L|352:352,2,37.5,2|0|8,0:0|3:0|3:2,0:0:0:0:
144,344,58511,6,0,P|84:336|32:348,1,112.5,2|0,1:2|1:0,0:0:0:0:
16,308,59163,2,0,L|8:228,1,75,4|8,3:0|3:0,0:0:0:0:
36,148,59815,1,4,3:0:0:0:
72,124,59978,1,4,3:0:0:0:
108,100,60141,1,0,1:0:0:0:
152,22,60467,6,0,P|196:90|181:154,1,150,12|0,3:2|1:0,0:0:0:0:
176,240,61446,1,0,0:0:0:0:
220,316,61772,1,10,3:2:0:0:
260,332,61935,1,0,1:0:0:0:
304,336,62098,2,0,L|380:328,1,75,8|2,3:2|1:2,0:0:0:0:
452,280,62750,1,2,0:0:0:0:
484,200,63076,6,0,P|491:158|483:124,2,75,10|2|2,3:2|0:0|1:2,0:0:0:0:
404,164,64054,1,0,0:0:0:0:
336,108,64381,1,10,3:2:0:0:
316,71,64544,1,0,1:0:0:0:
312,28,64707,2,0,L|387:15,1,75,8|4,3:2|1:2,0:0:0:0:
444,84,65359,1,4,3:0:0:0:
432,128,65522,1,4,3:0:0:0:
404,164,65685,6,0,L|256:188,2,150,12|2|10,3:2|1:2|3:2,0:0:0:0:
468,224,67315,1,8,3:2:0:0:
468,268,67478,1,0,1:0:0:0:
468,312,67641,2,0,L|492:348,2,37.5,0|8|4,1:0|3:0|3:0,0:0:0:0:
376,316,68294,1,12,0:0:0:0:
256,192,68457,12,0,70902,0:0:0:0:
324,240,71554,6,0,P|344:184|340:132,1,112.5,2|2,0:0|0:0,0:0:0:0:
324,92,72207,2,0,L|248:80,1,75
188,144,72859,2,0,P|168:200|172:252,1,112.5,2|2,0:0|0:0,0:0:0:0:
188,292,73512,6,0,L|264:304,1,75,0|0,0:0|1:0,0:0:0:0:
304,318,74000,1,2,0:0:0:0:
340,344,74163,2,0,L|358:376,2,37.5,8|8|2,3:0|3:0|1:2,0:0:0:0:
392,272,74815,1,4,3:0:0:0:
408,232,74978,1,0,1:0:0:0:
424,192,75141,2,0,L|460:180,2,37.5,0|8|10,1:0|3:0|3:2,0:0:0:0:
324,48,76120,5,12,3:2:0:0:
239,24,76446,1,0,0:0:0:0:
152,20,76772,2,0,P|84:60|64:126,1,150,2|8,1:2|0:0,0:0:0:0:
88,208,77750,1,8,0:0:0:0:
128,284,78076,2,0,L|204:300,1,75,2|0,1:2|0:0,0:0:0:0:
264,360,78728,6,0,P|340:336|384:284,1,150,8|0,0:0|1:0,0:0:0:0:
328,216,79707,2,0,L|181:185,1,150,12|8,3:2|0:0,0:0:0:0:
148,104,80685,2,0,P|216:52|280:44,1,150,2|8,1:2|0:0,0:0:0:0:
364,64,81663,5,0,0:0:0:0:
416,136,81989,2,0,P|420:179|416:212,1,75,2|0,1:2|0:0,0:0:0:0:
364,280,82641,2,0,P|321:284|288:280,1,75,8|8,0:0|0:0,0:0:0:0:
232,216,83294,2,0,P|194:212|157:216,1,75,2|0,1:2|0:0,0:0:0:0:
104,288,83946,6,0,P|72:220|96:152,1,150,8|0,0:0|1:0,0:0:0:0:
168,104,84924,2,0,P|96:69|32:92,1,150,12|8,3:2|0:0,0:0:0:0:
4,172,85902,2,0,L|12:252,1,75,2|0,0:0|1:0,0:0:0:0:
56,320,86554,5,8,0:0:0:0:
140,344,86881,1,0,0:0:0:0:
224,356,87207,2,0,P|280:312|288:236,1,150,2|8,1:2|0:0,0:0:0:0:
252,160,88185,1,8,0:0:0:0:
176,120,88511,2,0,L|104:100,1,75,0|0,1:0|0:0,0:0:0:0:
144,24,89163,6,0,L|288:64,1,150,10|0,0:0|1:0,0:0:0:0:
356,120,90141,2,0,L|368:272,1,150,12|8,3:2|0:0,0:0:0:0:
416,340,91120,2,0,P|455:343|488:328,1,75,0|0,1:0|0:0,0:0:0:0:
510,246,91772,6,0,L|498:96,1,150,12|0,0:0|1:0,0:0:0:0:
344,24,93076,1,8,0:0:0:0:
256,20,93402,1,8,0:0:0:0:
168,24,93728,2,0,L|96:48,1,75,4|8,1:2|0:0,0:0:0:0:
32,104,94381,5,8,3:0:0:0:
28,192,94707,1,8,3:0:0:0:
56,276,95033,1,8,3:0:0:0:
124,332,95359,1,8,3:0:0:0:
212,336,95685,2,0,L|284:316,1,75,4|0,3:0|1:0,0:0:0:0:
340,248,96337,1,0,1:0:0:0:
336,204,96500,1,0,1:0:0:0:
316,164,96663,1,4,3:0:0:0:
228,160,96989,6,0,P|200:92|228:20,1,150,12|0,3:2|1:0,0:0:0:0:
312,16,97967,1,0,0:0:0:0:
400,32,98294,1,10,3:2:0:0:
428,64,98457,1,0,1:0:0:0:
444,104,98620,2,0,P|447:143|441:179,1,75,8|2,3:2|1:2,0:0:0:0:
392,248,99272,1,2,0:0:0:0:
380,336,99598,6,0,P|308:280|308:216,1,150,10|0,3:2|1:0,0:0:0:0:
304,140,100576,1,0,0:0:0:0:
280,56,100902,1,10,3:2:0:0:
242,36,101065,1,0,1:0:0:0:
200,24,101228,2,0,P|156:24|124:32,1,75,8|2,3:2|1:2,0:0:0:0:
56,80,101881,1,2,0:0:0:0:
20,160,102207,6,0,L|36:316,1,150,12|0,3:2|1:0,0:0:0:0:
108,356,103185,1,0,0:0:0:0:
196,356,103511,1,10,3:2:0:0:
239,348,103674,1,0,1:0:0:0:
280,332,103837,2,0,P|297:303|308:264,1,75,8|2,3:2|1:2,0:0:0:0:
300,176,104489,2,0,L|336:156,2,37.5,2|0|8,0:0|3:0|3:2,0:0:0:0:
152,260,105467,6,0,P|128:208|128:152,1,112.5,0|0,1:0|1:0,0:0:0:0:
136,112,106120,2,0,L|212:92,1,75,10|0,3:2|1:0,0:0:0:0:
292,68,106772,1,8,3:0:0:0:
335,76,106935,1,4,3:0:0:0:
376,92,107098,1,4,3:0:0:0:
424,168,107424,6,0,L|404:324,1,150,12|2,3:2|1:2,0:0:0:0:
328,364,108402,1,0,0:0:0:0:
240,372,108728,1,10,3:2:0:0:
198,360,108891,1,0,1:0:0:0:
168,328,109054,2,0,P|153:291|148:256,1,75,8|2,3:2|1:2,0:0:0:0:
180,172,109707,1,2,0:0:0:0:
252,120,110033,6,0,P|175:88|116:111,1,150,10|2,3:2|1:2,0:0:0:0:
60,176,111011,1,0,0:0:0:0:
52,264,111337,1,10,3:2:0:0:
68,304,111500,1,0,1:0:0:0:
92,340,111663,2,0,L|168:360,1,75,8|2,3:2|1:2,0:0:0:0:
252,352,112315,1,0,0:0:0:0:
276,316,112478,1,0,1:0:0:0:
292,276,112641,6,0,P|288:192|252:140,2,150,12|2|10,3:2|1:2|3:2,0:0:0:0:
350,344,114272,1,8,3:2:0:0:
432,372,114598,2,0,P|471:366|508:344,1,75,2|0,1:2|0:0,0:0:0:0:
512,308,115087,2,0,L|508:268,1,37.5,0|12,1:0|3:2,0:0:0:0:
496,184,115576,5,8,3:2:0:0:
444,112,115902,2,0,L|332:92,1,112.5,2|0,1:2|1:0,0:0:0:0:
304,60,116554,2,0,L|300:20,2,37.5,8|0|0,3:2|1:0|1:0,0:0:0:0:
264,140,117207,1,0,1:0:0:0:
222,152,117370,1,0,1:0:0:0:
177,154,117533,2,0,L|141:146,1,37.5,0|0,1:0|1:0,0:0:0:0:
116,108,117859,6,0,L|108:28,1,75,12|8,3:2|3:2,0:0:0:0:
20,52,118511,2,0,L|31:163,1,112.5,2|0,1:2|1:0,0:0:0:0:
40,204,119163,2,0,P|72:224|108:232,1,75,8|8,3:2|3:2,0:0:0:0:
120,320,119815,2,0,P|171:291|196:244,1,112.5,2|0,1:2|1:0,0:0:0:0:
196,200,120467,2,0,L|188:120,1,75,8|8,3:2|3:2,0:0:0:0:
268,80,121120,6,0,L|279:191,1,112.5,0|0,1:0|1:0,0:0:0:0:
308,224,121772,2,0,L|344:236,2,37.5,8|0|8,3:2|1:0|3:2,0:0:0:0:
256,296,122424,1,4,1:2:0:0:
324,352,122750,1,8,3:0:0:0:
366,364,122913,1,8,3:0:0:0:
409,366,123076,6,0,L|484:344,1,75,12|8,3:2|3:2,0:0:0:0:
504,260,123728,2,0,P|512:196|496:148,1,112.5,2|0,1:2|1:0,0:0:0:0:
472,116,124381,2,0,L|400:84,1,75,8|8,3:2|3:2,0:0:0:0:
328,36,125033,2,0,P|320:100|336:148,1,112.5,2|0,1:2|1:0,0:0:0:0:
360,180,125686,2,0,L|432:212,1,75,8|8,3:2|3:2,0:0:0:0:
412,296,126337,6,0,L|343:265,1,75,0|0,1:0|0:0,0:0:0:0:
256,256,126989,1,0,1:0:0:0:
216,272,127152,1,8,3:0:0:0:
176,288,127315,2,0,L|100:276,1,75,4|0,3:0|1:0,0:0:0:0:
68,248,127804,2,0,P|60:204|64:172,1,75,12|0,3:2|1:0,0:0:0:0:
72,132,128294,5,12,3:2:0:0:
136,72,128620,1,8,3:2:0:0:
196,136,128946,2,0,L|272:132,1,75,0|0,1:0|0:0,0:0:0:0:
356,144,129598,1,8,3:2:0:0:
420,84,129924,1,8,3:2:0:0:
340,44,130250,2,0,L|264:48,1,75,0|0,1:0|0:0,0:0:0:0:
192,96,130902,5,12,3:2:0:0:
136,164,131228,1,8,3:2:0:0:
200,224,131554,2,0,L|220:296,1,75,0|0,1:0|0:0,0:0:0:0:
176,370,132207,2,0,L|140:362,2,37.5,8|0|8,3:2|1:0|3:2,0:0:0:0:
264,372,132859,2,0,L|344:352,1,75,4|8,1:2|3:2,0:0:0:0:
412,304,133511,6,0,P|456:244|456:168,1,150,4|2,1:2|1:2,0:0:0:0:
332,52,134815,2,0,P|288:112|288:188,1,150,2|2,1:2|1:2,0:0:0:0:
264,272,135794,1,8,3:2:0:0:
204,336,136120,6,0,L|128:328,1,75,2|8,1:2|3:2,0:0:0:0:
160,244,136772,2,0,L|84:236,1,75,2|8,1:2|3:2,0:0:0:0:
56,204,137261,1,8,3:2:0:0:
40,164,137424,2,0,P|31:125|43:90,1,75,2|0,1:2|1:0,0:0:0:0:
112,36,138076,1,0,1:0:0:0:
156,44,138239,1,0,1:0:0:0:
200,52,138402,2,0,L|240:48,2,37.5,0|0|12,1:0|1:0|3:2,0:0:0:0:
256,192,138891,12,8,141337,3:2:0:0:
256,192,141989,5,0,1:0:0:0:
276,280,142315,2,0,P|326:333|400:344,1,150,10|8,3:2|3:2,0:0:0:0:
476,300,143294,2,0,L|488:264,1,37.5,0|0,1:0|1:0,0:0:0:0:
492,220,143620,1,2,1:2:0:0:
484,176,143783,1,0,1:0:0:0:
468,136,143946,6,0,P|428:88|384:68,1,112.5,12|8,3:2|3:2,0:0:0:0:
344,52,144598,2,0,L|328:16,2,37.5,2|0|10,1:2|0:0|3:2,0:0:0:0:
280,208,145576,1,4,3:0:0:0:
204,252,145902,2,0,L|164:252,1,37.5,0|0,1:0|0:0,0:0:0:0:
126,236,146228,1,2,0:0:0:0:
92,208,146391,1,0,1:0:0:0:
72,168,146554,6,0,L|68:92,1,75,12|4,3:2|3:0,0:0:0:0:
136,35,147207,1,2,1:2:0:0:
196,102,147533,2,0,L|204:252,1,150,0|4,1:0|3:0,0:0:0:0:
176,336,148511,2,0,P|233:331|277:302,1,112.5,2|0,1:2|0:0,0:0:0:0:
300,264,149163,6,0,L|296:188,1,75,12|2,3:2|0:0,0:0:0:0:
272,104,149815,1,0,1:0:0:0:
312,24,150141,2,0,P|388:8|456:32,1,150,10|8,3:2|3:2,0:0:0:0:
508,96,151120,1,0,1:0:0:0:
504,264,151772,6,0,L|428:280,1,75,10|0,3:2|0:0,0:0:0:0:
360,328,152424,1,0,1:0:0:0:
280,296,152750,2,0,P|247:232|264:156,1,150,12|8,3:2|3:2,0:0:0:0:
323,89,153728,1,2,1:2:0:0:
356,114,153891,1,0,1:0:0:0:
380,151,154054,2,0,L|366:191,1,37.5,2|0,1:2|1:0,0:0:0:0:
336,220,154381,6,0,L|256:232,1,75,12|8,3:2|3:2,0:0:0:0:
212,304,155033,2,0,L|146:255,1,75,12|8,3:2|3:2,0:0:0:0:
68,288,155690,1,12,3:2:0:0:
55,200,156023,1,8,3:2:0:0:
1,136,156361,1,12,3:2:0:0:
65,83,156709,1,8,3:2:0:0:
117,146,157098,1,12,3:2:0:0:
256,192,157378,12,0,161581,0:0:0:0:
184,272,162616,6,0,P|256:296|324:272,1,150,2|2,0:0|0:0,0:0:0:0:
376,200,163583,1,0,0:0:0:0:
348,116,163906,2,0,L|312:100,2,37.5,0|2|0,0:0|0:0|0:0,0:0:0:0:
436,134,164562,1,2,0:0:0:0:
496,200,164890,2,0,L|503:238,1,37.5
500,282,165218,6,0,P|479:323|456:342,1,75,2|0,0:0|0:0,0:0:0:0:
372,368,165878,2,0,L|264:336,1,112.5,2|0,0:0|0:0,0:0:0:0:
220,328,166539,2,0,L|192:352,2,37.5,2|0|0,0:0|0:0|0:0,0:0:0:0:
273,255,167200,1,2,0:0:0:0:
276,168,167530,2,0,L|272:128,1,37.5
259,88,167861,6,0,L|192:52,1,75,2|0,0:0|0:0,0:0:0:0:
104,56,168518,2,0,P|76:112|79:161,1,112.5,2|0,0:0|0:0,0:0:0:0:
104,196,169176,2,0,L|140:212,2,37.5,0|2|0,0:0|0:0|0:0,0:0:0:0:
24,240,169834,1,2,0:0:0:0:
45,327,170163,2,0,L|81:343,1,37.5
121,347,170486,5,2,0:0:0:0:
288,320,171149,2,0,L|332:216,1,112.5,2|0,0:0|0:0,0:0:0:0:
336,172,171813,2,0,L|324:136,2,37.5,2|0|0,0:0|0:0|0:0,0:0:0:0:
420,208,172477,1,2,0:0:0:0:
488,152,172809,2,0,L|495:113,1,37.5
491,72,173140,5,2,0:0:0:0:
328,20,173800,2,0,P|276:20|220:40,1,112.5,2|0,0:0|0:0,0:0:0:0:
188,72,174461,2,0,L|188:112,2,37.5,0|2|0,0:0|0:0|0:0,0:0:0:0:
116,24,175122,1,2,0:0:0:0:
36,60,175452,2,0,L|36:100,1,37.5
44,140,175783,6,0,P|68:161|108:176,1,75,2|0,0:0|0:0,0:0:0:0:
192,152,176443,2,0,P|178:224|151:253,1,112.5,2|0,0:0|0:0,0:0:0:0:
116,276,177104,2,0,L|80:264,2,37.5,0|2|0,0:0|0:0|0:0,0:0:0:0:
176,340,177765,1,2,0:0:0:0:
264,332,178095,1,0,0:0:0:0:
340,296,178424,6,0,P|380:236|376:160,1,150,2|0,0:0|0:0,0:0:0:0:
320,72,179488,2,0,P|280:132|284:208,1,150,2|2,0:0|0:0,0:0:0:0:
340,296,180460,2,0,L|416:304,2,75,0|0|2,0:0|0:0|0:0,0:0:0:0:
256,192,181506,12,0,185343,0:0:0:0:
