osu file format v12

[General]
AudioFilename: Circles.mp3
AudioLeadIn: 0
PreviewTime: 48891
Countdown: 0
SampleSet: Soft
StackLeniency: 0.7
Mode: 0
LetterboxInBreaks: 0
WidescreenStoryboard: 0

[Editor]
DistanceSpacing: 1.2
BeatDivisor: 4
GridSize: 4
TimelineZoom: 1

[Metadata]
Title:Circles
TitleUnicode:Circles
Artist:The Downtown Fiction
ArtistUnicode:The Downtown Fiction
Creator:Zero__wind
Version:Hard
Source:
Tags:Pineapple ep punk Irie Miyuki
BeatmapID:358014
BeatmapSetID:144029

[Difficulty]
HPDrainRate:6
CircleSize:4
OverallDifficulty:6
ApproachRate:8
SliderMultiplier:2
SliderTickRate:1

[Events]
//Background and Video events
0,0,"bg.jpg",0,0
//Break Periods
//Storyboard Layer 0 (Background)
//Storyboard Layer 1 (Fail)
//Storyboard Layer 2 (Pass)
//Storyboard Layer 3 (Foreground)
//Storyboard Sound Samples
//Background Colour Transformations
3,100,163,162,255

[TimingPoints]
468,652.173913043478,4,2,1,40,1,0
13674,-100,4,2,1,30,0,0
13837,-100,4,2,1,40,0,0
18891,-100,4,2,1,30,0,0
19054,-100,4,2,1,40,0,0
31935,-100,4,2,1,30,0,0
32098,-100,4,2,1,40,0,0
32424,-100,4,2,1,50,0,0
32750,-100,4,2,1,40,0,0
37152,-100,4,2,1,30,0,0
37315,-100,4,2,1,40,0,0
37641,-100,4,2,1,50,0,0
37967,-100,4,2,1,40,0,0
42370,-100,4,2,1,30,0,0
42533,-100,4,2,1,40,0,0
42859,-100,4,2,1,50,0,0
43185,-100,4,2,1,40,0,0
44815,-100,4,2,1,30,0,0
45141,-100,4,2,1,40,0,0
46772,-100,4,2,1,45,0,0
47424,-100,4,2,1,50,0,0
48076,-100,4,2,1,55,0,0
48728,-100,4,2,1,60,0,0
49054,-100,4,2,1,20,0,0
50033,-100,4,2,1,70,0,1
50522,-100,4,2,1,30,0,1
50685,-100,4,2,1,70,0,1
51011,-100,4,2,1,30,0,1
51174,-100,4,2,1,40,0,1
51337,-100,4,2,1,70,0,1
51826,-100,4,2,1,30,0,1
51989,-100,4,2,1,70,0,1
52478,-100,4,2,1,50,0,1
52641,-100,4,2,1,70,0,1
52967,-100,4,2,1,50,0,1
53131,-100,4,2,1,30,0,1
53294,-100,4,2,1,70,0,1
53620,-100,4,2,1,30,0,1
53783,-100,4,2,1,40,0,1
53946,-100,4,2,1,70,0,1
54435,-100,4,2,1,30,0,1
54598,-100,4,2,1,70,0,1
55739,-100,4,2,1,50,0,1
55902,-100,4,2,1,70,0,1
56228,-100,4,2,1,30,0,1
56391,-100,4,2,1,40,0,1
56554,-100,4,2,1,70,0,1
57044,-100,4,2,1,30,0,1
57207,-100,4,2,1,70,0,1
57696,-100,4,2,1,50,0,1
57859,-100,4,2,1,70,0,1
58185,-100,4,2,1,50,0,1
58348,-100,4,2,1,30,0,1
58511,-100,4,2,1,70,0,1
58674,-100,4,2,1,30,0,1
59000,-100,4,2,1,70,0,1
59326,-100,4,2,1,30,0,1
59489,-100,4,2,1,70,0,1
59652,-100,4,2,1,50,0,1
59978,-100,4,2,1,60,0,1
60141,-100,4,2,1,70,0,1
60957,-100,4,2,1,30,0,1
61120,-100,4,2,1,70,0,1
61446,-100,4,2,1,30,0,1
61609,-100,4,2,1,50,0,1
61772,-100,4,2,1,70,0,1
62913,-100,4,2,1,50,0,1
63076,-100,4,2,1,70,0,1
63402,-100,4,2,1,50,0,1
63565,-100,4,2,1,30,0,1
63728,-100,4,2,1,70,0,1
64054,-100,4,2,1,30,0,1
64217,-100,4,2,1,40,0,1
64381,-100,4,2,1,70,0,1
65033,-100,4,2,1,50,0,1
65196,-100,4,2,1,40,0,1
65359,-100,4,2,1,70,0,1
66011,-100,4,2,1,50,0,1
66337,-100,4,2,1,70,0,1
66663,-100,4,2,1,50,0,1
66826,-100,4,2,1,70,0,1
68185,-100,4,2,1,40,0,1
68294,-100,4,2,1,60,0,0
69598,-100,4,2,1,50,0,0
69924,-100,4,2,1,40,0,0
70250,-100,4,2,1,30,0,0
70576,-100,4,2,1,20,0,0
70902,-100,4,2,1,40,0,0
73837,-100,4,2,1,50,0,0
74000,-100,4,2,1,40,0,0
74163,-100,4,2,1,50,0,0
74326,-100,4,2,1,30,0,0
74489,-100,4,2,1,40,0,0
74815,-100,4,2,1,50,0,0
74978,-100,4,2,1,40,0,0
75467,-133.333333333333,4,2,1,40,0,0
75957,-100,4,2,1,30,0,0
76120,-100,4,2,1,40,0,0
79217,-100,4,2,1,30,0,0
79381,-100,4,2,1,50,0,0
79707,-100,4,2,1,40,0,0
84109,-100,4,2,1,30,0,0
84272,-100,4,2,1,40,0,0
84598,-100,4,2,1,50,0,0
84924,-100,4,2,1,40,0,0
86228,-100,4,2,1,50,0,0
86554,-100,4,2,1,40,0,0
91772,-100,4,2,1,30,0,0
92098,-100,4,2,1,40,0,0
93728,-100,4,2,1,45,0,0
94381,-100,4,2,1,50,0,0
95033,-100,4,2,1,55,0,0
95685,-100,4,2,1,60,0,0
96174,-100,4,2,1,30,0,0
96337,-100,4,2,1,60,0,0
96989,-100,4,2,1,70,0,1
97478,-100,4,2,1,30,0,1
97641,-100,4,2,1,70,0,1
97967,-100,4,2,1,30,0,1
98131,-100,4,2,1,40,0,1
98294,-100,4,2,1,70,0,1
98783,-100,4,2,1,30,0,1
98946,-100,4,2,1,70,0,1
99924,-100,4,2,1,50,0,1
100087,-100,4,2,1,30,0,1
100250,-100,4,2,1,70,0,1
100576,-100,4,2,1,30,0,1
100739,-100,4,2,1,40,0,1
100902,-100,4,2,1,70,0,1
102044,-100,4,2,1,50,0,1
102207,-100,4,2,1,70,0,1
102696,-100,4,2,1,50,0,1
102859,-100,4,2,1,70,0,1
103185,-100,4,2,1,30,0,1
103348,-100,4,2,1,40,0,1
103511,-100,4,2,1,70,0,1
104000,-100,4,2,1,30,0,1
104163,-100,4,2,1,70,0,1
105141,-100,4,2,1,50,0,1
105304,-100,4,2,1,30,0,1
105467,-100,4,2,1,70,0,1
105631,-100,4,2,1,30,0,1
105957,-100,4,2,1,70,0,1
106283,-100,4,2,1,30,0,1
106446,-100,4,2,1,70,0,1
107913,-100,4,2,1,30,0,1
108076,-100,4,2,1,70,0,1
108402,-100,4,2,1,30,0,1
108565,-100,4,2,1,40,0,1
108728,-100,4,2,1,70,0,1
110359,-100,4,2,1,50,0,1
110522,-100,4,2,1,30,0,1
110685,-100,4,2,1,70,0,1
111011,-100,4,2,1,30,0,1
111174,-100,4,2,1,40,0,1
111337,-100,4,2,1,70,0,1
111989,-100,4,2,1,50,0,1
112478,-100,4,2,1,40,0,1
112641,-100,4,2,1,70,0,1
112967,-100,4,2,1,50,0,1
113294,-100,4,2,1,70,0,1
113620,-100,4,2,1,50,0,1
113946,-100,4,2,1,70,0,1
114109,-100,4,2,1,30,0,1
114272,-100,4,2,1,50,0,1
114598,-100,4,2,1,70,0,1
114924,-100,4,2,1,50,0,1
115087,-100,4,2,1,40,0,1
115250,-100,4,2,1,60,0,1
115576,-100,4,2,1,70,0,1
116065,-100,4,2,1,50,0,1
116228,-100,4,2,1,30,0,1
116391,-100,4,2,1,70,0,1
116717,-100,4,2,1,40,0,1
116881,-100,4,2,1,70,0,1
117370,-100,4,2,1,60,0,1
117859,-100,4,2,1,60,0,0
119000,-100,4,2,1,40,0,0
119163,-100,4,2,1,60,0,0
119326,-100,4,2,1,40,0,0
119489,-100,4,2,1,60,0,0
120304,-100,4,2,1,40,0,0
120467,-100,4,2,1,60,0,0
121446,-100,4,2,1,40,0,0
121609,-100,4,2,1,60,0,0
121935,-100,4,2,1,40,0,0
122098,-100,4,2,1,60,0,0
122424,-100,4,2,1,50,0,0
122587,-100,4,2,1,60,0,0
124217,-100,4,2,1,40,0,0
124381,-100,4,2,1,60,0,0
125522,-100,4,2,1,40,0,0
125685,-100,4,2,1,60,0,0
126663,-100,4,2,1,40,0,0
126826,-100,4,2,1,60,0,0
129272,-100,4,2,1,40,0,0
129598,-100,4,2,1,60,0,0
130576,-100,4,2,1,40,0,0
131228,-100,4,2,1,60,0,0
131881,-100,4,2,1,40,0,0
132207,-100,4,2,1,60,0,0
132370,-100,4,2,1,40,0,0
132533,-100,4,2,1,60,0,0
132859,-100,4,2,1,40,0,0
133185,-100,4,2,1,60,0,0
142804,-100,4,2,1,50,0,0
142967,-100,4,2,1,60,0,0
143457,-100,4,2,1,30,0,0
143620,-100,4,2,1,60,0,0
144761,-100,4,2,1,30,0,0
144924,-100,4,2,1,60,0,0
145087,-100,4,2,1,40,0,0
145576,-100,4,2,1,60,0,0
146065,-100,4,2,1,40,0,0
146228,-100,4,2,1,50,0,0
146391,-100,4,2,1,40,0,0
146554,-100,4,2,1,60,0,0
147370,-100,4,2,1,50,0,0
147533,-100,4,2,1,60,0,0
148511,-133.333333333333,4,2,1,60,0,0
149000,-133.333333333333,4,2,1,40,0,0
149163,-100,4,2,1,60,0,0
149489,-100,4,2,1,40,0,0
149652,-100,4,2,1,60,0,0
150631,-100,4,2,1,40,0,0
150794,-100,4,2,1,60,0,0
151446,-100,4,2,1,40,0,0
151772,-100,4,2,1,60,0,0
153239,-100,4,2,1,40,0,0
153402,-100,4,2,1,60,0,0
154054,-100,4,2,1,40,0,0
154217,-100,4,2,1,60,0,0
155690,666.666666666667,4,2,1,65,1,0
156361,697.674418604651,4,2,1,65,1,0
157098,1120.8668036615,4,2,1,70,1,0
157378,-100,4,2,1,60,0,0
158218,-100,4,2,1,50,0,0
159339,-100,4,2,1,40,0,0
160460,-100,4,2,1,30,0,0
161021,-100,4,2,1,20,0,0
161581,652.173913043478,4,2,1,10,1,0
162616,645.161290322581,4,2,1,40,1,0
162938,-100,4,2,1,25,0,0
163261,-100,4,2,1,40,0,0
163583,-100,4,2,1,25,0,0
163745,-100,4,2,1,40,0,0
163906,656.455142231947,4,2,1,25,1,0
164070,-100,4,2,1,35,0,0
164234,-100,4,2,1,30,0,0
164562,-100,4,2,1,40,0,0
164890,-100,4,2,1,30,0,0
165218,660.79295154185,4,2,1,40,1,0
165548,-100,4,2,1,25,0,0
165878,-100,4,2,1,40,0,0
166374,-100,4,2,1,30,0,0
166539,-100,4,2,1,40,0,0
166704,-100,4,2,1,30,0,0
167200,-100,4,2,1,40,0,0
167530,-100,4,2,1,30,0,0
167861,657.894736842105,4,2,1,40,1,0
168847,-100,4,2,1,20,0,0
169012,-100,4,2,1,25,0,0
169176,-100,4,2,1,30,0,0
169834,-100,4,2,1,40,0,0
170163,-100,4,2,1,30,0,0
170486,663.716814159292,4,2,1,40,1,0
172311,-100,4,2,1,25,0,0
172477,-100,4,2,1,40,0,0
172809,-100,4,2,1,30,0,0
173140,660.79295154185,4,2,1,40,1,0
174296,-100,4,2,1,30,0,0
174461,-100,4,2,1,25,0,0
174626,-100,4,2,1,40,0,0
174791,-100,4,2,1,30,0,0
175122,-100,4,2,1,40,0,0
175452,-100,4,2,1,30,0,0
175783,-100,4,2,1,40,0,0
176113,-100,4,2,1,25,0,0
176443,-100,4,2,1,40,0,0
176774,-100,4,2,1,20,0,0
176939,-100,4,2,1,30,0,0
177765,-100,4,2,1,40,0,0
178095,-100,4,2,1,30,0,0
178424,686.49885583524,4,2,1,40,1,0
178424,-166.666666666667,4,2,1,40,0,0
179488,648.648648648649,4,2,1,40,1,0
179488,-166.666666666667,4,2,1,40,0,0
180136,-166.666666666667,4,2,1,30,0,0
180460,697.674418604651,4,2,1,30,1,0
181506,-100,4,2,1,20,0,0
182553,-100,4,2,1,10,0,0
185343,-100,4,2,1,5,0,0

[Colours]
Combo1 : 218,29,48
Combo2 : 24,156,147
Combo3 : 170,219,0
Combo4 : 43,105,154

[HitObjects]
340,84,10902,5,0,0:0:0:0:
392,168,11228,1,0,0:0:0:0:
384,268,11554,2,0,P|360:312|320:344,1,100,2|0,0:0|0:0,0:0:0:0:
248,360,12044,1,0,0:0:0:0:
172,356,12207,2,0,L|84:304,1,100
168,140,12859,1,2,0:0:0:0:
232,220,13185,1,0,0:0:0:0:
220,248,13348,1,0,0:0:0:0:
200,272,13511,6,0,L|156:245,2,50,0|0|0,0:0|0:0|0:0,0:0:0:0:
300,267,14000,2,0,P|313:246|316:215,2,50,2|0|0,0:0|0:0|0:0,0:0:0:0:
374,332,14489,2,0,P|413:266|416:194,1,150,2|2,0:0|0:0,0:0:0:0:
400,120,15141,1,0,0:0:0:0:
328,52,15467,2,0,L|352:8,2,50,0|0|2,0:0|0:0|0:0,0:0:0:0:
236,88,16120,5,0,0:0:0:0:
136,68,16446,1,0,0:0:0:0:
56,12,16772,2,0,P|38:63|46:107,1,100,2|0,0:0|0:0,0:0:0:0:
92,168,17261,1,0,0:0:0:0:
136,232,17424,2,0,P|84:244|41:227,1,100
168,162,18076,2,0,P|206:203|213:245,1,100,2|0,0:0|0:0,0:0:0:0:
184,316,18565,1,2,0:0:0:0:
120,356,18728,6,0,L|72:340,2,50
256,280,19217,2,0,L|304:264,2,50
239,200,19707,2,0,P|181:243|184:316,1,150,2|2,0:0|0:0,0:0:0:0:
232,372,20359,1,0,0:0:0:0:
344,328,20685,2,0,P|370:333|397:332,1,50,0|0,0:0|0:0,0:0:0:0:
460,300,21011,1,2,0:0:0:0:
472,200,21337,5,0,0:0:0:0:
417,114,21663,1,0,0:0:0:0:
374,206,21989,2,0,P|423:212|471:199,1,100,2|0,0:0|0:0,0:0:0:0:
508,133,22478,1,0,0:0:0:0:
493,59,22641,2,0,P|444:24|401:21,1,100,0|0,0:0|0:0,0:0:0:0:
264,64,23294,2,0,P|215:56|176:25,1,100,2|0,0:0|0:0,0:0:0:0:
208,93,23783,1,2,0:0:0:0:
188,166,23946,6,0,P|157:204|110:222,1,100,2|0,0:0|0:0,0:0:0:0:
104,132,24435,2,0,L|80:88,2,50,2|0|0,0:0|0:0|0:0,0:0:0:0:
176,236,24924,2,0,P|233:264|314:233,1,150,2|2,0:0|0:0,0:0:0:0:
244,176,25576,1,0,0:0:0:0:
56,244,25902,2,0,L|68:344,1,100,2|0,0:0|0:0,0:0:0:0:
216,360,26554,5,0,0:0:0:0:
216,360,26881,1,0,0:0:0:0:
316,352,27207,1,0,0:0:0:0:
316,352,27533,1,0,0:0:0:0:
408,196,27859,1,2,0:0:0:0:
400,296,28185,1,0,0:0:0:0:
232,164,28511,1,2,0:0:0:0:
304,232,28837,1,0,0:0:0:0:
328,161,29000,2,0,L|328:136,2,25,0|0|4,1:0|1:0|3:0,0:0:0:0:
288,44,29489,5,0,0:0:0:0:
192,20,29815,2,0,P|140:16|96:32,1,100,2|0,1:2|0:0,0:0:0:0:
36,80,30304,1,2,3:2:0:0:
32,156,30467,2,0,L|40:208,1,50,8|0,0:0|3:0,0:0:0:0:
76,272,30794,1,8,0:0:0:0:
172,236,31120,2,0,P|197:185|192:140,1,100,2|0,1:2|0:0,0:0:0:0:
124,176,31609,2,0,L|104:160,2,25,0|0|8,3:0|3:0|0:0,0:0:0:0:
172,236,31935,5,0,0:0:0:0:
244,256,32098,1,0,0:0:0:0:
320,252,32261,2,0,P|347:235|364:216,1,50,2|0,0:0|1:0,0:0:0:0:
412,42,32750,2,0,L|432:192,1,150,12|0,0:0|3:0,0:0:0:0:
420,266,33402,1,8,0:0:0:0:
288,168,33728,2,0,L|273:56,1,100,2|2,1:2|0:0,0:0:0:0:
354,132,34217,1,0,3:0:0:0:
288,168,34381,6,0,P|236:178|192:164,1,100,8|0,0:0|0:0,0:0:0:0:
48,128,35033,2,0,P|65:77|99:46,1,100,2|0,1:2|0:0,0:0:0:0:
172,30,35522,2,0,L|196:14,2,25,0|0|8,3:0|3:0|0:0,0:0:0:0:
140,128,36011,1,8,0:0:0:0:
136,228,36337,2,0,L|204:304,1,100,2|0,1:2|0:0,0:0:0:0:
156,360,36826,2,0,L|132:372,2,25,0|0|8,3:0|3:0|0:0,0:0:0:0:
232,372,37152,5,0,0:0:0:0:
278,312,37315,1,0,0:0:0:0:
248,243,37478,2,0,L|216:204,1,50,2|0,0:0|1:0,0:0:0:0:
344,52,37967,2,0,P|381:110|364:188,1,150,12|0,0:0|3:0,0:0:0:0:
323,250,38620,1,8,0:0:0:0:
392,356,38946,1,2,0:0:0:0:
464,336,39109,1,0,1:0:0:0:
504,272,39272,2,0,L|508:216,1,50,2|0,1:2|3:0,0:0:0:0:
500,148,39598,5,8,0:0:0:0:
460,56,39924,1,0,0:0:0:0:
372,8,40250,2,0,L|272:16,1,100,2|0,1:2|0:0,0:0:0:0:
208,56,40739,2,0,L|184:44,2,25,0|0|8,3:0|3:0|0:0,0:0:0:0:
256,144,41228,1,8,0:0:0:0:
228,240,41554,2,0,P|190:271|141:278,1,100,2|2,1:2|0:0,0:0:0:0:
160,204,42044,2,0,L|156:180,2,25,0|0|8,0:0|0:0|0:0,0:0:0:0:
140,277,42370,5,0,0:0:0:0:
103,342,42533,1,0,0:0:0:0:
36,376,42696,2,0,P|15:359|4:340,1,50,2|0,0:0|1:0,0:0:0:0:
13,179,43185,2,0,L|160:204,1,150,12|0,0:0|3:0,0:0:0:0:
228,240,43837,1,8,0:0:0:0:
304,148,44163,2,0,P|315:98|304:52,1,100,2|0,1:2|0:0,0:0:0:0:
236,20,44652,1,0,3:0:0:0:
160,12,44815,6,0,L|64:40,1,100,12|0,0:0|0:0,0:0:0:0:
24,132,45467,1,2,1:2:0:0:
56,228,45794,1,0,0:0:0:0:
124,264,45957,2,0,L|152:276,2,25,0|0|8,3:0|3:0|0:0,0:0:0:0:
132,164,46446,1,8,0:0:0:0:
220,216,46772,2,0,P|238:283|230:316,1,100,2|8,1:2|0:0,0:0:0:0:
124,264,47424,5,8,3:0:0:0:
300,124,47750,1,8,3:0:0:0:
231,311,48076,1,8,3:0:0:0:
192,72,48402,1,8,3:0:0:0:
328,240,48728,1,4,3:0:0:0:
251,208,49054,5,0,0:0:0:0:
174,176,49381,1,2,0:0:0:0:
96,144,49707,1,2,0:0:0:0:
366,23,50033,6,0,P|409:84|415:158,1,150,12|0,3:2|0:0,0:0:0:0:
328,240,50685,2,0,L|236:201,1,100,2|0,1:2|0:0,0:0:0:0:
212,112,51174,1,0,1:0:0:0:
248,28,51337,2,0,L|294:8,1,50,10|0,3:2|1:0,0:0:0:0:
212,112,51663,2,0,P|192:99|174:81,1,50,8|0,3:2|0:0,0:0:0:0:
68,24,51989,2,0,L|64:124,1,100,2|2,1:2|0:0,0:0:0:0:
20,212,52478,1,0,3:0:0:0:
20,212,52560,1,0,3:0:0:0:
20,212,52641,6,0,P|72:224|116:208,1,100,10|0,3:2|0:0,0:0:0:0:
144,296,53131,1,0,0:0:0:0:
210,232,53294,2,0,P|209:179|184:139,1,100,0|0,1:0|0:0,0:0:0:0:
144,296,53783,1,0,1:0:0:0:
216,352,53946,2,0,L|264:364,1,50,8|0,3:2|1:0,0:0:0:0:
356,364,54272,2,0,L|404:352,1,50,8|0,3:2|0:0,0:0:0:0:
476,296,54598,1,2,1:2:0:0:
404,128,54924,1,2,0:0:0:0:
210,232,55250,6,0,P|280:256|352:232,1,150,12|0,3:2|0:0,0:0:0:0:
404,128,55902,2,0,L|384:28,1,100,0|0,1:0|0:0,0:0:0:0:
496,104,56391,1,0,1:0:0:0:
476,192,56554,2,0,P|456:208|432:220,1,50,10|0,3:2|1:0,0:0:0:0:
280,144,56881,2,0,L|270:94,2,50,8|0|2,3:2|0:0|1:2,0:0:0:0:
248,324,57533,1,2,0:0:0:0:
164,360,57696,1,0,3:0:0:0:
164,360,57777,1,0,3:0:0:0:
164,360,57859,6,0,P|109:347|76:320,1,100,8|2,3:2|0:0,0:0:0:0:
40,236,58348,1,0,0:0:0:0:
84,156,58511,1,0,1:0:0:0:
84,156,58674,2,0,L|84:104,1,50
40,236,59000,1,0,1:0:0:0:
132,234,59163,2,0,P|152:219|166:198,1,50,4|0,3:0|0:0,0:0:0:0:
184,108,59489,1,8,3:0:0:0:
256,52,59652,1,8,3:0:0:0:
340,16,59815,1,4,3:0:0:0:
424,52,59978,1,4,3:0:0:0:
496,108,60141,1,0,1:0:0:0:
340,292,60467,6,0,L|340:142,1,150,12|0,3:2|0:0,0:0:0:0:
440,180,61120,2,0,L|440:280,1,100,2|0,1:2|0:0,0:0:0:0:
400,362,61609,1,0,1:0:0:0:
310,378,61772,2,0,P|282:364|267:348,1,50,10|0,3:2|1:0,0:0:0:0:
248,262,62098,1,8,3:2:0:0:
212,84,62424,2,0,L|280:12,1,100,2|2,1:2|0:0,0:0:0:0:
292,132,62913,1,0,3:0:0:0:
292,132,62995,1,0,3:0:0:0:
292,132,63076,6,0,P|254:168|209:178,1,100,10|2,3:2|0:0,0:0:0:0:
120,156,63565,1,0,0:0:0:0:
29,174,63728,2,0,P|34:124|61:84,1,100,2|2,1:2|0:0,0:0:0:0:
120,156,64217,1,0,1:0:0:0:
120,248,64381,2,0,L|104:296,1,50,10|0,3:2|1:0,0:0:0:0:
20,332,64707,1,8,3:2:0:0:
216,232,65033,2,0,L|268:236,1,50,4|0,1:2|1:0,0:0:0:0:
336,296,65359,1,4,3:0:0:0:
408,352,65522,1,4,3:0:0:0:
496,324,65685,6,0,P|512:264|504:228,1,100,12|2,3:2|0:0,0:0:0:0:
424,100,66337,2,0,P|420:42|439:5,1,100,2|0,1:2|0:0,0:0:0:0:
508,66,66826,1,0,3:0:0:0:
508,66,66908,1,0,3:0:0:0:
508,66,66989,1,10,3:2:0:0:
401,209,67315,1,8,3:2:0:0:
312,184,67478,1,0,1:0:0:0:
223,159,67641,5,0,1:0:0:0:
338,92,67804,1,8,3:0:0:0:
286,276,67967,1,8,3:0:0:0:
401,209,68131,2,0,L|422:196,3,16.6666666666667,8|0|0|12,3:2|0:0|0:0|0:0,0:0:0:0:
256,192,68457,12,0,70902,0:0:0:0:
296,88,71554,6,0,P|244:35|171:28,1,150,2|2,0:0|0:0,0:0:0:0:
96,44,72207,1,0,0:0:0:0:
36,124,72533,1,0,0:0:0:0:
60,220,72859,2,0,P|111:272|184:280,1,150,2|2,0:0|0:0,0:0:0:0:
252,244,73511,6,0,L|276:200,1,50
320,312,73837,2,0,L|344:268,1,50,0|2,1:0|0:0,0:0:0:0:
432,132,74163,6,0,L|456:176,1,50,8|8,3:0|3:0,0:0:0:0:
344,136,74489,2,0,L|368:180,1,50,2|2,1:2|3:2,0:0:0:0:
343,268,74815,1,8,3:0:0:0:
294,272,74978,1,0,1:0:0:0:
252,244,75141,1,0,1:0:0:0:
224,202,75304,1,8,3:0:0:0:
216,152,75467,6,0,P|224:96|264:56,1,112.500004291535,4|0,3:0|0:0,0:0:0:0:
216,152,76120,6,0,P|162:174|120:168,1,100,12|0,3:2|0:0,0:0:0:0:
32,124,76772,1,2,1:2:0:0:
68,32,77098,1,0,0:0:0:0:
136,68,77261,2,0,L|156:84,2,25,0|0|8,3:0|3:0|0:0,0:0:0:0:
176,172,77750,1,8,0:0:0:0:
184,272,78076,2,0,P|176:324|148:360,1,100,2|2,1:2|0:0,0:0:0:0:
72,368,78565,1,0,3:0:0:0:
3,336,78728,6,0,P|11:284|39:248,1,100,8|0,0:0|0:0,0:0:0:0:
115,242,79217,1,2,0:0:0:0:
184,272,79381,1,0,1:0:0:0:
304,364,79707,2,0,P|368:320|384:252,1,150,12|0,3:2|1:0,0:0:0:0:
364,180,80359,1,8,0:0:0:0:
304,100,80685,2,0,P|298:46|323:4,1,100,2|0,1:2|0:0,0:0:0:0:
370,64,81174,2,0,L|395:64,2,25,0|0|8,3:0|3:0|0:0,0:0:0:0:
472,128,81663,5,0,0:0:0:0:
504,224,81989,2,0,P|504:280|484:320,1,100,2|0,1:2|0:0,0:0:0:0:
416,352,82478,1,0,3:0:0:0:
340,348,82641,2,0,L|252:300,1,100,8|8,0:0|0:0,0:0:0:0:
252,152,83294,2,0,L|340:200,1,100,2|0,1:2|0:0,0:0:0:0:
396,252,83783,2,0,L|420:256,2,25,0|0|8,3:0|3:0|0:0,0:0:0:0:
416,180,84109,5,0,0:0:0:0:
404,105,84272,1,0,0:0:0:0:
364,40,84435,2,0,P|340:28|316:20,1,50,2|0,0:0|1:0,0:0:0:0:
144,32,84924,2,0,L|132:132,1,100,12|0,3:2|0:0,0:0:0:0:
152,204,85413,1,0,3:0:0:0:
192,268,85576,2,0,L|240:288,1,50,8|0,0:0|3:0,0:0:0:0:
268,356,85902,2,0,P|291:341|305:321,2,50,2|0|0,0:0|1:0|1:0,0:0:0:0:
92,372,86554,6,0,P|52:336|40:292,1,100,8|0,0:0|0:0,0:0:0:0:
40,143,87207,2,0,P|54:96|92:64,1,100,2|0,1:2|0:0,0:0:0:0:
128,144,87696,2,0,L|152:150,2,25,0|0|8,3:0|3:0|0:0,0:0:0:0:
216,228,88185,1,8,0:0:0:0:
304,180,88511,2,0,P|336:136|340:92,1,100,0|0,1:0|0:0,0:0:0:0:
285,40,89000,1,0,3:0:0:0:
264,112,89163,6,0,L|404:175,1,150,10|2,0:0|0:0,0:0:0:0:
476,156,89815,1,0,1:0:0:0:
308,216,90141,2,0,L|320:365,1,150,12|0,3:2|1:0,0:0:0:0:
320,365,90794,1,8,0:0:0:0:
416,336,91120,1,0,1:0:0:0:
472,252,91446,1,0,0:0:0:0:
484,204,91609,1,0,3:0:0:0:
476,156,91772,6,0,P|460:100|432:68,1,100,12|0,0:0|0:0,0:0:0:0:
320,32,92424,2,0,P|291:82|288:125,1,100,2|0,1:2|0:0,0:0:0:0:
359,151,92913,2,0,L|384:148,2,25,0|0|8,3:0|3:0|0:0,0:0:0:0:
280,216,93402,1,8,0:0:0:0:
272,316,93728,2,0,P|298:360|340:384,1,100,4|8,1:2|0:0,0:0:0:0:
388,372,94217,1,0,0:0:0:0:
428,340,94381,5,8,3:0:0:0:
280,216,94707,1,8,3:0:0:0:
376,252,95033,1,8,3:0:0:0:
180,236,95359,1,8,3:0:0:0:
268,356,95685,5,4,3:0:0:0:
376,252,96011,2,0,P|389:229|396:204,1,50,0|0,1:0|1:0,0:0:0:0:
396,132,96337,1,0,1:0:0:0:
376,60,96500,1,0,1:0:0:0:
316,16,96663,1,4,3:0:0:0:
242,8,96826,1,0,1:0:0:0:
170,31,96989,6,0,P|120:92|124:160,1,150,12|0,3:2|0:0,0:0:0:0:
120,280,97641,2,0,P|72:308|29:306,1,100,0|0,1:0|0:0,0:0:0:0:
52,216,98131,1,0,1:0:0:0:
123,159,98294,2,0,L|176:172,1,50,10|0,3:2|1:0,0:0:0:0:
309,134,98620,2,0,L|316:184,1,50,8|0,3:2|0:0,0:0:0:0:
228,320,98946,2,0,P|219:271|232:224,1,100,2|2,1:2|0:0,0:0:0:0:
308,276,99435,1,0,3:0:0:0:
308,276,99516,1,0,3:0:0:0:
308,276,99598,6,0,P|361:266|397:231,1,100,10|0,3:2|0:0,0:0:0:0:
401,144,100087,1,0,0:0:0:0:
364,60,100250,2,0,P|316:43|269:51,1,100,0|0,1:0|0:0,0:0:0:0:
309,134,100739,1,0,1:0:0:0:
401,144,100902,2,0,P|434:136|448:128,1,50,10|0,3:2|1:0,0:0:0:0:
500,204,101228,1,8,3:2:0:0:
376,343,101554,2,0,P|333:318|308:276,1,100,2|2,1:2|0:0,0:0:0:0:
256,200,102044,1,0,1:0:0:0:
177,246,102207,6,0,P|236:289|308:276,1,150,12|0,3:2|0:0,0:0:0:0:
356,164,102859,2,0,L|328:64,1,100,0|0,1:0|0:0,0:0:0:0:
248,24,103348,1,0,1:0:0:0:
156,14,103511,2,0,P|132:16|107:23,1,50,10|0,3:2|1:0,0:0:0:0:
48,92,103837,2,0,P|43:115|44:141,2,50,8|0|2,3:2|0:0|1:2,0:0:0:0:
196,128,104489,1,2,0:0:0:0:
200,220,104652,1,0,3:0:0:0:
200,220,104734,1,0,3:0:0:0:
200,220,104815,6,0,P|188:272|156:304,1,100,10|2,3:2|0:0,0:0:0:0:
72,341,105304,1,0,0:0:0:0:
24,264,105467,1,0,1:0:0:0:
24,264,105631,2,0,P|16:240|16:215,1,50
108,225,105957,1,0,1:0:0:0:
155,304,106120,2,0,P|184:316|208:320,1,50,10|0,3:2|0:0,0:0:0:0:
284,276,106446,1,0,1:0:0:0:
344,348,106609,1,8,3:0:0:0:
416,288,106772,1,4,3:0:0:0:
484,352,106935,1,4,3:0:0:0:
510,262,107098,1,4,3:0:0:0:
452,32,107424,6,0,P|376:4|312:20,1,150,12|0,3:2|0:0,0:0:0:0:
261,98,108076,2,0,P|203:106|164:88,1,100,2|0,1:2|0:0,0:0:0:0:
220,16,108565,1,0,1:0:0:0:
311,20,108728,2,0,L|352:48,1,50,10|0,3:2|1:0,0:0:0:0:
392,132,109054,1,8,3:2:0:0:
256,256,109381,1,2,1:2:0:0:
84,196,109707,1,2,0:0:0:0:
48,112,109870,1,0,3:0:0:0:
48,112,109951,1,0,3:0:0:0:
48,112,110033,6,0,P|40:56|56:16,1,100,10|2,3:2|0:0,0:0:0:0:
128,70,110522,1,0,0:0:0:0:
168,151,110685,2,0,P|132:184|84:196,1,100,2|2,1:2|0:0,0:0:0:0:
24,264,111174,1,0,1:0:0:0:
48,356,111337,2,0,P|76:368|96:372,2,50,10|0|8,3:2|1:0|3:2,0:0:0:0:
260,240,111989,2,0,P|276:296|268:336,1,100,4|0,1:2|0:0,0:0:0:0:
187,295,112478,1,0,1:0:0:0:
176,204,112641,6,0,P|211:163|256:148,1,100,12|2,3:2|0:0,0:0:0:0:
420,324,113294,2,0,P|466:306|497:268,1,100,2|0,1:2|0:0,0:0:0:0:
504,176,113783,1,0,3:0:0:0:
504,176,113864,1,0,3:0:0:0:
504,176,113946,2,0,L|496:124,2,50,10|0|2,3:2|0:0|0:0,0:0:0:0:
320,204,114598,2,0,L|304:100,1,100,2|0,1:2|0:0,0:0:0:0:
325,34,115087,1,0,1:0:0:0:
392,2,115250,5,12,3:2:0:0:
412,188,115576,1,8,3:2:0:0:
344,360,115902,1,0,1:0:0:0:
344,360,116065,2,0,P|317:361|294:358,1,50,0|0,1:0|0:0,0:0:0:0:
220,304,116391,1,0,1:0:0:0:
180,220,116554,2,0,L|172:168,1,50,8|0,3:2|1:0,0:0:0:0:
220,304,116881,1,0,1:0:0:0:
84,360,117207,1,0,1:0:0:0:
32,282,117370,1,0,1:0:0:0:
8,192,117533,1,0,1:0:0:0:
32,102,117696,1,0,1:0:0:0:
84,24,117859,1,12,3:2:0:0:
192,128,118185,5,8,3:2:0:0:
340,144,118511,2,0,P|392:100|399:23,1,150,2|0,1:2|1:0,0:0:0:0:
312,56,119163,1,8,3:2:0:0:
280,56,119326,1,0,1:0:0:0:
248,56,119489,1,8,3:2:0:0:
328,264,119815,2,0,P|372:316|449:323,1,150,2|0,1:2|1:0,0:0:0:0:
416,236,120467,1,8,3:2:0:0:
340,144,120794,5,8,3:2:0:0:
220,132,121120,2,0,L|120:140,1,100,0|0,1:0|0:0,0:0:0:0:
56,176,121609,1,0,1:0:0:0:
16,240,121772,2,0,L|16:292,2,50,8|0|8,3:2|1:0|3:2,0:0:0:0:
220,132,122424,1,4,1:2:0:0:
256,198,122587,1,0,1:0:0:0:
256,274,122750,1,8,3:0:0:0:
230,344,122913,1,8,3:0:0:0:
164,380,123076,6,0,P|100:372|72:348,1,100,12|8,3:2|3:2,0:0:0:0:
60,160,123728,2,0,P|72:92|135:48,1,150,2|0,1:2|1:0,0:0:0:0:
149,140,124380,1,8,3:2:0:0:
256,198,124707,1,8,3:2:0:0:
452,160,125033,2,0,P|439:92|376:48,1,150,2|0,1:2|1:0,0:0:0:0:
363,140,125685,1,8,3:2:0:0:
256,198,126011,5,8,3:2:0:0:
268,320,126337,2,0,P|300:364|341:378,1,100,0|0,1:0|0:0,0:0:0:0:
416,360,126826,1,8,3:2:0:0:
484,326,126989,2,0,L|512:282,1,50,0|8,1:0|3:0,0:0:0:0:
379,232,127315,2,0,L|422:259,1,50,4|4,3:0|3:0,0:0:0:0:
483,104,127641,1,0,1:0:0:0:
483,104,127804,2,0,P|463:149|478:196,1,100,12|0,3:2|1:0,0:0:0:0:
484,104,128294,6,0,L|399:50,1,100,12|8,3:2|3:2,0:0:0:0:
284,84,128946,1,0,1:0:0:0:
176,136,129272,2,0,P|161:111|158:86,1,50,0|0,0:0|3:0,0:0:0:0:
201,29,129516,1,0,3:0:0:0:
201,29,129598,2,0,L|284:84,1,100,8|8,3:2|3:2,0:0:0:0:
316,200,130250,1,0,1:0:0:0:
348,316,130576,2,0,P|380:306|395:294,1,50,0|0,0:0|3:0,0:0:0:0:
413,224,130821,1,0,3:0:0:0:
413,224,130902,6,0,L|316:200,1,100,12|8,3:2|3:2,0:0:0:0:
204,244,131554,1,0,1:0:0:0:
123,333,131881,2,0,P|91:331|72:324,1,50,0|0,0:0|1:0,0:0:0:0:
32,260,132207,2,0,L|28:208,2,50,8|0|8,3:2|1:0|3:2,0:0:0:0:
204,244,132859,2,0,L|196:140,1,100,4|8,1:2|3:2,0:0:0:0:
36,24,133511,5,6,1:2:0:0:
36,24,133837,1,8,3:2:0:0:
100,160,134163,1,2,1:2:0:0:
100,160,134489,1,8,3:2:0:0:
256,80,134815,1,2,1:2:0:0:
256,80,135141,1,8,3:2:0:0:
364,248,135467,1,2,1:2:0:0:
364,248,135793,1,8,3:2:0:0:
479,151,136120,5,2,1:2:0:0:
396,26,136446,1,8,3:2:0:0:
256,80,136772,1,2,1:2:0:0:
216,224,137098,1,8,3:2:0:0:
220,299,137261,1,8,3:2:0:0:
264,360,137424,1,2,1:2:0:0:
364,248,137750,1,0,1:0:0:0:
216,224,138076,1,0,1:0:0:0:
141,220,138239,1,0,1:0:0:0:
72,249,138402,1,0,1:0:0:0:
30,311,138565,1,0,1:0:0:0:
14,384,138728,1,12,3:2:0:0:
256,192,138891,12,8,141337,3:2:0:0:
256,192,141989,5,0,1:0:0:0:
316,296,142315,2,0,P|384:332|452:316,1,150,10|0,3:2|1:0,0:0:0:0:
484,248,142967,2,0,L|496:148,1,100,8|0,3:2|1:0,0:0:0:0:
476,76,143457,1,0,1:0:0:0:
422,25,143620,1,2,1:2:0:0:
348,12,143783,1,0,1:0:0:0:
274,27,143946,6,0,P|220:84|216:152,1,150,14|8,3:2|3:2,0:0:0:0:
244,224,144598,2,0,L|288:248,1,50,2|0,1:2|0:0,0:0:0:0:
232,302,144924,2,0,L|188:278,1,50,2|0,3:2|1:0,0:0:0:0:
84,172,145413,1,0,1:0:0:0:
40,112,145576,2,0,P|40:55|66:21,1,100,8|0,3:2|1:0,0:0:0:0:
140,12,146065,2,0,L|188:24,2,50,0|2|0,0:0|0:0|1:0,0:0:0:0:
116,84,146554,6,0,L|212:108,1,100,12|4,3:2|3:0,0:0:0:0:
320,212,147207,1,2,1:2:0:0:
308,286,147370,1,0,1:0:0:0:
266,348,147533,1,0,1:0:0:0:
196,375,147696,1,8,3:0:0:0:
122,363,147859,1,8,3:2:0:0:
76,304,148022,2,0,L|52:260,1,50,0|8,1:0|3:0,0:0:0:0:
188,244,148348,1,4,3:0:0:0:
120,212,148511,6,0,L|66:113,1,112.500004291535,2|8,1:2|3:2,0:0:0:0:
28,216,149163,6,0,L|76:304,1,100,14|2,3:2|0:0,0:0:0:0:
122,363,149652,1,8,3:2:0:0:
196,375,149815,1,2,1:2:0:0:
372,284,150141,2,0,P|407:203|384:149,1,150,10|0,3:2|1:0,0:0:0:0:
320,212,150794,1,10,3:2:0:0:
477,338,151120,2,0,L|504:240,1,100,0|0,1:0|0:0,0:0:0:0:
496,165,151609,1,0,1:0:0:0:
456,100,151772,6,0,P|375:64|321:87,1,150,10|8,3:2|3:2,0:0:0:0:
384,152,152424,1,2,1:2:0:0:
284,328,152750,2,0,P|230:278|228:205,1,150,14|0,3:2|1:0,0:0:0:0:
268,140,153402,1,8,3:2:0:0:
284,328,153728,1,0,1:0:0:0:
217,362,153891,1,2,1:2:0:0:
142,362,154054,1,2,1:2:0:0:
68,346,154217,1,0,1:0:0:0:
20,288,154381,5,14,3:2:0:0:
132,175,154707,1,8,3:2:0:0:
219,288,155033,1,14,3:2:0:0:
107,175,155359,1,8,3:2:0:0:
220,88,155690,1,14,3:2:0:0:
107,200,156023,1,8,3:2:0:0:
19,88,156361,1,14,3:2:0:0:
132,200,156709,1,8,3:2:0:0:
380,184,157098,5,14,3:2:0:0:
256,192,157378,12,0,161581,0:0:0:0:
340,212,162616,6,0,P|349:160|336:115,1,100,2|0,0:0|0:0,0:0:0:0:
256,52,163261,2,0,P|204:48|160:64,1,100,2|0,0:0|0:0,0:0:0:0:
120,96,163745,1,2,0:0:0:0:
87,134,163906,2,0,P|86:158|96:183,2,50,0|2|0,0:0|0:0|0:0,0:0:0:0:
164,256,164562,1,2,0:0:0:0:
254,214,164890,1,0,0:0:0:0:
272,168,165054,1,0,0:0:0:0:
290,122,165218,5,2,0:0:0:0:
368,184,165548,1,0,0:0:0:0:
452,132,165878,2,0,P|460:212|421:269,1,150,2|0,0:0|0:0,0:0:0:0:
376,284,166539,1,2,0:0:0:0:
388,332,166704,1,0,0:0:0:0:
400,380,166869,1,0,0:0:0:0:
480,320,167200,1,2,0:0:0:0:
461,222,167530,1,0,0:0:0:0:
419,193,167695,1,0,0:0:0:0:
368,184,167861,6,0,P|312:188|276:212,1,100,2|0,0:0|0:0,0:0:0:0:
212,288,168518,2,0,P|162:289|118:266,1,100,2|0,0:0|0:0,0:0:0:0:
100,220,169012,1,2,0:0:0:0:
92,172,169176,2,0,L|99:122,2,50,0|2|0,0:0|0:0|0:0,0:0:0:0:
176,56,169834,1,2,0:0:0:0:
244,128,170163,1,0,0:0:0:0:
290,148,170328,1,0,0:0:0:0:
338,144,170486,5,2,0:0:0:0:
338,144,171149,2,0,P|360:232|340:284,1,150,2|0,0:0|0:0,0:0:0:0:
311,326,171813,2,0,L|343:366,2,50,0|2|0,0:0|0:0|0:0,0:0:0:0:
265,304,172311,1,0,0:0:0:0:
214,301,172477,1,2,0:0:0:0:
88,380,172809,1,0,0:0:0:0:
8,252,173140,6,0,P|4:156|76:88,1,200,2|2,0:0|0:0,0:0:0:0:
216,141,174296,1,0,0:0:0:0:
265,141,174461,2,0,L|316:136,1,50,0|2,0:0|0:0,0:0:0:0:
364,126,174791,2,0,P|392:72|388:32,1,100,0|2,0:0|0:0,0:0:0:0:
288,20,175452,1,0,0:0:0:0:
238,16,175617,1,0,0:0:0:0:
189,28,175783,6,0,P|151:64|139:112,1,100,2|0,0:0|0:0,0:0:0:0:
52,157,176443,2,0,P|87:195|135:207,1,100,2|0,0:0|0:0,0:0:0:0:
182,200,176939,1,2,0:0:0:0:
230,185,177104,2,0,L|278:169,2,50,0|2|0,0:0|0:0|0:0,0:0:0:0:
208,284,177765,1,2,0:0:0:0:
272,360,178095,1,0,0:0:0:0:
368,372,178424,6,0,P|424:352|456:304,1,119.999996337891,2|0,0:0|0:0,0:0:0:0:
468,188,179488,2,0,P|422:149|365:145,1,119.999996337891,2|2,0:0|0:0,0:0:0:0:
292,206,180460,6,0,P|281:259|296:302,1,100,0|0,0:0|0:0,0:0:0:0:
380,252,181157,2,0,L|396:256,3,16.6666666666667,2|0|0|2,0:0|0:0|0:0|0:0,0:0:0:0:
256,192,181506,12,0,185343,0:0:0:0:
