osu file format v14

[General]
AudioFilename: 08 - Light My Fire.mp3
AudioLeadIn: 0
PreviewTime: -1
Countdown: 1
SampleSet: None
StackLeniency: 0.7
Mode: 0
LetterboxInBreaks: 1
WidescreenStoryboard: 0

[Editor]
DistanceSpacing: 0.8
BeatDivisor: 4
GridSize: 32
TimelineZoom: 1

[Metadata]
Title:TAGLight My Fire
TitleUnicode:TAGLight My Fire
Artist:The Doors
ArtistUnicode:The Doors
Creator:Kysko
Version:fcking easy
Source:
Tags:
BeatmapID:597167
BeatmapSetID:261571

[Difficulty]
HPDrainRate:5
CircleSize:5
OverallDifficulty:5
ApproachRate:5
SliderMultiplier:1.6
SliderTickRate:3

[Events]
//Background and Video events
0,0,"edfe5962194ac5bd65adf56b17b73.jpg",0,0
//Break Periods
2,7794,8735
//Storyboard Layer 0 (Background)
//Storyboard Layer 1 (Fail)
//Storyboard Layer 2 (Pass)
//Storyboard Layer 3 (Foreground)
//Storyboard Sound Samples

[TimingPoints]
0,500,4,1,0,100,1,0
1134.1837453885,44.0765893792072,4,1,0,100,1,0

[HitObjects]
256,192,0,12,0,7594,0:0:0:0:
160,128,9935,5,0,0:0:0:0:
160,128,9935,1,0,0:0:0:0:
160,128,9998,1,0,0:0:0:0:
160,128,9998,1,0,0:0:0:0:
160,128,9998,1,0,0:0:0:0:
160,128,9998,1,0,0:0:0:0:
160,128,9998,1,0,0:0:0:0:
192,128,9998,1,0,0:0:0:0:
192,128,9998,1,0,0:0:0:0:
192,128,9998,1,0,0:0:0:0:
224,128,9998,1,0,0:0:0:0:
224,128,9998,1,0,0:0:0:0:
224,128,9998,1,0,0:0:0:0:
224,128,9998,1,0,0:0:0:0:
224,128,9998,1,0,0:0:0:0:
224,128,9998,1,0,0:0:0:0:
224,128,9998,1,0,0:0:0:0:
224,128,9998,1,0,0:0:0:0:
224,128,9998,1,0,0:0:0:0:
224,160,10060,1,0,0:0:0:0:
224,160,10060,1,0,0:0:0:0:
224,160,10060,1,0,0:0:0:0:
256,192,10060,1,0,0:0:0:0:
256,192,10060,1,0,0:0:0:0:
256,192,10060,1,0,0:0:0:0:
224,224,10060,1,0,0:0:0:0:
224,224,10060,1,0,0:0:0:0:
224,224,10060,1,0,0:0:0:0:
256,256,10123,1,0,0:0:0:0:
256,256,10123,1,0,0:0:0:0:
256,256,10123,1,0,0:0:0:0:
256,256,10123,1,0,0:0:0:0:
256,256,10123,1,0,0:0:0:0:
256,256,10123,1,0,0:0:0:0:
256,256,10123,1,0,0:0:0:0:
256,256,10123,1,0,0:0:0:0:
256,256,10123,1,0,0:0:0:0:
288,224,10123,1,0,0:0:0:0:
288,224,10123,1,0,0:0:0:0:
288,224,10123,1,0,0:0:0:0:
320,224,10123,1,0,0:0:0:0:
320,224,10123,1,0,0:0:0:0:
320,224,10185,1,0,0:0:0:0:
352,256,10185,1,0,0:0:0:0:
352,256,10185,1,0,0:0:0:0:
352,256,10185,1,0,0:0:0:0:
352,224,10185,1,0,0:0:0:0:
352,224,10185,1,0,0:0:0:0:
352,224,10185,1,0,0:0:0:0:
352,224,10185,1,0,0:0:0:0:
352,224,10185,1,0,0:0:0:0:
352,224,10185,1,0,0:0:0:0:
352,192,10185,1,0,0:0:0:0:
352,192,10185,1,0,0:0:0:0:
352,192,10185,1,0,0:0:0:0:
352,192,10185,1,0,0:0:0:0:
352,192,10185,1,0,0:0:0:0:
352,192,10185,1,0,0:0:0:0:
352,192,10248,1,0,0:0:0:0:
352,192,10248,1,0,0:0:0:0:
352,192,10248,1,0,0:0:0:0:
384,192,10248,1,0,0:0:0:0:
384,192,10248,1,0,0:0:0:0:
384,192,10248,1,0,0:0:0:0:
384,192,10248,1,0,0:0:0:0:
384,192,10248,1,0,0:0:0:0:
384,192,10248,1,0,0:0:0:0:
384,192,10248,1,0,0:0:0:0:
384,192,10248,1,0,0:0:0:0:
384,192,10248,1,0,0:0:0:0:
384,192,10248,1,0,0:0:0:0:
384,192,10248,1,0,0:0:0:0:
384,192,10248,1,0,0:0:0:0:
384,224,10248,1,0,0:0:0:0:
384,224,10248,1,0,0:0:0:0:
384,224,10248,1,0,0:0:0:0:
384,256,10310,1,0,0:0:0:0:
384,256,10310,1,0,0:0:0:0:
384,256,10310,1,0,0:0:0:0:
416,256,10310,1,0,0:0:0:0:
416,256,10310,1,0,0:0:0:0:
416,256,10310,1,0,0:0:0:0:
416,256,10310,1,0,0:0:0:0:
416,256,10310,1,0,0:0:0:0:
416,256,10310,1,0,0:0:0:0:
416,224,10310,1,0,0:0:0:0:
416,224,10310,1,0,0:0:0:0:
416,224,10310,1,0,0:0:0:0:
416,192,10373,1,0,0:0:0:0:
416,192,10373,1,0,0:0:0:0:
416,192,10373,1,0,0:0:0:0:
416,160,10373,1,0,0:0:0:0:
416,160,10373,1,0,0:0:0:0:
416,160,10373,1,0,0:0:0:0:
384,128,10373,1,0,0:0:0:0:
384,128,10373,1,0,0:0:0:0:
384,128,10373,1,0,0:0:0:0:
352,128,10373,1,0,0:0:0:0:
352,128,10373,1,0,0:0:0:0:
352,128,10373,1,0,0:0:0:0:
320,160,10435,1,0,0:0:0:0:
320,160,10435,1,0,0:0:0:0:
320,160,10435,1,0,0:0:0:0:
288,160,10435,1,0,0:0:0:0:
288,160,10435,1,0,0:0:0:0:
288,160,10435,1,0,0:0:0:0:
288,160,10435,1,0,0:0:0:0:
288,160,10435,1,0,0:0:0:0:
288,160,10435,1,0,0:0:0:0:
288,160,10435,1,0,0:0:0:0:
288,160,10435,1,0,0:0:0:0:
288,160,10435,1,0,0:0:0:0:
288,160,10435,1,0,0:0:0:0:
288,160,10435,1,0,0:0:0:0:
288,160,10435,1,0,0:0:0:0:
288,128,10498,1,0,0:0:0:0:
288,128,10498,1,0,0:0:0:0:
288,128,10498,1,0,0:0:0:0:
288,96,10498,1,0,0:0:0:0:
288,96,10498,1,0,0:0:0:0:
288,96,10498,1,0,0:0:0:0:
256,96,10498,1,0,0:0:0:0:
256,96,10498,1,0,0:0:0:0:
256,96,10498,1,0,0:0:0:0:
224,96,10498,1,0,0:0:0:0:
224,96,10498,1,0,0:0:0:0:
224,96,10498,1,0,0:0:0:0:
192,96,10498,1,0,0:0:0:0:
192,96,10498,1,0,0:0:0:0:
192,96,10498,1,0,0:0:0:0:
160,96,10560,1,0,0:0:0:0:
160,96,10560,1,0,0:0:0:0:
160,96,10560,1,0,0:0:0:0:
128,96,10560,1,0,0:0:0:0:
128,96,10560,1,0,0:0:0:0:
128,96,10560,1,0,0:0:0:0:
128,128,10560,1,0,0:0:0:0:
128,128,10560,1,0,0:0:0:0:
128,128,10560,1,0,0:0:0:0:
96,160,10560,1,0,0:0:0:0:
96,160,10560,1,0,0:0:0:0:
96,160,10560,1,0,0:0:0:0:
96,192,10623,1,0,0:0:0:0:
96,192,10623,1,0,0:0:0:0:
96,192,10623,1,0,0:0:0:0:
128,224,10623,1,0,0:0:0:0:
128,224,10623,1,0,0:0:0:0:
128,224,10623,1,0,0:0:0:0:
160,256,10623,1,0,0:0:0:0:
160,256,10623,1,0,0:0:0:0:
160,256,10623,1,0,0:0:0:0:
192,288,10685,1,0,0:0:0:0:
192,288,10685,1,0,0:0:0:0:
192,288,10685,1,0,0:0:0:0:
224,320,10685,1,0,0:0:0:0:
224,320,10685,1,0,0:0:0:0:
224,320,10685,1,0,0:0:0:0:
256,320,10685,1,0,0:0:0:0:
256,320,10685,1,0,0:0:0:0:
256,320,10685,1,0,0:0:0:0:
288,288,10685,1,0,0:0:0:0:
288,288,10685,1,0,0:0:0:0:
288,288,10685,1,0,0:0:0:0:
256,256,10685,1,0,0:0:0:0:
256,256,10685,1,0,0:0:0:0:
256,256,10685,1,0,0:0:0:0:
192,96,11060,1,0,0:0:0:0:
192,96,11060,1,0,0:0:0:0:
192,96,11060,1,0,0:0:0:0:
128,192,11248,1,0,0:0:0:0:
128,192,11248,1,0,0:0:0:0:
128,192,11248,1,0,0:0:0:0:
128,192,11248,1,0,0:0:0:0:
288,128,11373,1,0,0:0:0:0:
288,128,11373,1,0,0:0:0:0:
288,128,11373,1,0,0:0:0:0:
288,128,11373,1,0,0:0:0:0:
288,128,11373,1,0,0:0:0:0:
288,128,11373,1,0,0:0:0:0:
288,128,11373,1,0,0:0:0:0:
288,128,11373,1,0,0:0:0:0:
288,128,11373,1,0,0:0:0:0:
288,128,11373,1,0,0:0:0:0:
288,128,11373,1,0,0:0:0:0:
288,128,11373,1,0,0:0:0:0:
64,256,11498,1,0,0:0:0:0:
64,256,11498,1,0,0:0:0:0:
64,256,11498,1,0,0:0:0:0:
64,256,11498,1,0,0:0:0:0:
64,256,11498,1,0,0:0:0:0:
64,256,11498,1,0,0:0:0:0:
64,256,11498,1,0,0:0:0:0:
64,256,11498,1,0,0:0:0:0:
64,256,11498,1,0,0:0:0:0:
64,256,11498,1,0,0:0:0:0:
64,256,11498,1,0,0:0:0:0:
64,256,11498,1,0,0:0:0:0:
256,192,11623,1,0,0:0:0:0:
256,192,11623,1,0,0:0:0:0:
256,192,11623,1,0,0:0:0:0:
256,192,11623,1,0,0:0:0:0:
256,192,11623,1,0,0:0:0:0:
256,192,11623,1,0,0:0:0:0:
256,192,11623,1,0,0:0:0:0:
256,192,11623,1,0,0:0:0:0:
256,192,11623,1,0,0:0:0:0:
256,192,11623,1,0,0:0:0:0:
256,192,11623,1,0,0:0:0:0:
256,192,11623,1,0,0:0:0:0:
384,320,11685,5,0,0:0:0:0:
384,320,11685,1,0,0:0:0:0:
384,320,11685,1,0,0:0:0:0:
384,320,11685,1,0,0:0:0:0:
384,320,11685,1,0,0:0:0:0:
384,320,11685,1,0,0:0:0:0:
384,320,11685,1,0,0:0:0:0:
384,320,11685,1,0,0:0:0:0:
384,320,11685,1,0,0:0:0:0:
384,320,11685,1,0,0:0:0:0:
384,320,11685,1,0,0:0:0:0:
384,320,11685,1,0,0:0:0:0:
224,192,11810,1,0,0:0:0:0:
224,192,11810,1,0,0:0:0:0:
224,192,11810,1,0,0:0:0:0:
224,192,11810,1,0,0:0:0:0:
224,192,11810,1,0,0:0:0:0:
224,192,11810,1,0,0:0:0:0:
224,192,11810,1,0,0:0:0:0:
224,192,11810,1,0,0:0:0:0:
224,192,11810,1,0,0:0:0:0:
224,192,11810,1,0,0:0:0:0:
224,192,11810,1,0,0:0:0:0:
224,192,11810,1,0,0:0:0:0:
448,256,11935,1,0,0:0:0:0:
448,256,11935,1,0,0:0:0:0:
448,256,11935,1,0,0:0:0:0:
448,256,11935,1,0,0:0:0:0:
448,256,11935,1,0,0:0:0:0:
448,256,11935,1,0,0:0:0:0:
448,256,11935,1,0,0:0:0:0:
448,256,11935,1,0,0:0:0:0:
448,256,11935,1,0,0:0:0:0:
448,256,11935,1,0,0:0:0:0:
448,256,11935,1,0,0:0:0:0:
448,256,11935,1,0,0:0:0:0:
256,128,12060,1,0,0:0:0:0:
256,128,12060,1,0,0:0:0:0:
256,128,12060,1,0,0:0:0:0:
256,128,12060,1,0,0:0:0:0:
256,128,12060,1,0,0:0:0:0:
256,128,12060,1,0,0:0:0:0:
256,128,12060,1,0,0:0:0:0:
256,128,12060,1,0,0:0:0:0:
256,128,12060,1,0,0:0:0:0:
256,128,12060,1,0,0:0:0:0:
256,128,12060,1,0,0:0:0:0:
256,128,12060,1,0,0:0:0:0:
128,192,12185,1,0,0:0:0:0:
128,192,12185,1,0,0:0:0:0:
128,192,12185,1,0,0:0:0:0:
128,192,12185,1,0,0:0:0:0:
128,192,12185,1,0,0:0:0:0:
128,192,12185,1,0,0:0:0:0:
128,192,12185,1,0,0:0:0:0:
128,192,12185,1,0,0:0:0:0:
128,192,12185,1,0,0:0:0:0:
128,192,12185,1,0,0:0:0:0:
128,192,12185,1,0,0:0:0:0:
128,192,12185,1,0,0:0:0:0:
320,288,12310,1,0,0:0:0:0:
320,288,12310,1,0,0:0:0:0:
320,288,12310,1,0,0:0:0:0:
320,288,12310,1,0,0:0:0:0:
320,288,12310,1,0,0:0:0:0:
320,288,12310,1,0,0:0:0:0:
320,288,12310,1,0,0:0:0:0:
320,288,12310,1,0,0:0:0:0:
320,288,12310,1,0,0:0:0:0:
320,288,12310,1,0,0:0:0:0:
320,288,12310,1,0,0:0:0:0:
320,288,12310,1,0,0:0:0:0:
160,128,12435,1,0,0:0:0:0:
160,128,12435,1,0,0:0:0:0:
160,128,12435,1,0,0:0:0:0:
160,128,12435,1,0,0:0:0:0:
160,128,12435,1,0,0:0:0:0:
160,128,12435,1,0,0:0:0:0:
160,128,12435,1,0,0:0:0:0:
160,128,12435,1,0,0:0:0:0:
160,128,12435,1,0,0:0:0:0:
160,128,12435,1,0,0:0:0:0:
160,128,12435,1,0,0:0:0:0:
160,128,12435,1,0,0:0:0:0:
384,288,12560,1,0,0:0:0:0:
384,288,12560,1,0,0:0:0:0:
384,288,12560,1,0,0:0:0:0:
384,288,12560,1,0,0:0:0:0:
384,288,12560,1,0,0:0:0:0:
384,288,12560,1,0,0:0:0:0:
384,288,12560,1,0,0:0:0:0:
384,288,12560,1,0,0:0:0:0:
384,288,12560,1,0,0:0:0:0:
384,288,12560,1,0,0:0:0:0:
384,288,12560,1,0,0:0:0:0:
384,288,12560,1,0,0:0:0:0:
224,320,12623,1,0,0:0:0:0:
224,320,12623,1,0,0:0:0:0:
224,320,12623,1,0,0:0:0:0:
224,320,12623,1,0,0:0:0:0:
192,96,12748,1,0,0:0:0:0:
192,96,12748,1,0,0:0:0:0:
192,96,12748,1,0,0:0:0:0:
192,96,12748,1,0,0:0:0:0:
160,128,12810,1,0,0:0:0:0:
160,128,12810,1,0,0:0:0:0:
160,128,12810,1,0,0:0:0:0:
192,128,12810,1,0,0:0:0:0:
224,128,12873,1,0,0:0:0:0:
224,128,12873,1,0,0:0:0:0:
224,128,12873,1,0,0:0:0:0:
224,160,12873,1,0,0:0:0:0:
256,192,12935,1,0,0:0:0:0:
64,320,12935,1,0,0:0:0:0:
64,320,12935,1,0,0:0:0:0:
64,320,12935,1,0,0:0:0:0:
64,320,12935,1,0,0:0:0:0:
224,224,12935,1,0,0:0:0:0:
256,256,12935,1,0,0:0:0:0:
256,256,12935,1,0,0:0:0:0:
256,256,12998,1,0,0:0:0:0:
288,224,12998,1,0,0:0:0:0:
320,224,12998,1,0,0:0:0:0:
352,256,12998,1,0,0:0:0:0:
352,224,13060,1,0,0:0:0:0:
352,224,13060,1,0,0:0:0:0:
224,160,13060,1,0,0:0:0:0:
352,192,13060,1,0,0:0:0:0:
352,192,13060,1,0,0:0:0:0:
352,192,13060,1,0,0:0:0:0:
384,192,13060,1,0,0:0:0:0:
384,192,13060,1,0,0:0:0:0:
384,192,13123,1,0,0:0:0:0:
384,192,13123,1,0,0:0:0:0:
384,224,13123,1,0,0:0:0:0:
384,256,13123,1,0,0:0:0:0:
416,224,13123,1,0,0:0:0:0:
416,256,13185,1,0,0:0:0:0:
416,256,13185,1,0,0:0:0:0:
416,224,13185,1,0,0:0:0:0:
416,192,13185,1,0,0:0:0:0:
416,160,13185,1,0,0:0:0:0:
384,128,13248,1,0,0:0:0:0:
352,128,13248,1,0,0:0:0:0:
320,160,13248,1,0,0:0:0:0:
288,160,13248,1,0,0:0:0:0:
160,128,13248,1,0,0:0:0:0:
160,128,13248,1,0,0:0:0:0:
160,128,13310,1,0,0:0:0:0:
160,128,13310,1,0,0:0:0:0:
160,128,13310,1,0,0:0:0:0:
160,128,13310,1,0,0:0:0:0:
256,128,13310,1,0,0:0:0:0:
160,128,13310,1,0,0:0:0:0:
160,128,13310,1,0,0:0:0:0:
160,128,13310,1,0,0:0:0:0:
160,128,13310,1,0,0:0:0:0:
288,160,13310,1,0,0:0:0:0:
192,128,13310,1,0,0:0:0:0:
192,128,13310,1,0,0:0:0:0:
192,128,13310,1,0,0:0:0:0:
192,128,13310,1,0,0:0:0:0:
288,128,13310,1,0,0:0:0:0:
224,128,13310,1,0,0:0:0:0:
224,128,13310,1,0,0:0:0:0:
224,128,13310,1,0,0:0:0:0:
224,128,13310,1,0,0:0:0:0:
224,128,13310,1,0,0:0:0:0:
224,128,13310,1,0,0:0:0:0:
224,128,13310,1,0,0:0:0:0:
224,128,13310,1,0,0:0:0:0:
224,128,13310,1,0,0:0:0:0:
224,128,13310,1,0,0:0:0:0:
224,128,13310,1,0,0:0:0:0:
224,128,13310,1,0,0:0:0:0:
256,96,13373,1,0,0:0:0:0:
224,160,13373,1,0,0:0:0:0:
224,160,13373,1,0,0:0:0:0:
224,160,13373,1,0,0:0:0:0:
224,160,13373,1,0,0:0:0:0:
192,96,13373,1,0,0:0:0:0:
256,192,13373,1,0,0:0:0:0:
256,192,13373,1,0,0:0:0:0:
256,192,13373,1,0,0:0:0:0:
256,192,13373,1,0,0:0:0:0:
160,96,13373,1,0,0:0:0:0:
224,224,13373,1,0,0:0:0:0:
224,224,13373,1,0,0:0:0:0:
224,224,13435,1,0,0:0:0:0:
224,224,13435,1,0,0:0:0:0:
128,128,13435,1,0,0:0:0:0:
256,256,13435,1,0,0:0:0:0:
256,256,13435,1,0,0:0:0:0:
256,256,13435,1,0,0:0:0:0:
256,256,13435,1,0,0:0:0:0:
256,256,13435,1,0,0:0:0:0:
256,256,13435,1,0,0:0:0:0:
256,256,13435,1,0,0:0:0:0:
256,256,13435,1,0,0:0:0:0:
288,256,13435,1,0,0:0:0:0:
256,256,13435,1,0,0:0:0:0:
256,256,13435,1,0,0:0:0:0:
256,256,13435,1,0,0:0:0:0:
256,256,13435,1,0,0:0:0:0:
288,224,13435,1,0,0:0:0:0:
288,224,13435,1,0,0:0:0:0:
288,224,13435,1,0,0:0:0:0:
288,224,13435,1,0,0:0:0:0:
320,224,13498,1,0,0:0:0:0:
320,224,13498,1,0,0:0:0:0:
320,224,13498,1,0,0:0:0:0:
320,224,13498,1,0,0:0:0:0:
352,256,13498,1,0,0:0:0:0:
352,256,13498,1,0,0:0:0:0:
352,256,13498,1,0,0:0:0:0:
352,256,13498,1,0,0:0:0:0:
160,256,13498,1,0,0:0:0:0:
352,224,13498,1,0,0:0:0:0:
352,224,13498,1,0,0:0:0:0:
352,224,13498,1,0,0:0:0:0:
352,224,13498,1,0,0:0:0:0:
352,224,13498,1,0,0:0:0:0:
352,224,13498,1,0,0:0:0:0:
352,224,13498,1,0,0:0:0:0:
352,224,13498,1,0,0:0:0:0:
352,192,13498,1,0,0:0:0:0:
352,192,13498,1,0,0:0:0:0:
352,192,13498,1,0,0:0:0:0:
352,192,13498,1,0,0:0:0:0:
352,192,13560,1,0,0:0:0:0:
352,192,13560,1,0,0:0:0:0:
352,192,13560,1,0,0:0:0:0:
352,192,13560,1,0,0:0:0:0:
352,192,13560,1,0,0:0:0:0:
352,192,13560,1,0,0:0:0:0:
352,192,13560,1,0,0:0:0:0:
352,192,13560,1,0,0:0:0:0:
384,192,13560,1,0,0:0:0:0:
384,192,13560,1,0,0:0:0:0:
384,192,13560,1,0,0:0:0:0:
384,192,13560,1,0,0:0:0:0:
384,192,13560,1,0,0:0:0:0:
384,192,13560,1,0,0:0:0:0:
384,192,13560,1,0,0:0:0:0:
384,192,13560,1,0,0:0:0:0:
384,192,13560,1,0,0:0:0:0:
384,192,13560,1,0,0:0:0:0:
384,192,13560,1,0,0:0:0:0:
384,192,13560,1,0,0:0:0:0:
384,192,13560,1,0,0:0:0:0:
384,192,13560,1,0,0:0:0:0:
384,192,13560,1,0,0:0:0:0:
384,192,13560,1,0,0:0:0:0:
32,128,13560,1,0,0:0:0:0:
384,224,13560,1,0,0:0:0:0:
384,224,13560,1,0,0:0:0:0:
384,224,13560,1,0,0:0:0:0:
384,224,13560,1,0,0:0:0:0:
384,256,13623,1,0,0:0:0:0:
384,256,13623,1,0,0:0:0:0:
384,256,13623,1,0,0:0:0:0:
384,256,13623,1,0,0:0:0:0:
416,256,13623,1,0,0:0:0:0:
416,256,13623,1,0,0:0:0:0:
416,256,13623,1,0,0:0:0:0:
416,256,13623,1,0,0:0:0:0:
416,256,13623,1,0,0:0:0:0:
416,256,13623,1,0,0:0:0:0:
416,256,13623,1,0,0:0:0:0:
416,256,13623,1,0,0:0:0:0:
416,224,13623,1,0,0:0:0:0:
416,224,13623,1,0,0:0:0:0:
416,224,13623,1,0,0:0:0:0:
416,224,13623,1,0,0:0:0:0:
416,192,13685,1,0,0:0:0:0:
416,192,13685,1,0,0:0:0:0:
416,192,13685,1,0,0:0:0:0:
416,192,13685,1,0,0:0:0:0:
416,160,13685,1,0,0:0:0:0:
416,160,13685,1,0,0:0:0:0:
416,160,13685,1,0,0:0:0:0:
416,160,13685,1,0,0:0:0:0:
384,128,13685,1,0,0:0:0:0:
384,128,13685,1,0,0:0:0:0:
384,128,13685,1,0,0:0:0:0:
384,128,13685,1,0,0:0:0:0:
224,32,13685,1,0,0:0:0:0:
352,128,13685,1,0,0:0:0:0:
352,128,13685,1,0,0:0:0:0:
352,128,13685,1,0,0:0:0:0:
352,128,13685,1,0,0:0:0:0:
320,160,13748,1,0,0:0:0:0:
320,160,13748,1,0,0:0:0:0:
320,160,13748,1,0,0:0:0:0:
320,160,13748,1,0,0:0:0:0:
288,160,13748,1,0,0:0:0:0:
288,160,13748,1,0,0:0:0:0:
288,160,13748,1,0,0:0:0:0:
288,160,13748,1,0,0:0:0:0:
288,160,13748,1,0,0:0:0:0:
288,160,13748,1,0,0:0:0:0:
288,160,13748,1,0,0:0:0:0:
288,160,13748,1,0,0:0:0:0:
288,224,13748,1,0,0:0:0:0:
288,224,13748,1,0,0:0:0:0:
288,224,13748,1,0,0:0:0:0:
288,160,13748,1,0,0:0:0:0:
288,160,13748,1,0,0:0:0:0:
288,160,13748,1,0,0:0:0:0:
288,160,13748,1,0,0:0:0:0:
160,128,13748,1,0,0:0:0:0:
288,160,13748,1,0,0:0:0:0:
288,160,13748,1,0,0:0:0:0:
288,160,13748,1,0,0:0:0:0:
288,160,13748,1,0,0:0:0:0:
320,224,13748,1,0,0:0:0:0:
320,224,13748,1,0,0:0:0:0:
320,224,13748,1,0,0:0:0:0:
288,128,13810,1,0,0:0:0:0:
288,128,13810,1,0,0:0:0:0:
288,128,13810,1,0,0:0:0:0:
288,128,13810,1,0,0:0:0:0:
352,256,13810,1,0,0:0:0:0:
352,256,13810,1,0,0:0:0:0:
352,256,13810,1,0,0:0:0:0:
288,96,13810,1,0,0:0:0:0:
288,96,13810,1,0,0:0:0:0:
288,96,13810,1,0,0:0:0:0:
288,96,13810,1,0,0:0:0:0:
352,224,13810,1,0,0:0:0:0:
352,224,13810,1,0,0:0:0:0:
352,224,13810,1,0,0:0:0:0:
224,128,13810,1,0,0:0:0:0:
352,224,13810,1,0,0:0:0:0:
352,224,13810,1,0,0:0:0:0:
352,224,13810,1,0,0:0:0:0:
256,96,13810,1,0,0:0:0:0:
256,96,13810,1,0,0:0:0:0:
256,96,13810,1,0,0:0:0:0:
256,96,13810,1,0,0:0:0:0:
160,256,13810,1,0,0:0:0:0:
352,192,13810,1,0,0:0:0:0:
352,192,13810,1,0,0:0:0:0:
352,192,13810,1,0,0:0:0:0:
224,96,13810,1,0,0:0:0:0:
224,96,13810,1,0,0:0:0:0:
224,96,13810,1,0,0:0:0:0:
224,96,13810,1,0,0:0:0:0:
352,192,13810,1,0,0:0:0:0:
352,192,13810,1,0,0:0:0:0:
352,192,13810,1,0,0:0:0:0:
224,160,13810,1,0,0:0:0:0:
352,192,13810,1,0,0:0:0:0:
352,192,13810,1,0,0:0:0:0:
352,192,13873,1,0,0:0:0:0:
192,96,13873,1,0,0:0:0:0:
192,96,13873,1,0,0:0:0:0:
192,96,13873,1,0,0:0:0:0:
192,96,13873,1,0,0:0:0:0:
384,192,13873,1,0,0:0:0:0:
384,192,13873,1,0,0:0:0:0:
384,192,13873,1,0,0:0:0:0:
160,96,13873,1,0,0:0:0:0:
160,96,13873,1,0,0:0:0:0:
160,96,13873,1,0,0:0:0:0:
160,96,13873,1,0,0:0:0:0:
384,192,13873,1,0,0:0:0:0:
384,192,13873,1,0,0:0:0:0:
384,192,13873,1,0,0:0:0:0:
384,192,13873,1,0,0:0:0:0:
384,192,13873,1,0,0:0:0:0:
384,192,13873,1,0,0:0:0:0:
128,96,13873,1,0,0:0:0:0:
128,96,13873,1,0,0:0:0:0:
128,96,13873,1,0,0:0:0:0:
128,96,13873,1,0,0:0:0:0:
384,192,13873,1,0,0:0:0:0:
384,192,13873,1,0,0:0:0:0:
384,192,13873,1,0,0:0:0:0:
192,96,13873,1,0,0:0:0:0:
224,224,13873,1,0,0:0:0:0:
128,128,13873,1,0,0:0:0:0:
128,128,13873,1,0,0:0:0:0:
128,128,13873,1,0,0:0:0:0:
128,128,13873,1,0,0:0:0:0:
384,224,13873,1,0,0:0:0:0:
384,224,13873,1,0,0:0:0:0:
384,224,13873,1,0,0:0:0:0:
96,160,13873,1,0,0:0:0:0:
96,160,13873,1,0,0:0:0:0:
96,160,13935,1,0,0:0:0:0:
96,160,13935,1,0,0:0:0:0:
256,256,13935,1,0,0:0:0:0:
384,256,13935,1,0,0:0:0:0:
384,256,13935,1,0,0:0:0:0:
384,256,13935,1,0,0:0:0:0:
256,256,13935,1,0,0:0:0:0:
96,192,13935,1,0,0:0:0:0:
96,192,13935,1,0,0:0:0:0:
96,192,13935,1,0,0:0:0:0:
96,192,13935,1,0,0:0:0:0:
416,256,13935,1,0,0:0:0:0:
416,256,13935,1,0,0:0:0:0:
416,256,13935,1,0,0:0:0:0:
288,224,13935,1,0,0:0:0:0:
416,256,13935,1,0,0:0:0:0:
416,256,13935,1,0,0:0:0:0:
416,256,13935,1,0,0:0:0:0:
128,224,13935,1,0,0:0:0:0:
128,224,13935,1,0,0:0:0:0:
128,224,13935,1,0,0:0:0:0:
128,224,13935,1,0,0:0:0:0:
320,224,13935,1,0,0:0:0:0:
416,224,13935,1,0,0:0:0:0:
416,224,13935,1,0,0:0:0:0:
416,224,13935,1,0,0:0:0:0:
160,256,13935,1,0,0:0:0:0:
160,256,13935,1,0,0:0:0:0:
160,256,13935,1,0,0:0:0:0:
160,256,13935,1,0,0:0:0:0:
416,192,13998,1,0,0:0:0:0:
416,192,13998,1,0,0:0:0:0:
416,192,13998,1,0,0:0:0:0:
96,288,13998,1,0,0:0:0:0:
192,288,13998,1,0,0:0:0:0:
192,288,13998,1,0,0:0:0:0:
192,288,13998,1,0,0:0:0:0:
192,288,13998,1,0,0:0:0:0:
416,160,13998,1,0,0:0:0:0:
416,160,13998,1,0,0:0:0:0:
416,160,13998,1,0,0:0:0:0:
352,224,13998,1,0,0:0:0:0:
224,320,13998,1,0,0:0:0:0:
224,320,13998,1,0,0:0:0:0:
224,320,13998,1,0,0:0:0:0:
224,320,13998,1,0,0:0:0:0:
384,128,13998,1,0,0:0:0:0:
384,128,13998,1,0,0:0:0:0:
384,128,13998,1,0,0:0:0:0:
352,192,13998,1,0,0:0:0:0:
256,320,13998,1,0,0:0:0:0:
256,320,13998,1,0,0:0:0:0:
256,320,13998,1,0,0:0:0:0:
256,320,13998,1,0,0:0:0:0:
352,128,13998,1,0,0:0:0:0:
352,128,13998,1,0,0:0:0:0:
352,128,13998,1,0,0:0:0:0:
352,192,13998,1,0,0:0:0:0:
288,288,13998,1,0,0:0:0:0:
288,288,13998,1,0,0:0:0:0:
288,288,13998,1,0,0:0:0:0:
288,288,13998,1,0,0:0:0:0:
256,256,14060,1,0,0:0:0:0:
256,256,14060,1,0,0:0:0:0:
256,256,14060,1,0,0:0:0:0:
256,256,14060,1,0,0:0:0:0:
384,192,14060,1,0,0:0:0:0:
320,160,14060,1,0,0:0:0:0:
320,160,14060,1,0,0:0:0:0:
320,160,14060,1,0,0:0:0:0:
384,192,14060,1,0,0:0:0:0:
384,192,14060,1,0,0:0:0:0:
288,160,14060,1,0,0:0:0:0:
288,160,14060,1,0,0:0:0:0:
288,160,14060,1,0,0:0:0:0:
384,192,14060,1,0,0:0:0:0:
288,160,14060,1,0,0:0:0:0:
288,160,14060,1,0,0:0:0:0:
288,160,14060,1,0,0:0:0:0:
288,160,14060,1,0,0:0:0:0:
288,160,14060,1,0,0:0:0:0:
288,160,14060,1,0,0:0:0:0:
384,224,14060,1,0,0:0:0:0:
288,160,14060,1,0,0:0:0:0:
288,160,14060,1,0,0:0:0:0:
288,160,14060,1,0,0:0:0:0:
288,128,14060,1,0,0:0:0:0:
288,128,14060,1,0,0:0:0:0:
288,128,14060,1,0,0:0:0:0:
384,256,14123,1,0,0:0:0:0:
192,96,14123,1,0,0:0:0:0:
288,96,14123,1,0,0:0:0:0:
288,96,14123,1,0,0:0:0:0:
288,96,14123,1,0,0:0:0:0:
416,256,14123,1,0,0:0:0:0:
128,192,14123,1,0,0:0:0:0:
256,96,14123,1,0,0:0:0:0:
256,96,14123,1,0,0:0:0:0:
256,96,14123,1,0,0:0:0:0:
416,224,14123,1,0,0:0:0:0:
224,96,14123,1,0,0:0:0:0:
224,96,14123,1,0,0:0:0:0:
224,96,14123,1,0,0:0:0:0:
416,192,14123,1,0,0:0:0:0:
192,96,14123,1,0,0:0:0:0:
192,96,14123,1,0,0:0:0:0:
192,96,14123,1,0,0:0:0:0:
416,160,14185,1,0,0:0:0:0:
160,96,14185,1,0,0:0:0:0:
160,96,14185,1,0,0:0:0:0:
160,96,14185,1,0,0:0:0:0:
384,128,14185,1,0,0:0:0:0:
128,96,14185,1,0,0:0:0:0:
128,96,14185,1,0,0:0:0:0:
128,96,14185,1,0,0:0:0:0:
352,128,14185,1,0,0:0:0:0:
128,128,14185,1,0,0:0:0:0:
128,128,14185,1,0,0:0:0:0:
128,128,14185,1,0,0:0:0:0:
288,128,14185,1,0,0:0:0:0:
96,160,14185,1,0,0:0:0:0:
96,160,14185,1,0,0:0:0:0:
96,160,14185,1,0,0:0:0:0:
320,160,14185,1,0,0:0:0:0:
384,224,14248,1,0,0:0:0:0:
288,160,14248,1,0,0:0:0:0:
96,192,14248,1,0,0:0:0:0:
96,192,14248,1,0,0:0:0:0:
96,192,14248,1,0,0:0:0:0:
288,160,14248,1,0,0:0:0:0:
288,160,14248,1,0,0:0:0:0:
128,224,14248,1,0,0:0:0:0:
128,224,14248,1,0,0:0:0:0:
128,224,14248,1,0,0:0:0:0:
288,160,14248,1,0,0:0:0:0:
288,128,14248,1,0,0:0:0:0:
160,256,14248,1,0,0:0:0:0:
160,256,14248,1,0,0:0:0:0:
160,256,14248,1,0,0:0:0:0:
288,96,14310,1,0,0:0:0:0:
192,288,14310,1,0,0:0:0:0:
192,288,14310,1,0,0:0:0:0:
192,288,14310,1,0,0:0:0:0:
256,96,14310,1,0,0:0:0:0:
224,320,14310,1,0,0:0:0:0:
224,320,14310,1,0,0:0:0:0:
224,320,14310,1,0,0:0:0:0:
224,96,14310,1,0,0:0:0:0:
256,320,14310,1,0,0:0:0:0:
256,320,14310,1,0,0:0:0:0:
256,320,14310,1,0,0:0:0:0:
192,96,14310,1,0,0:0:0:0:
288,288,14310,1,0,0:0:0:0:
288,288,14310,1,0,0:0:0:0:
288,288,14310,1,0,0:0:0:0:
64,256,14310,1,0,0:0:0:0:
256,256,14310,1,0,0:0:0:0:
256,256,14310,1,0,0:0:0:0:
256,256,14310,1,0,0:0:0:0:
160,96,14310,1,0,0:0:0:0:
192,96,14373,1,0,0:0:0:0:
192,96,14373,1,0,0:0:0:0:
192,96,14373,1,0,0:0:0:0:
192,96,14373,1,0,0:0:0:0:
128,96,14373,1,0,0:0:0:0:
128,128,14373,1,0,0:0:0:0:
96,160,14373,1,0,0:0:0:0:
96,192,14435,1,0,0:0:0:0:
128,224,14435,1,0,0:0:0:0:
256,192,14435,1,0,0:0:0:0:
160,256,14435,1,0,0:0:0:0:
192,288,14435,1,0,0:0:0:0:
224,320,14498,1,0,0:0:0:0:
32,160,14498,1,0,0:0:0:0:
256,320,14498,1,0,0:0:0:0:
288,288,14498,1,0,0:0:0:0:
256,256,14498,1,0,0:0:0:0:
384,320,14560,1,0,0:0:0:0:
128,192,14560,1,0,0:0:0:0:
128,192,14560,1,0,0:0:0:0:
128,192,14560,1,0,0:0:0:0:
128,192,14560,1,0,0:0:0:0:
0,192,14623,1,0,0:0:0:0:
192,96,14685,1,0,0:0:0:0:
192,96,14685,1,0,0:0:0:0:
192,96,14685,1,0,0:0:0:0:
224,192,14685,1,0,0:0:0:0:
288,128,14685,1,0,0:0:0:0:
288,128,14685,1,0,0:0:0:0:
288,128,14685,1,0,0:0:0:0:
288,128,14685,1,0,0:0:0:0:
288,128,14685,1,0,0:0:0:0:
288,128,14685,1,0,0:0:0:0:
288,128,14685,1,0,0:0:0:0:
288,128,14685,1,0,0:0:0:0:
32,160,14748,1,0,0:0:0:0:
448,256,14748,1,0,0:0:0:0:
64,256,14810,1,0,0:0:0:0:
64,256,14810,1,0,0:0:0:0:
64,256,14810,1,0,0:0:0:0:
64,256,14810,1,0,0:0:0:0:
192,96,14810,1,0,0:0:0:0:
256,192,14873,12,0,16164,0:0:0:0:
192,128,14873,5,0,0:0:0:0:
128,192,14873,1,0,0:0:0:0:
128,192,14873,1,0,0:0:0:0:
128,192,14873,1,0,0:0:0:0:
128,192,14873,1,0,0:0:0:0:
288,288,14873,1,0,0:0:0:0:
256,128,14873,1,0,0:0:0:0:
256,192,14873,1,0,0:0:0:0:
256,192,14873,1,0,0:0:0:0:
256,192,14873,1,0,0:0:0:0:
256,192,14873,1,0,0:0:0:0:
160,128,14873,1,0,0:0:0:0:
160,128,14873,1,0,0:0:0:0:
160,128,14873,1,0,0:0:0:0:
288,128,14998,1,0,0:0:0:0:
288,128,14998,1,0,0:0:0:0:
288,128,14998,1,0,0:0:0:0:
288,128,14998,1,0,0:0:0:0:
288,128,14998,1,0,0:0:0:0:
288,128,14998,1,0,0:0:0:0:
288,128,14998,1,0,0:0:0:0:
288,128,14998,1,0,0:0:0:0:
288,128,14998,1,0,0:0:0:0:
288,128,14998,1,0,0:0:0:0:
288,128,14998,1,0,0:0:0:0:
288,128,14998,1,0,0:0:0:0:
224,128,14998,1,0,0:0:0:0:
224,128,14998,1,0,0:0:0:0:
224,128,14998,1,0,0:0:0:0:
384,320,14998,1,0,0:0:0:0:
384,320,14998,1,0,0:0:0:0:
384,320,14998,1,0,0:0:0:0:
384,320,14998,1,0,0:0:0:0:
224,160,14998,1,0,0:0:0:0:
128,192,14998,1,0,0:0:0:0:
256,192,14998,1,0,0:0:0:0:
224,224,14998,1,0,0:0:0:0:
256,256,14998,1,0,0:0:0:0:
256,256,14998,1,0,0:0:0:0:
256,256,14998,1,0,0:0:0:0:
64,256,14998,1,0,0:0:0:0:
64,256,14998,1,0,0:0:0:0:
64,256,14998,1,0,0:0:0:0:
64,256,14998,1,0,0:0:0:0:
64,256,14998,1,0,0:0:0:0:
64,256,14998,1,0,0:0:0:0:
64,256,14998,1,0,0:0:0:0:
64,256,14998,1,0,0:0:0:0:
64,256,14998,1,0,0:0:0:0:
64,256,14998,1,0,0:0:0:0:
64,256,14998,1,0,0:0:0:0:
64,256,14998,1,0,0:0:0:0:
288,224,14998,1,0,0:0:0:0:
224,192,14998,1,0,0:0:0:0:
224,192,14998,1,0,0:0:0:0:
224,192,14998,1,0,0:0:0:0:
224,192,14998,1,0,0:0:0:0:
224,192,14998,1,0,0:0:0:0:
352,256,14998,1,0,0:0:0:0:
288,128,14998,1,0,0:0:0:0:
352,224,14998,1,0,0:0:0:0:
352,224,14998,1,0,0:0:0:0:
352,192,14998,1,0,0:0:0:0:
352,192,14998,1,0,0:0:0:0:
352,192,14998,1,0,0:0:0:0:
384,192,14998,1,0,0:0:0:0:
256,192,14998,1,0,0:0:0:0:
256,192,14998,1,0,0:0:0:0:
256,192,14998,1,0,0:0:0:0:
256,192,14998,1,0,0:0:0:0:
256,192,14998,1,0,0:0:0:0:
256,192,14998,1,0,0:0:0:0:
256,192,14998,1,0,0:0:0:0:
256,192,14998,1,0,0:0:0:0:
256,192,14998,1,0,0:0:0:0:
256,192,14998,1,0,0:0:0:0:
256,192,14998,1,0,0:0:0:0:
256,192,14998,1,0,0:0:0:0:
384,192,14998,1,0,0:0:0:0:
384,192,14998,1,0,0:0:0:0:
384,192,14998,1,0,0:0:0:0:
448,256,14998,1,0,0:0:0:0:
448,256,14998,1,0,0:0:0:0:
448,256,14998,1,0,0:0:0:0:
448,256,14998,1,0,0:0:0:0:
448,256,14998,1,0,0:0:0:0:
160,128,14998,1,0,0:0:0:0:
384,256,14998,1,0,0:0:0:0:
64,256,14998,1,0,0:0:0:0:
416,256,14998,1,0,0:0:0:0:
416,256,14998,1,0,0:0:0:0:
416,224,14998,1,0,0:0:0:0:
384,320,14998,1,0,0:0:0:0:
384,320,14998,1,0,0:0:0:0:
384,320,14998,1,0,0:0:0:0:
384,320,14998,1,0,0:0:0:0:
384,320,14998,1,0,0:0:0:0:
384,320,14998,1,0,0:0:0:0:
384,320,14998,1,0,0:0:0:0:
384,320,14998,1,0,0:0:0:0:
384,320,14998,1,0,0:0:0:0:
384,320,14998,1,0,0:0:0:0:
384,320,14998,1,0,0:0:0:0:
384,320,14998,1,0,0:0:0:0:
416,192,14998,1,0,0:0:0:0:
416,160,14998,1,0,0:0:0:0:
384,128,14998,1,0,0:0:0:0:
352,128,14998,1,0,0:0:0:0:
256,128,14998,1,0,0:0:0:0:
256,128,14998,1,0,0:0:0:0:
256,128,14998,1,0,0:0:0:0:
256,128,14998,1,0,0:0:0:0:
256,192,14998,1,0,0:0:0:0:
320,160,14998,1,0,0:0:0:0:
384,288,15060,1,0,0:0:0:0:
288,160,15060,1,0,0:0:0:0:
288,160,15060,1,0,0:0:0:0:
288,160,15060,1,0,0:0:0:0:
288,160,15060,1,0,0:0:0:0:
224,192,15060,1,0,0:0:0:0:
224,192,15060,1,0,0:0:0:0:
224,192,15060,1,0,0:0:0:0:
224,192,15060,1,0,0:0:0:0:
224,192,15060,1,0,0:0:0:0:
224,192,15060,1,0,0:0:0:0:
224,192,15060,1,0,0:0:0:0:
224,192,15060,1,0,0:0:0:0:
224,192,15060,1,0,0:0:0:0:
224,192,15060,1,0,0:0:0:0:
224,192,15060,1,0,0:0:0:0:
224,192,15060,1,0,0:0:0:0:
288,128,15060,1,0,0:0:0:0:
288,96,15060,1,0,0:0:0:0:
256,96,15123,1,0,0:0:0:0:
224,96,15123,1,0,0:0:0:0:
128,192,15123,1,0,0:0:0:0:
128,192,15123,1,0,0:0:0:0:
128,192,15123,1,0,0:0:0:0:
128,192,15123,1,0,0:0:0:0:
128,192,15123,1,0,0:0:0:0:
192,96,15123,1,0,0:0:0:0:
160,96,15123,1,0,0:0:0:0:
128,96,15185,1,0,0:0:0:0:
128,128,15185,1,0,0:0:0:0:
448,256,15185,1,0,0:0:0:0:
448,256,15185,1,0,0:0:0:0:
448,256,15185,1,0,0:0:0:0:
448,256,15185,1,0,0:0:0:0:
448,256,15185,1,0,0:0:0:0:
448,256,15185,1,0,0:0:0:0:
448,256,15185,1,0,0:0:0:0:
448,256,15185,1,0,0:0:0:0:
448,256,15185,1,0,0:0:0:0:
448,256,15185,1,0,0:0:0:0:
448,256,15185,1,0,0:0:0:0:
448,256,15185,1,0,0:0:0:0:
96,160,15185,1,0,0:0:0:0:
96,192,15185,1,0,0:0:0:0:
128,224,15248,1,0,0:0:0:0:
224,192,15248,1,0,0:0:0:0:
320,288,15248,1,0,0:0:0:0:
320,288,15248,1,0,0:0:0:0:
320,288,15248,1,0,0:0:0:0:
320,288,15248,1,0,0:0:0:0:
192,96,15248,1,0,0:0:0:0:
160,256,15248,1,0,0:0:0:0:
192,288,15248,1,0,0:0:0:0:
288,224,15248,1,0,0:0:0:0:
288,224,15248,1,0,0:0:0:0:
288,224,15248,1,0,0:0:0:0:
224,320,15310,1,0,0:0:0:0:
320,224,15310,1,0,0:0:0:0:
320,224,15310,1,0,0:0:0:0:
320,224,15310,1,0,0:0:0:0:
256,320,15310,1,0,0:0:0:0:
352,256,15310,1,0,0:0:0:0:
256,128,15310,1,0,0:0:0:0:
256,128,15310,1,0,0:0:0:0:
256,128,15310,1,0,0:0:0:0:
256,128,15310,1,0,0:0:0:0:
352,256,15310,1,0,0:0:0:0:
256,128,15310,1,0,0:0:0:0:
256,128,15310,1,0,0:0:0:0:
256,128,15310,1,0,0:0:0:0:
256,128,15310,1,0,0:0:0:0:
256,128,15310,1,0,0:0:0:0:
352,256,15310,1,0,0:0:0:0:
256,128,15310,1,0,0:0:0:0:
288,288,15310,1,0,0:0:0:0:
256,256,15310,1,0,0:0:0:0:
352,224,15310,1,0,0:0:0:0:
352,224,15310,1,0,0:0:0:0:
352,224,15310,1,0,0:0:0:0:
352,224,15310,1,0,0:0:0:0:
352,224,15310,1,0,0:0:0:0:
352,224,15310,1,0,0:0:0:0:
352,192,15310,1,0,0:0:0:0:
352,192,15373,1,0,0:0:0:0:
352,192,15373,1,0,0:0:0:0:
352,192,15373,1,0,0:0:0:0:
352,192,15373,1,0,0:0:0:0:
352,192,15373,1,0,0:0:0:0:
448,256,15373,1,0,0:0:0:0:
352,192,15373,1,0,0:0:0:0:
352,192,15373,1,0,0:0:0:0:
352,192,15373,1,0,0:0:0:0:
160,128,15373,1,0,0:0:0:0:
160,128,15373,1,0,0:0:0:0:
160,128,15373,1,0,0:0:0:0:
160,128,15373,1,0,0:0:0:0:
384,192,15373,1,0,0:0:0:0:
384,192,15373,1,0,0:0:0:0:
384,192,15373,1,0,0:0:0:0:
384,192,15373,1,0,0:0:0:0:
384,192,15373,1,0,0:0:0:0:
384,192,15373,1,0,0:0:0:0:
384,192,15373,1,0,0:0:0:0:
384,192,15373,1,0,0:0:0:0:
384,192,15373,1,0,0:0:0:0:
64,320,15373,1,0,0:0:0:0:
384,192,15373,1,0,0:0:0:0:
384,192,15373,1,0,0:0:0:0:
384,192,15373,1,0,0:0:0:0:
384,224,15435,1,0,0:0:0:0:
384,224,15435,1,0,0:0:0:0:
384,224,15435,1,0,0:0:0:0:
128,192,15435,1,0,0:0:0:0:
128,192,15435,1,0,0:0:0:0:
128,192,15435,1,0,0:0:0:0:
128,192,15435,1,0,0:0:0:0:
128,192,15435,1,0,0:0:0:0:
128,192,15435,1,0,0:0:0:0:
128,192,15435,1,0,0:0:0:0:
128,192,15435,1,0,0:0:0:0:
128,192,15435,1,0,0:0:0:0:
128,192,15435,1,0,0:0:0:0:
128,192,15435,1,0,0:0:0:0:
128,192,15435,1,0,0:0:0:0:
384,256,15435,1,0,0:0:0:0:
384,256,15435,1,0,0:0:0:0:
384,256,15435,1,0,0:0:0:0:
416,256,15435,1,0,0:0:0:0:
416,256,15435,1,0,0:0:0:0:
416,256,15435,1,0,0:0:0:0:
416,256,15435,1,0,0:0:0:0:
416,256,15435,1,0,0:0:0:0:
416,256,15435,1,0,0:0:0:0:
416,224,15498,1,0,0:0:0:0:
416,224,15498,1,0,0:0:0:0:
416,224,15498,1,0,0:0:0:0:
256,128,15498,1,0,0:0:0:0:
416,192,15498,1,0,0:0:0:0:
416,192,15498,1,0,0:0:0:0:
416,192,15498,1,0,0:0:0:0:
416,160,15498,1,0,0:0:0:0:
416,160,15498,1,0,0:0:0:0:
416,160,15498,1,0,0:0:0:0:
384,288,15498,1,0,0:0:0:0:
384,288,15498,1,0,0:0:0:0:
384,288,15498,1,0,0:0:0:0:
384,288,15498,1,0,0:0:0:0:
384,128,15498,1,0,0:0:0:0:
384,128,15498,1,0,0:0:0:0:
384,128,15498,1,0,0:0:0:0:
352,128,15498,1,0,0:0:0:0:
352,128,15498,1,0,0:0:0:0:
352,128,15498,1,0,0:0:0:0:
320,288,15560,1,0,0:0:0:0:
320,288,15560,1,0,0:0:0:0:
320,288,15560,1,0,0:0:0:0:
320,288,15560,1,0,0:0:0:0:
320,288,15560,1,0,0:0:0:0:
320,288,15560,1,0,0:0:0:0:
320,288,15560,1,0,0:0:0:0:
320,288,15560,1,0,0:0:0:0:
320,288,15560,1,0,0:0:0:0:
320,288,15560,1,0,0:0:0:0:
320,288,15560,1,0,0:0:0:0:
320,288,15560,1,0,0:0:0:0:
320,160,15560,1,0,0:0:0:0:
320,160,15560,1,0,0:0:0:0:
320,160,15560,1,0,0:0:0:0:
288,160,15560,1,0,0:0:0:0:
288,160,15560,1,0,0:0:0:0:
288,160,15560,1,0,0:0:0:0:
288,160,15560,1,0,0:0:0:0:
288,160,15560,1,0,0:0:0:0:
288,160,15560,1,0,0:0:0:0:
288,160,15560,1,0,0:0:0:0:
288,160,15560,1,0,0:0:0:0:
288,160,15560,1,0,0:0:0:0:
288,160,15560,1,0,0:0:0:0:
288,160,15560,1,0,0:0:0:0:
288,160,15560,1,0,0:0:0:0:
128,192,15623,1,0,0:0:0:0:
288,128,15623,1,0,0:0:0:0:
288,128,15623,1,0,0:0:0:0:
288,128,15623,1,0,0:0:0:0:
288,96,15623,1,0,0:0:0:0:
288,96,15623,1,0,0:0:0:0:
288,96,15623,1,0,0:0:0:0:
256,96,15623,1,0,0:0:0:0:
256,96,15623,1,0,0:0:0:0:
256,96,15623,1,0,0:0:0:0:
192,96,15623,1,0,0:0:0:0:
224,96,15623,1,0,0:0:0:0:
224,96,15623,1,0,0:0:0:0:
224,96,15623,1,0,0:0:0:0:
160,128,15685,1,0,0:0:0:0:
160,128,15685,1,0,0:0:0:0:
160,128,15685,1,0,0:0:0:0:
160,128,15685,1,0,0:0:0:0:
160,128,15685,1,0,0:0:0:0:
192,96,15685,1,0,0:0:0:0:
160,128,15685,1,0,0:0:0:0:
160,128,15685,1,0,0:0:0:0:
160,128,15685,1,0,0:0:0:0:
192,96,15685,1,0,0:0:0:0:
160,128,15685,1,0,0:0:0:0:
192,96,15685,1,0,0:0:0:0:
160,96,15685,1,0,0:0:0:0:
160,96,15685,1,0,0:0:0:0:
160,96,15685,1,0,0:0:0:0:
128,96,15685,1,0,0:0:0:0:
128,96,15685,1,0,0:0:0:0:
128,96,15685,1,0,0:0:0:0:
128,128,15685,1,0,0:0:0:0:
128,128,15685,1,0,0:0:0:0:
128,128,15685,1,0,0:0:0:0:
320,288,15748,1,0,0:0:0:0:
96,160,15748,1,0,0:0:0:0:
96,160,15748,1,0,0:0:0:0:
96,160,15748,1,0,0:0:0:0:
96,192,15748,1,0,0:0:0:0:
96,192,15748,1,0,0:0:0:0:
96,192,15748,1,0,0:0:0:0:
160,128,15748,1,0,0:0:0:0:
160,128,15748,1,0,0:0:0:0:
128,224,15748,1,0,0:0:0:0:
128,224,15748,1,0,0:0:0:0:
128,224,15748,1,0,0:0:0:0:
160,128,15748,1,0,0:0:0:0:
192,128,15810,1,0,0:0:0:0:
160,256,15810,1,0,0:0:0:0:
160,256,15810,1,0,0:0:0:0:
160,256,15810,1,0,0:0:0:0:
224,128,15810,1,0,0:0:0:0:
192,288,15810,1,0,0:0:0:0:
192,288,15810,1,0,0:0:0:0:
192,288,15810,1,0,0:0:0:0:
224,128,15810,1,0,0:0:0:0:
384,288,15810,1,0,0:0:0:0:
384,288,15810,1,0,0:0:0:0:
384,288,15810,1,0,0:0:0:0:
384,288,15810,1,0,0:0:0:0:
384,288,15810,1,0,0:0:0:0:
384,288,15810,1,0,0:0:0:0:
384,288,15810,1,0,0:0:0:0:
384,288,15810,1,0,0:0:0:0:
384,288,15810,1,0,0:0:0:0:
384,288,15810,1,0,0:0:0:0:
384,288,15810,1,0,0:0:0:0:
384,288,15810,1,0,0:0:0:0:
224,128,15810,1,0,0:0:0:0:
224,320,15810,1,0,0:0:0:0:
224,320,15810,1,0,0:0:0:0:
224,320,15810,1,0,0:0:0:0:
256,320,15810,1,0,0:0:0:0:
256,320,15810,1,0,0:0:0:0:
256,320,15810,1,0,0:0:0:0:
224,160,15810,1,0,0:0:0:0:
160,128,15810,1,0,0:0:0:0:
288,288,15810,1,0,0:0:0:0:
128,192,15873,5,0,0:0:0:0:
288,288,15873,1,0,0:0:0:0:
288,288,15873,1,0,0:0:0:0:
256,256,15873,1,0,0:0:0:0:
256,256,15873,1,0,0:0:0:0:
256,256,15873,1,0,0:0:0:0:
256,192,15873,1,0,0:0:0:0:
224,224,15873,1,0,0:0:0:0:
224,320,15873,1,0,0:0:0:0:
224,320,15873,1,0,0:0:0:0:
224,320,15873,1,0,0:0:0:0:
224,320,15873,1,0,0:0:0:0:
256,256,15873,1,0,0:0:0:0:
256,256,15935,1,0,0:0:0:0:
256,256,15935,1,0,0:0:0:0:
288,224,15935,1,0,0:0:0:0:
320,224,15935,1,0,0:0:0:0:
352,256,15935,1,0,0:0:0:0:
288,128,15935,1,0,0:0:0:0:
352,224,15998,1,0,0:0:0:0:
352,224,15998,1,0,0:0:0:0:
352,192,15998,1,0,0:0:0:0:
352,192,15998,1,0,0:0:0:0:
352,192,15998,1,0,0:0:0:0:
192,96,15998,1,0,0:0:0:0:
192,96,15998,1,0,0:0:0:0:
192,96,15998,1,0,0:0:0:0:
192,96,15998,1,0,0:0:0:0:
384,192,15998,1,0,0:0:0:0:
384,192,16060,1,0,0:0:0:0:
384,192,16060,1,0,0:0:0:0:
384,192,16060,1,0,0:0:0:0:
160,128,16060,1,0,0:0:0:0:
160,128,16060,1,0,0:0:0:0:
384,224,16060,1,0,0:0:0:0:
160,128,16060,1,0,0:0:0:0:
224,320,16060,1,0,0:0:0:0:
192,128,16060,1,0,0:0:0:0:
384,256,16060,1,0,0:0:0:0:
64,256,16060,1,0,0:0:0:0:
224,128,16123,1,0,0:0:0:0:
416,256,16123,1,0,0:0:0:0:
224,128,16123,1,0,0:0:0:0:
416,256,16123,1,0,0:0:0:0:
224,128,16123,1,0,0:0:0:0:
416,224,16123,1,0,0:0:0:0:
224,160,16123,1,0,0:0:0:0:
416,192,16123,1,0,0:0:0:0:
416,160,16123,1,0,0:0:0:0:
256,192,16185,1,0,0:0:0:0:
64,320,16185,1,0,0:0:0:0:
64,320,16185,1,0,0:0:0:0:
64,320,16185,1,0,0:0:0:0:
64,320,16185,1,0,0:0:0:0:
384,128,16185,1,0,0:0:0:0:
192,96,16185,1,0,0:0:0:0:
192,96,16185,1,0,0:0:0:0:
192,96,16185,1,0,0:0:0:0:
224,224,16185,1,0,0:0:0:0:
352,128,16185,1,0,0:0:0:0:
192,96,16185,1,0,0:0:0:0:
256,192,16185,1,0,0:0:0:0:
256,256,16185,1,0,0:0:0:0:
320,160,16185,1,0,0:0:0:0:
256,256,16185,1,0,0:0:0:0:
256,256,16185,1,0,0:0:0:0:
256,192,16248,12,0,16571,0:0:0:0:
288,224,16248,5,0,0:0:0:0:
288,160,16248,1,0,0:0:0:0:
160,128,16248,1,0,0:0:0:0:
288,160,16248,1,0,0:0:0:0:
288,160,16248,1,0,0:0:0:0:
288,160,16248,1,0,0:0:0:0:
320,224,16248,1,0,0:0:0:0:
192,128,16248,1,0,0:0:0:0:
288,128,16248,1,0,0:0:0:0:
352,256,16248,1,0,0:0:0:0:
224,128,16248,1,0,0:0:0:0:
288,96,16248,1,0,0:0:0:0:
352,224,16248,1,0,0:0:0:0:
224,128,16310,1,0,0:0:0:0:
352,224,16310,1,0,0:0:0:0:
224,160,16310,1,0,0:0:0:0:
256,96,16310,1,0,0:0:0:0:
352,192,16310,1,0,0:0:0:0:
384,320,16310,1,0,0:0:0:0:
224,96,16310,1,0,0:0:0:0:
352,192,16310,1,0,0:0:0:0:
352,192,16310,1,0,0:0:0:0:
192,96,16310,1,0,0:0:0:0:
256,192,16310,1,0,0:0:0:0:
384,192,16310,1,0,0:0:0:0:
160,96,16310,1,0,0:0:0:0:
384,192,16310,1,0,0:0:0:0:
64,320,16310,1,0,0:0:0:0:
384,192,16373,1,0,0:0:0:0:
128,96,16373,1,0,0:0:0:0:
384,192,16373,1,0,0:0:0:0:
128,128,16373,1,0,0:0:0:0:
384,224,16373,1,0,0:0:0:0:
256,256,16373,1,0,0:0:0:0:
96,160,16373,1,0,0:0:0:0:
256,256,16373,1,0,0:0:0:0:
384,256,16373,1,0,0:0:0:0:
416,224,16373,1,0,0:0:0:0:
96,192,16373,1,0,0:0:0:0:
416,256,16373,1,0,0:0:0:0:
128,192,16373,1,0,0:0:0:0:
128,192,16373,1,0,0:0:0:0:
128,192,16373,1,0,0:0:0:0:
128,192,16373,1,0,0:0:0:0:
416,256,16435,1,0,0:0:0:0:
128,224,16435,1,0,0:0:0:0:
224,192,16435,1,0,0:0:0:0:
416,224,16435,1,0,0:0:0:0:
352,256,16435,1,0,0:0:0:0:
160,256,16435,1,0,0:0:0:0:
416,192,16435,1,0,0:0:0:0:
352,224,16435,1,0,0:0:0:0:
192,288,16435,1,0,0:0:0:0:
416,160,16435,1,0,0:0:0:0:
160,128,16435,1,0,0:0:0:0:
160,128,16498,1,0,0:0:0:0:
160,128,16498,1,0,0:0:0:0:
224,320,16498,1,0,0:0:0:0:
384,128,16498,1,0,0:0:0:0:
160,128,16498,1,0,0:0:0:0:
160,128,16498,1,0,0:0:0:0:
352,192,16498,1,0,0:0:0:0:
256,320,16498,1,0,0:0:0:0:
352,128,16498,1,0,0:0:0:0:
192,128,16498,1,0,0:0:0:0:
192,128,16498,1,0,0:0:0:0:
288,128,16498,1,0,0:0:0:0:
288,128,16498,1,0,0:0:0:0:
288,128,16498,1,0,0:0:0:0:
288,128,16498,1,0,0:0:0:0:
288,128,16498,1,0,0:0:0:0:
288,128,16498,1,0,0:0:0:0:
288,128,16498,1,0,0:0:0:0:
288,128,16498,1,0,0:0:0:0:
288,128,16498,1,0,0:0:0:0:
288,128,16498,1,0,0:0:0:0:
288,128,16498,1,0,0:0:0:0:
288,128,16498,1,0,0:0:0:0:
288,288,16498,1,0,0:0:0:0:
224,128,16498,1,0,0:0:0:0:
224,128,16498,1,0,0:0:0:0:
256,256,16498,1,0,0:0:0:0:
320,160,16498,1,0,0:0:0:0:
224,128,16498,1,0,0:0:0:0:
224,128,16498,1,0,0:0:0:0:
384,192,16498,1,0,0:0:0:0:
224,128,16498,1,0,0:0:0:0:
224,128,16498,1,0,0:0:0:0:
384,192,16498,1,0,0:0:0:0:
288,160,16498,1,0,0:0:0:0:
160,128,16498,1,0,0:0:0:0:
160,128,16498,1,0,0:0:0:0:
160,128,16498,1,0,0:0:0:0:
160,128,16498,1,0,0:0:0:0:
384,256,16560,5,0,0:0:0:0:
160,128,16560,1,0,0:0:0:0:
160,128,16560,1,0,0:0:0:0:
256,128,16560,1,0,0:0:0:0:
384,224,16560,1,0,0:0:0:0:
448,256,16560,1,0,0:0:0:0:
160,128,16560,1,0,0:0:0:0:
160,128,16560,1,0,0:0:0:0:
160,128,16560,1,0,0:0:0:0:
160,128,16560,1,0,0:0:0:0:
224,160,16560,1,0,0:0:0:0:
224,160,16560,1,0,0:0:0:0:
256,192,16560,1,0,0:0:0:0:
256,192,16560,1,0,0:0:0:0:
416,256,16560,1,0,0:0:0:0:
416,256,16560,1,0,0:0:0:0:
224,224,16560,1,0,0:0:0:0:
224,224,16560,1,0,0:0:0:0:
416,224,16623,1,0,0:0:0:0:
256,256,16623,1,0,0:0:0:0:
256,256,16623,1,0,0:0:0:0:
416,192,16623,1,0,0:0:0:0:
256,256,16623,1,0,0:0:0:0:
256,256,16623,1,0,0:0:0:0:
64,256,16623,1,0,0:0:0:0:
64,256,16623,1,0,0:0:0:0:
64,256,16623,1,0,0:0:0:0:
64,256,16623,1,0,0:0:0:0:
64,256,16623,1,0,0:0:0:0:
64,256,16623,1,0,0:0:0:0:
64,256,16623,1,0,0:0:0:0:
64,256,16623,1,0,0:0:0:0:
64,256,16623,1,0,0:0:0:0:
64,256,16623,1,0,0:0:0:0:
64,256,16623,1,0,0:0:0:0:
64,256,16623,1,0,0:0:0:0:
256,256,16623,1,0,0:0:0:0:
256,256,16623,1,0,0:0:0:0:
416,160,16623,1,0,0:0:0:0:
288,224,16623,1,0,0:0:0:0:
288,224,16623,1,0,0:0:0:0:
384,128,16623,1,0,0:0:0:0:
320,224,16623,1,0,0:0:0:0:
320,224,16623,1,0,0:0:0:0:
352,128,16623,1,0,0:0:0:0:
256,192,16685,12,0,16797,0:0:0:0:
352,224,16685,5,0,0:0:0:0:
256,128,16685,1,0,0:0:0:0:
352,256,16685,1,0,0:0:0:0:
352,256,16685,1,0,0:0:0:0:
320,160,16685,1,0,0:0:0:0:
352,224,16685,1,0,0:0:0:0:
352,224,16685,1,0,0:0:0:0:
352,224,16685,1,0,0:0:0:0:
288,160,16685,1,0,0:0:0:0:
288,160,16685,1,0,0:0:0:0:
352,192,16685,1,0,0:0:0:0:
352,192,16685,1,0,0:0:0:0:
288,160,16685,1,0,0:0:0:0:
352,192,16685,1,0,0:0:0:0:
352,192,16685,1,0,0:0:0:0:
288,160,16685,1,0,0:0:0:0:
352,192,16748,1,0,0:0:0:0:
352,192,16748,1,0,0:0:0:0:
288,128,16748,1,0,0:0:0:0:
256,192,16748,1,0,0:0:0:0:
256,192,16748,1,0,0:0:0:0:
256,192,16748,1,0,0:0:0:0:
256,192,16748,1,0,0:0:0:0:
256,192,16748,1,0,0:0:0:0:
256,192,16748,1,0,0:0:0:0:
256,192,16748,1,0,0:0:0:0:
256,192,16748,1,0,0:0:0:0:
256,192,16748,1,0,0:0:0:0:
256,192,16748,1,0,0:0:0:0:
256,192,16748,1,0,0:0:0:0:
256,192,16748,1,0,0:0:0:0:
384,192,16748,1,0,0:0:0:0:
384,192,16748,1,0,0:0:0:0:
384,192,16748,1,0,0:0:0:0:
384,192,16748,1,0,0:0:0:0:
288,96,16748,1,0,0:0:0:0:
384,192,16748,1,0,0:0:0:0:
384,192,16748,1,0,0:0:0:0:
384,192,16748,1,0,0:0:0:0:
384,192,16748,1,0,0:0:0:0:
256,96,16748,1,0,0:0:0:0:
384,224,16748,1,0,0:0:0:0:
384,224,16748,1,0,0:0:0:0:
224,96,16748,1,0,0:0:0:0:
384,256,16810,5,0,0:0:0:0:
128,192,16810,1,0,0:0:0:0:
192,96,16810,1,0,0:0:0:0:
384,256,16810,1,0,0:0:0:0:
160,96,16810,1,0,0:0:0:0:
416,256,16810,1,0,0:0:0:0:
416,256,16810,1,0,0:0:0:0:
416,256,16810,1,0,0:0:0:0:
416,256,16810,1,0,0:0:0:0:
128,96,16810,1,0,0:0:0:0:
192,96,16810,1,0,0:0:0:0:
416,224,16810,1,0,0:0:0:0:
416,224,16810,1,0,0:0:0:0:
128,128,16810,1,0,0:0:0:0:
384,320,16810,1,0,0:0:0:0:
384,320,16810,1,0,0:0:0:0:
384,320,16810,1,0,0:0:0:0:
384,320,16810,1,0,0:0:0:0:
384,320,16810,1,0,0:0:0:0:
384,320,16810,1,0,0:0:0:0:
384,320,16810,1,0,0:0:0:0:
384,320,16810,1,0,0:0:0:0:
384,320,16810,1,0,0:0:0:0:
384,320,16810,1,0,0:0:0:0:
384,320,16810,1,0,0:0:0:0:
384,320,16810,1,0,0:0:0:0:
256,192,16873,12,0,16970,0:0:0:0:
352,128,16873,5,0,0:0:0:0:
416,192,16873,1,0,0:0:0:0:
416,192,16873,1,0,0:0:0:0:
96,160,16873,1,0,0:0:0:0:
416,160,16873,1,0,0:0:0:0:
416,160,16873,1,0,0:0:0:0:
96,192,16873,1,0,0:0:0:0:
384,128,16873,1,0,0:0:0:0:
384,128,16873,1,0,0:0:0:0:
128,224,16873,1,0,0:0:0:0:
352,128,16873,1,0,0:0:0:0:
320,288,16873,1,0,0:0:0:0:
160,256,16935,1,0,0:0:0:0:
320,160,16935,1,0,0:0:0:0:
320,160,16935,1,0,0:0:0:0:
192,288,16935,1,0,0:0:0:0:
288,160,16935,1,0,0:0:0:0:
288,160,16935,1,0,0:0:0:0:
288,224,16935,1,0,0:0:0:0:
288,224,16935,1,0,0:0:0:0:
288,224,16935,1,0,0:0:0:0:
288,160,16935,1,0,0:0:0:0:
288,160,16935,1,0,0:0:0:0:
224,320,16935,1,0,0:0:0:0:
288,160,16935,1,0,0:0:0:0:
288,160,16935,1,0,0:0:0:0:
320,224,16935,1,0,0:0:0:0:
224,192,16935,1,0,0:0:0:0:
224,192,16935,1,0,0:0:0:0:
224,192,16935,1,0,0:0:0:0:
224,192,16935,1,0,0:0:0:0:
224,192,16935,1,0,0:0:0:0:
224,192,16935,1,0,0:0:0:0:
224,192,16935,1,0,0:0:0:0:
224,192,16935,1,0,0:0:0:0:
224,192,16935,1,0,0:0:0:0:
320,224,16935,1,0,0:0:0:0:
224,192,16935,1,0,0:0:0:0:
224,192,16935,1,0,0:0:0:0:
320,224,16935,1,0,0:0:0:0:
224,192,16935,1,0,0:0:0:0:
288,160,16935,1,0,0:0:0:0:
288,160,16935,1,0,0:0:0:0:
256,320,16935,1,0,0:0:0:0:
352,256,16935,1,0,0:0:0:0:
352,256,16935,1,0,0:0:0:0:
352,256,16935,1,0,0:0:0:0:
352,224,16998,5,0,0:0:0:0:
288,128,16998,1,0,0:0:0:0:
288,128,16998,1,0,0:0:0:0:
288,288,16998,1,0,0:0:0:0:
256,256,16998,1,0,0:0:0:0:
352,224,16998,1,0,0:0:0:0:
352,224,16998,1,0,0:0:0:0:
352,224,16998,1,0,0:0:0:0:
288,96,16998,1,0,0:0:0:0:
288,96,16998,1,0,0:0:0:0:
352,224,16998,1,0,0:0:0:0:
352,224,16998,1,0,0:0:0:0:
256,96,16998,1,0,0:0:0:0:
256,96,16998,1,0,0:0:0:0:
352,192,16998,1,0,0:0:0:0:
352,192,16998,1,0,0:0:0:0:
352,192,16998,1,0,0:0:0:0:
352,192,16998,1,0,0:0:0:0:
352,192,16998,1,0,0:0:0:0:
352,192,16998,1,0,0:0:0:0:
224,96,16998,1,0,0:0:0:0:
224,96,16998,1,0,0:0:0:0:
352,192,16998,1,0,0:0:0:0:
352,192,16998,1,0,0:0:0:0:
352,192,16998,1,0,0:0:0:0:
160,128,16998,1,0,0:0:0:0:
192,96,16998,1,0,0:0:0:0:
192,96,16998,1,0,0:0:0:0:
384,192,17060,1,0,0:0:0:0:
384,192,17060,1,0,0:0:0:0:
384,192,17060,1,0,0:0:0:0:
384,192,17060,1,0,0:0:0:0:
384,192,17060,1,0,0:0:0:0:
384,192,17060,1,0,0:0:0:0:
160,96,17060,1,0,0:0:0:0:
160,96,17060,1,0,0:0:0:0:
384,192,17060,1,0,0:0:0:0:
384,192,17060,1,0,0:0:0:0:
384,192,17060,1,0,0:0:0:0:
384,192,17060,1,0,0:0:0:0:
384,192,17060,1,0,0:0:0:0:
384,192,17060,1,0,0:0:0:0:
128,96,17060,1,0,0:0:0:0:
128,192,17060,1,0,0:0:0:0:
128,96,17060,1,0,0:0:0:0:
128,192,17060,1,0,0:0:0:0:
448,256,17060,1,0,0:0:0:0:
448,256,17060,1,0,0:0:0:0:
384,224,17060,1,0,0:0:0:0:
448,256,17060,1,0,0:0:0:0:
448,256,17060,1,0,0:0:0:0:
448,256,17060,1,0,0:0:0:0:
448,256,17060,1,0,0:0:0:0:
448,256,17060,1,0,0:0:0:0:
384,224,17060,1,0,0:0:0:0:
448,256,17060,1,0,0:0:0:0:
448,256,17060,1,0,0:0:0:0:
448,256,17060,1,0,0:0:0:0:
448,256,17060,1,0,0:0:0:0:
384,224,17060,1,0,0:0:0:0:
448,256,17060,1,0,0:0:0:0:
128,128,17060,1,0,0:0:0:0:
128,128,17060,1,0,0:0:0:0:
96,160,17060,1,0,0:0:0:0:
96,160,17060,1,0,0:0:0:0:
384,256,17060,1,0,0:0:0:0:
384,256,17060,1,0,0:0:0:0:
256,192,17123,12,0,17168,0:0:0:0:
128,224,17123,5,0,0:0:0:0:
384,256,17123,1,0,0:0:0:0:
416,256,17123,1,0,0:0:0:0:
416,256,17123,1,0,0:0:0:0:
416,256,17123,1,0,0:0:0:0:
96,192,17123,1,0,0:0:0:0:
96,192,17123,1,0,0:0:0:0:
416,256,17123,1,0,0:0:0:0:
416,256,17123,1,0,0:0:0:0:
416,256,17123,1,0,0:0:0:0:
128,224,17123,1,0,0:0:0:0:
416,224,17123,1,0,0:0:0:0:
416,224,17123,1,0,0:0:0:0:
416,224,17123,1,0,0:0:0:0:
416,192,17123,1,0,0:0:0:0:
416,192,17123,1,0,0:0:0:0:
416,192,17123,1,0,0:0:0:0:
160,256,17123,1,0,0:0:0:0:
160,256,17123,1,0,0:0:0:0:
288,128,17123,1,0,0:0:0:0:
288,128,17123,1,0,0:0:0:0:
384,128,17185,5,0,0:0:0:0:
416,160,17185,1,0,0:0:0:0:
416,160,17185,1,0,0:0:0:0:
416,160,17185,1,0,0:0:0:0:
192,288,17185,1,0,0:0:0:0:
192,288,17185,1,0,0:0:0:0:
384,288,17185,1,0,0:0:0:0:
160,128,17185,1,0,0:0:0:0:
384,128,17185,1,0,0:0:0:0:
384,128,17185,1,0,0:0:0:0:
224,320,17185,1,0,0:0:0:0:
160,128,17185,1,0,0:0:0:0:
224,320,17185,1,0,0:0:0:0:
160,128,17185,1,0,0:0:0:0:
160,128,17185,1,0,0:0:0:0:
160,128,17185,1,0,0:0:0:0:
352,128,17185,1,0,0:0:0:0:
352,128,17185,1,0,0:0:0:0:
352,128,17185,1,0,0:0:0:0:
256,320,17185,1,0,0:0:0:0:
256,320,17185,1,0,0:0:0:0:
256,128,17185,1,0,0:0:0:0:
256,128,17185,1,0,0:0:0:0:
256,128,17185,1,0,0:0:0:0:
256,128,17185,1,0,0:0:0:0:
256,128,17185,1,0,0:0:0:0:
256,128,17185,1,0,0:0:0:0:
256,128,17185,1,0,0:0:0:0:
256,128,17185,1,0,0:0:0:0:
256,128,17185,1,0,0:0:0:0:
256,128,17185,1,0,0:0:0:0:
256,128,17185,1,0,0:0:0:0:
256,128,17185,1,0,0:0:0:0:
192,128,17185,1,0,0:0:0:0:
192,128,17185,1,0,0:0:0:0:
288,288,17185,1,0,0:0:0:0:
288,288,17185,1,0,0:0:0:0:
320,160,17185,1,0,0:0:0:0:
320,160,17185,1,0,0:0:0:0:
320,160,17185,1,0,0:0:0:0:
256,256,17185,1,0,0:0:0:0:
224,128,17185,1,0,0:0:0:0:
256,256,17185,1,0,0:0:0:0:
224,128,17185,1,0,0:0:0:0:
224,128,17248,1,0,0:0:0:0:
224,128,17248,1,0,0:0:0:0:
288,160,17248,1,0,0:0:0:0:
288,160,17248,1,0,0:0:0:0:
288,160,17248,1,0,0:0:0:0:
224,128,17248,1,0,0:0:0:0:
224,128,17248,1,0,0:0:0:0:
288,160,17248,1,0,0:0:0:0:
288,160,17248,1,0,0:0:0:0:
288,160,17248,1,0,0:0:0:0:
288,160,17248,1,0,0:0:0:0:
288,160,17248,1,0,0:0:0:0:
288,160,17248,1,0,0:0:0:0:
288,160,17248,1,0,0:0:0:0:
288,160,17248,1,0,0:0:0:0:
288,160,17248,1,0,0:0:0:0:
224,160,17248,1,0,0:0:0:0:
224,160,17248,1,0,0:0:0:0:
288,128,17248,1,0,0:0:0:0:
288,128,17248,1,0,0:0:0:0:
288,128,17248,1,0,0:0:0:0:
256,192,17248,1,0,0:0:0:0:
256,192,17248,1,0,0:0:0:0:
64,256,17248,1,0,0:0:0:0:
64,256,17248,1,0,0:0:0:0:
288,96,17248,1,0,0:0:0:0:
288,96,17248,1,0,0:0:0:0:
288,96,17310,1,0,0:0:0:0:
256,96,17310,1,0,0:0:0:0:
256,96,17310,1,0,0:0:0:0:
256,96,17310,1,0,0:0:0:0:
224,224,17310,1,0,0:0:0:0:
224,224,17310,1,0,0:0:0:0:
224,96,17310,1,0,0:0:0:0:
224,96,17310,1,0,0:0:0:0:
224,96,17310,1,0,0:0:0:0:
128,192,17310,1,0,0:0:0:0:
128,192,17310,1,0,0:0:0:0:
128,192,17310,1,0,0:0:0:0:
128,192,17310,1,0,0:0:0:0:
128,192,17310,1,0,0:0:0:0:
128,192,17310,1,0,0:0:0:0:
128,192,17310,1,0,0:0:0:0:
128,192,17310,1,0,0:0:0:0:
128,192,17310,1,0,0:0:0:0:
128,192,17310,1,0,0:0:0:0:
128,192,17310,1,0,0:0:0:0:
128,192,17310,1,0,0:0:0:0:
256,256,17310,1,0,0:0:0:0:
256,256,17310,1,0,0:0:0:0:
192,96,17310,1,0,0:0:0:0:
192,96,17310,1,0,0:0:0:0:
192,96,17310,1,0,0:0:0:0:
256,256,17310,1,0,0:0:0:0:
256,256,17310,1,0,0:0:0:0:
256,256,17310,1,0,0:0:0:0:
256,256,17310,1,0,0:0:0:0:
160,96,17310,1,0,0:0:0:0:
160,96,17310,1,0,0:0:0:0:
160,96,17310,1,0,0:0:0:0:
256,192,17373,12,0,17524,0:0:0:0:
128,128,17373,5,0,0:0:0:0:
288,224,17373,1,0,0:0:0:0:
288,224,17373,1,0,0:0:0:0:
128,96,17373,1,0,0:0:0:0:
128,96,17373,1,0,0:0:0:0:
128,96,17373,1,0,0:0:0:0:
320,224,17373,1,0,0:0:0:0:
320,224,17373,1,0,0:0:0:0:
128,128,17373,1,0,0:0:0:0:
128,128,17373,1,0,0:0:0:0:
352,256,17373,1,0,0:0:0:0:
352,256,17373,1,0,0:0:0:0:
96,160,17373,1,0,0:0:0:0:
96,160,17373,1,0,0:0:0:0:
96,160,17373,1,0,0:0:0:0:
256,192,17373,1,0,0:0:0:0:
256,192,17373,1,0,0:0:0:0:
352,224,17373,1,0,0:0:0:0:
352,224,17373,1,0,0:0:0:0:
352,224,17373,1,0,0:0:0:0:
352,224,17373,1,0,0:0:0:0:
96,192,17373,1,0,0:0:0:0:
96,192,17435,1,0,0:0:0:0:
96,192,17435,1,0,0:0:0:0:
352,192,17435,1,0,0:0:0:0:
352,192,17435,1,0,0:0:0:0:
128,224,17435,1,0,0:0:0:0:
128,224,17435,1,0,0:0:0:0:
128,224,17435,1,0,0:0:0:0:
352,192,17435,1,0,0:0:0:0:
352,192,17435,1,0,0:0:0:0:
352,192,17435,1,0,0:0:0:0:
352,192,17435,1,0,0:0:0:0:
320,288,17435,1,0,0:0:0:0:
320,288,17435,1,0,0:0:0:0:
320,288,17435,1,0,0:0:0:0:
320,288,17435,1,0,0:0:0:0:
320,288,17435,1,0,0:0:0:0:
320,288,17435,1,0,0:0:0:0:
320,288,17435,1,0,0:0:0:0:
320,288,17435,1,0,0:0:0:0:
320,288,17435,1,0,0:0:0:0:
320,288,17435,1,0,0:0:0:0:
320,288,17435,1,0,0:0:0:0:
320,288,17435,1,0,0:0:0:0:
160,256,17435,1,0,0:0:0:0:
160,256,17435,1,0,0:0:0:0:
160,256,17435,1,0,0:0:0:0:
384,192,17435,1,0,0:0:0:0:
384,192,17435,1,0,0:0:0:0:
384,192,17435,1,0,0:0:0:0:
384,192,17435,1,0,0:0:0:0:
192,288,17435,1,0,0:0:0:0:
192,288,17435,1,0,0:0:0:0:
192,288,17435,1,0,0:0:0:0:
384,192,17435,1,0,0:0:0:0:
384,192,17435,1,0,0:0:0:0:
416,256,17498,5,0,0:0:0:0:
384,192,17498,1,0,0:0:0:0:
384,192,17498,1,0,0:0:0:0:
224,320,17498,1,0,0:0:0:0:
224,320,17498,1,0,0:0:0:0:
224,320,17498,1,0,0:0:0:0:
384,224,17498,1,0,0:0:0:0:
384,224,17498,1,0,0:0:0:0:
256,320,17498,1,0,0:0:0:0:
256,320,17498,1,0,0:0:0:0:
256,320,17498,1,0,0:0:0:0:
384,320,17498,1,0,0:0:0:0:
384,320,17498,1,0,0:0:0:0:
288,288,17498,1,0,0:0:0:0:
288,288,17498,1,0,0:0:0:0:
288,288,17498,1,0,0:0:0:0:
384,256,17498,1,0,0:0:0:0:
384,256,17498,1,0,0:0:0:0:
256,256,17498,1,0,0:0:0:0:
256,256,17498,1,0,0:0:0:0:
256,256,17498,1,0,0:0:0:0:
64,320,17498,1,0,0:0:0:0:
416,256,17498,1,0,0:0:0:0:
416,256,17498,1,0,0:0:0:0:
416,256,17498,1,0,0:0:0:0:
128,192,17498,1,0,0:0:0:0:
256,192,17560,12,0,17680,0:0:0:0:
192,96,17560,5,0,0:0:0:0:
192,96,17560,1,0,0:0:0:0:
416,224,17560,1,0,0:0:0:0:
416,224,17560,1,0,0:0:0:0:
160,128,17560,1,0,0:0:0:0:
160,128,17560,1,0,0:0:0:0:
160,128,17560,1,0,0:0:0:0:
160,128,17560,1,0,0:0:0:0:
160,128,17560,1,0,0:0:0:0:
160,128,17560,1,0,0:0:0:0:
160,128,17560,1,0,0:0:0:0:
160,128,17560,1,0,0:0:0:0:
160,128,17560,1,0,0:0:0:0:
160,128,17560,1,0,0:0:0:0:
160,128,17560,1,0,0:0:0:0:
160,128,17560,1,0,0:0:0:0:
416,192,17560,1,0,0:0:0:0:
416,192,17560,1,0,0:0:0:0:
416,160,17560,1,0,0:0:0:0:
416,160,17560,1,0,0:0:0:0:
384,128,17560,1,0,0:0:0:0:
384,128,17560,1,0,0:0:0:0:
256,192,17623,12,0,17713,0:0:0:0:
352,128,17623,5,0,0:0:0:0:
352,128,17623,1,0,0:0:0:0:
224,192,17623,1,0,0:0:0:0:
224,192,17623,1,0,0:0:0:0:
288,128,17623,1,0,0:0:0:0:
320,160,17623,1,0,0:0:0:0:
320,160,17623,1,0,0:0:0:0:
288,160,17623,1,0,0:0:0:0:
288,160,17623,1,0,0:0:0:0:
288,160,17623,1,0,0:0:0:0:
288,160,17623,1,0,0:0:0:0:
288,160,17685,5,0,0:0:0:0:
288,160,17685,1,0,0:0:0:0:
288,160,17685,1,0,0:0:0:0:
288,160,17685,1,0,0:0:0:0:
288,128,17685,1,0,0:0:0:0:
288,128,17685,1,0,0:0:0:0:
288,96,17685,1,0,0:0:0:0:
288,96,17685,1,0,0:0:0:0:
384,288,17685,1,0,0:0:0:0:
384,288,17685,1,0,0:0:0:0:
384,288,17685,1,0,0:0:0:0:
384,288,17685,1,0,0:0:0:0:
384,288,17685,1,0,0:0:0:0:
384,288,17685,1,0,0:0:0:0:
384,288,17685,1,0,0:0:0:0:
384,288,17685,1,0,0:0:0:0:
384,288,17685,1,0,0:0:0:0:
384,288,17685,1,0,0:0:0:0:
384,288,17685,1,0,0:0:0:0:
384,288,17685,1,0,0:0:0:0:
256,96,17685,1,0,0:0:0:0:
256,96,17685,1,0,0:0:0:0:
64,256,17748,5,0,0:0:0:0:
224,96,17748,1,0,0:0:0:0:
448,256,17748,1,0,0:0:0:0:
224,96,17748,1,0,0:0:0:0:
448,256,17748,1,0,0:0:0:0:
192,96,17748,1,0,0:0:0:0:
192,96,17748,1,0,0:0:0:0:
160,96,17748,1,0,0:0:0:0:
160,96,17748,1,0,0:0:0:0:
128,192,17748,1,0,0:0:0:0:
128,96,17748,1,0,0:0:0:0:
128,192,17748,1,0,0:0:0:0:
128,96,17748,1,0,0:0:0:0:
256,192,17810,12,0,17863,0:0:0:0:
96,160,17810,5,0,0:0:0:0:
128,128,17810,1,0,0:0:0:0:
128,128,17810,1,0,0:0:0:0:
224,320,17810,1,0,0:0:0:0:
224,320,17810,1,0,0:0:0:0:
224,320,17810,1,0,0:0:0:0:
224,320,17810,1,0,0:0:0:0:
96,160,17810,1,0,0:0:0:0:
96,192,17810,1,0,0:0:0:0:
96,192,17810,1,0,0:0:0:0:
192,96,17810,1,0,0:0:0:0:
192,96,17810,1,0,0:0:0:0:
192,96,17810,1,0,0:0:0:0:
128,224,17810,1,0,0:0:0:0:
128,224,17810,1,0,0:0:0:0:
256,192,17873,12,0,18113,0:0:0:0:
256,128,17873,5,0,0:0:0:0:
256,128,17873,1,0,0:0:0:0:
288,128,17873,1,0,0:0:0:0:
288,128,17873,1,0,0:0:0:0:
288,128,17873,1,0,0:0:0:0:
160,256,17873,1,0,0:0:0:0:
288,128,17873,1,0,0:0:0:0:
256,192,17873,1,0,0:0:0:0:
160,256,17873,1,0,0:0:0:0:
192,288,17873,1,0,0:0:0:0:
192,288,17873,1,0,0:0:0:0:
160,128,17873,1,0,0:0:0:0:
224,320,17873,1,0,0:0:0:0:
160,128,17873,1,0,0:0:0:0:
224,320,17873,1,0,0:0:0:0:
160,128,17873,1,0,0:0:0:0:
256,320,17873,1,0,0:0:0:0:
256,320,17873,1,0,0:0:0:0:
192,128,17935,1,0,0:0:0:0:
192,96,17935,1,0,0:0:0:0:
192,96,17935,1,0,0:0:0:0:
192,96,17935,1,0,0:0:0:0:
192,96,17935,1,0,0:0:0:0:
288,288,17935,1,0,0:0:0:0:
288,288,17935,1,0,0:0:0:0:
256,256,17935,1,0,0:0:0:0:
224,128,17935,1,0,0:0:0:0:
256,256,17935,1,0,0:0:0:0:
224,128,17935,1,0,0:0:0:0:
224,128,17935,1,0,0:0:0:0:
160,128,17935,1,0,0:0:0:0:
160,128,17935,1,0,0:0:0:0:
160,128,17935,1,0,0:0:0:0:
224,160,17935,1,0,0:0:0:0:
128,192,17998,1,0,0:0:0:0:
128,192,17998,1,0,0:0:0:0:
192,128,17998,1,0,0:0:0:0:
64,256,17998,1,0,0:0:0:0:
64,256,17998,1,0,0:0:0:0:
64,256,17998,1,0,0:0:0:0:
256,192,17998,1,0,0:0:0:0:
64,256,17998,1,0,0:0:0:0:
224,128,17998,1,0,0:0:0:0:
224,128,17998,1,0,0:0:0:0:
224,128,17998,1,0,0:0:0:0:
224,224,17998,1,0,0:0:0:0:
224,160,17998,1,0,0:0:0:0:
256,256,17998,1,0,0:0:0:0:
352,256,18060,5,0,0:0:0:0:
256,192,18060,12,0,18217,0:0:0:0:
256,256,18060,5,0,0:0:0:0:
256,256,18060,1,0,0:0:0:0:
256,192,18060,1,0,0:0:0:0:
64,320,18060,1,0,0:0:0:0:
64,320,18060,1,0,0:0:0:0:
64,320,18060,1,0,0:0:0:0:
64,320,18060,1,0,0:0:0:0:
288,224,18060,1,0,0:0:0:0:
128,192,18060,1,0,0:0:0:0:
128,192,18060,1,0,0:0:0:0:
128,192,18060,1,0,0:0:0:0:
128,192,18060,1,0,0:0:0:0:
224,224,18060,1,0,0:0:0:0:
320,224,18060,1,0,0:0:0:0:
224,192,18060,1,0,0:0:0:0:
320,288,18060,1,0,0:0:0:0:
320,288,18060,1,0,0:0:0:0:
256,256,18060,1,0,0:0:0:0:
256,192,18123,5,0,0:0:0:0:
256,192,18123,1,0,0:0:0:0:
256,192,18123,1,0,0:0:0:0:
256,192,18123,1,0,0:0:0:0:
256,256,18123,1,0,0:0:0:0:
352,224,18123,1,0,0:0:0:0:
256,256,18123,1,0,0:0:0:0:
352,224,18123,1,0,0:0:0:0:
288,224,18123,1,0,0:0:0:0:
352,192,18123,1,0,0:0:0:0:
352,192,18123,1,0,0:0:0:0:
320,224,18123,1,0,0:0:0:0:
352,192,18123,1,0,0:0:0:0:
352,256,18123,1,0,0:0:0:0:
288,128,18123,1,0,0:0:0:0:
288,128,18123,1,0,0:0:0:0:
288,128,18123,1,0,0:0:0:0:
288,128,18123,1,0,0:0:0:0:
288,128,18123,1,0,0:0:0:0:
288,128,18123,1,0,0:0:0:0:
288,128,18123,1,0,0:0:0:0:
288,128,18123,1,0,0:0:0:0:
288,128,18123,1,0,0:0:0:0:
288,128,18123,1,0,0:0:0:0:
288,128,18123,1,0,0:0:0:0:
288,128,18123,1,0,0:0:0:0:
384,192,18185,1,0,0:0:0:0:
384,192,18185,1,0,0:0:0:0:
352,224,18185,1,0,0:0:0:0:
384,192,18185,1,0,0:0:0:0:
352,224,18185,1,0,0:0:0:0:
224,160,18185,1,0,0:0:0:0:
384,192,18185,1,0,0:0:0:0:
352,192,18185,1,0,0:0:0:0:
384,224,18185,1,0,0:0:0:0:
448,256,18185,1,0,0:0:0:0:
352,192,18185,1,0,0:0:0:0:
384,320,18185,1,0,0:0:0:0:
384,320,18185,1,0,0:0:0:0:
384,320,18185,1,0,0:0:0:0:
384,320,18185,1,0,0:0:0:0:
352,192,18185,1,0,0:0:0:0:
160,128,18185,1,0,0:0:0:0:
160,128,18185,1,0,0:0:0:0:
384,256,18185,1,0,0:0:0:0:
256,192,18248,12,0,18301,0:0:0:0:
416,224,18248,5,0,0:0:0:0:
384,192,18248,1,0,0:0:0:0:
384,192,18248,1,0,0:0:0:0:
416,256,18248,1,0,0:0:0:0:
384,192,18248,1,0,0:0:0:0:
416,256,18248,1,0,0:0:0:0:
384,192,18248,1,0,0:0:0:0:
192,96,18248,1,0,0:0:0:0:
192,96,18248,1,0,0:0:0:0:
384,224,18248,1,0,0:0:0:0:
416,192,18248,1,0,0:0:0:0:
384,256,18248,1,0,0:0:0:0:
64,256,18248,1,0,0:0:0:0:
64,256,18248,1,0,0:0:0:0:
64,256,18248,1,0,0:0:0:0:
64,256,18248,1,0,0:0:0:0:
64,256,18248,1,0,0:0:0:0:
64,256,18248,1,0,0:0:0:0:
224,192,18310,5,0,0:0:0:0:
64,256,18310,1,0,0:0:0:0:
64,256,18310,1,0,0:0:0:0:
64,256,18310,1,0,0:0:0:0:
64,256,18310,1,0,0:0:0:0:
64,256,18310,1,0,0:0:0:0:
64,256,18310,1,0,0:0:0:0:
416,160,18310,1,0,0:0:0:0:
416,224,18310,1,0,0:0:0:0:
416,256,18310,1,0,0:0:0:0:
384,128,18310,1,0,0:0:0:0:
416,256,18310,1,0,0:0:0:0:
224,192,18310,1,0,0:0:0:0:
224,192,18310,1,0,0:0:0:0:
352,128,18310,1,0,0:0:0:0:
224,192,18310,1,0,0:0:0:0:
416,224,18310,1,0,0:0:0:0:
256,128,18310,1,0,0:0:0:0:
416,192,18310,1,0,0:0:0:0:
320,160,18310,1,0,0:0:0:0:
256,192,18373,12,0,18471,0:0:0:0:
288,160,18373,5,0,0:0:0:0:
416,160,18373,1,0,0:0:0:0:
288,160,18373,1,0,0:0:0:0:
384,288,18373,1,0,0:0:0:0:
384,288,18373,1,0,0:0:0:0:
384,128,18373,1,0,0:0:0:0:
288,224,18373,1,0,0:0:0:0:
288,224,18373,1,0,0:0:0:0:
288,224,18373,1,0,0:0:0:0:
288,160,18373,1,0,0:0:0:0:
160,128,18373,1,0,0:0:0:0:
160,128,18373,1,0,0:0:0:0:
352,128,18373,1,0,0:0:0:0:
320,224,18373,1,0,0:0:0:0:
320,224,18373,1,0,0:0:0:0:
320,224,18373,1,0,0:0:0:0:
192,128,18373,1,0,0:0:0:0:
352,256,18373,1,0,0:0:0:0:
256,192,18373,1,0,0:0:0:0:
256,192,18373,1,0,0:0:0:0:
256,192,18373,1,0,0:0:0:0:
256,192,18373,1,0,0:0:0:0:
256,192,18373,1,0,0:0:0:0:
256,192,18373,1,0,0:0:0:0:
352,256,18373,1,0,0:0:0:0:
256,192,18373,1,0,0:0:0:0:
256,192,18373,1,0,0:0:0:0:
256,192,18373,1,0,0:0:0:0:
352,256,18373,1,0,0:0:0:0:
320,160,18373,1,0,0:0:0:0:
224,128,18373,1,0,0:0:0:0:
256,192,18435,12,0,18653,0:0:0:0:
384,192,18435,5,0,0:0:0:0:
352,224,18435,1,0,0:0:0:0:
352,224,18435,1,0,0:0:0:0:
352,224,18435,1,0,0:0:0:0:
224,128,18435,1,0,0:0:0:0:
288,160,18435,1,0,0:0:0:0:
352,224,18435,1,0,0:0:0:0:
160,128,18435,1,0,0:0:0:0:
352,224,18435,1,0,0:0:0:0:
352,224,18435,1,0,0:0:0:0:
224,128,18435,1,0,0:0:0:0:
160,128,18435,1,0,0:0:0:0:
160,128,18435,1,0,0:0:0:0:
160,128,18435,1,0,0:0:0:0:
160,128,18435,1,0,0:0:0:0:
256,128,18435,1,0,0:0:0:0:
160,128,18435,1,0,0:0:0:0:
160,128,18435,1,0,0:0:0:0:
160,128,18435,1,0,0:0:0:0:
160,128,18435,1,0,0:0:0:0:
352,192,18435,1,0,0:0:0:0:
352,192,18435,1,0,0:0:0:0:
352,192,18435,1,0,0:0:0:0:
448,256,18435,1,0,0:0:0:0:
448,256,18435,1,0,0:0:0:0:
448,256,18435,1,0,0:0:0:0:
448,256,18435,1,0,0:0:0:0:
352,192,18435,1,0,0:0:0:0:
352,192,18435,1,0,0:0:0:0:
352,192,18435,1,0,0:0:0:0:
224,160,18435,1,0,0:0:0:0:
224,320,18435,1,0,0:0:0:0:
224,320,18435,1,0,0:0:0:0:
352,192,18435,1,0,0:0:0:0:
352,192,18435,1,0,0:0:0:0:
352,192,18435,1,0,0:0:0:0:
192,96,18435,1,0,0:0:0:0:
384,192,18435,1,0,0:0:0:0:
384,192,18435,1,0,0:0:0:0:
256,192,18435,1,0,0:0:0:0:
384,192,18435,1,0,0:0:0:0:
384,192,18435,1,0,0:0:0:0:
384,192,18498,1,0,0:0:0:0:
384,192,18498,1,0,0:0:0:0:
384,192,18498,1,0,0:0:0:0:
384,192,18498,1,0,0:0:0:0:
128,192,18498,1,0,0:0:0:0:
128,96,18498,1,0,0:0:0:0:
128,192,18498,1,0,0:0:0:0:
384,192,18498,1,0,0:0:0:0:
384,192,18498,1,0,0:0:0:0:
384,192,18498,1,0,0:0:0:0:
224,224,18498,1,0,0:0:0:0:
128,128,18498,1,0,0:0:0:0:
384,320,18498,1,0,0:0:0:0:
384,320,18498,1,0,0:0:0:0:
384,320,18498,1,0,0:0:0:0:
384,224,18498,1,0,0:0:0:0:
384,320,18498,1,0,0:0:0:0:
384,320,18498,1,0,0:0:0:0:
384,320,18498,1,0,0:0:0:0:
384,320,18498,1,0,0:0:0:0:
384,224,18498,1,0,0:0:0:0:
384,320,18498,1,0,0:0:0:0:
384,320,18498,1,0,0:0:0:0:
384,224,18498,1,0,0:0:0:0:
256,256,18498,1,0,0:0:0:0:
256,256,18498,1,0,0:0:0:0:
384,256,18498,1,0,0:0:0:0:
384,256,18498,1,0,0:0:0:0:
384,256,18498,1,0,0:0:0:0:
256,256,18498,1,0,0:0:0:0:
96,192,18560,1,0,0:0:0:0:
416,256,18560,1,0,0:0:0:0:
416,256,18560,1,0,0:0:0:0:
416,256,18560,1,0,0:0:0:0:
288,224,18560,1,0,0:0:0:0:
416,256,18560,1,0,0:0:0:0:
416,256,18560,1,0,0:0:0:0:
416,256,18560,1,0,0:0:0:0:
128,224,18560,1,0,0:0:0:0:
320,224,18560,1,0,0:0:0:0:
416,224,18560,1,0,0:0:0:0:
416,224,18560,1,0,0:0:0:0:
416,224,18560,1,0,0:0:0:0:
256,128,18560,1,0,0:0:0:0:
256,128,18560,1,0,0:0:0:0:
256,128,18560,1,0,0:0:0:0:
256,128,18560,1,0,0:0:0:0:
288,128,18560,1,0,0:0:0:0:
288,128,18560,1,0,0:0:0:0:
288,128,18560,1,0,0:0:0:0:
352,256,18560,1,0,0:0:0:0:
192,96,18560,1,0,0:0:0:0:
192,96,18560,1,0,0:0:0:0:
288,128,18560,1,0,0:0:0:0:
416,192,18560,1,0,0:0:0:0:
416,192,18560,1,0,0:0:0:0:
416,192,18560,1,0,0:0:0:0:
352,224,18560,1,0,0:0:0:0:
416,160,18560,1,0,0:0:0:0:
416,160,18560,1,0,0:0:0:0:
416,160,18560,1,0,0:0:0:0:
352,224,18560,1,0,0:0:0:0:
224,320,18623,1,0,0:0:0:0:
224,160,18623,1,0,0:0:0:0:
384,128,18623,1,0,0:0:0:0:
384,128,18623,1,0,0:0:0:0:
352,192,18623,1,0,0:0:0:0:
224,192,18623,1,0,0:0:0:0:
224,192,18623,1,0,0:0:0:0:
224,192,18623,1,0,0:0:0:0:
224,192,18623,1,0,0:0:0:0:
224,192,18623,1,0,0:0:0:0:
224,192,18623,1,0,0:0:0:0:
224,192,18623,1,0,0:0:0:0:
224,192,18623,1,0,0:0:0:0:
224,192,18623,1,0,0:0:0:0:
224,192,18623,1,0,0:0:0:0:
224,192,18623,1,0,0:0:0:0:
224,192,18623,1,0,0:0:0:0:
352,192,18623,1,0,0:0:0:0:
352,128,18623,1,0,0:0:0:0:
352,128,18623,1,0,0:0:0:0:
352,128,18623,1,0,0:0:0:0:
352,192,18623,1,0,0:0:0:0:
192,192,18623,1,0,0:0:0:0:
288,288,18623,1,0,0:0:0:0:
256,256,18623,1,0,0:0:0:0:
384,192,18623,1,0,0:0:0:0:
320,160,18623,1,0,0:0:0:0:
320,160,18623,1,0,0:0:0:0:
320,160,18623,1,0,0:0:0:0:
384,192,18623,1,0,0:0:0:0:
384,192,18623,1,0,0:0:0:0:
288,160,18623,1,0,0:0:0:0:
288,160,18623,1,0,0:0:0:0:
288,160,18623,1,0,0:0:0:0:
288,160,18685,5,0,0:0:0:0:
256,192,18685,12,0,19300,0:0:0:0:
288,96,18685,5,0,0:0:0:0:
384,192,18685,1,0,0:0:0:0:
288,160,18685,1,0,0:0:0:0:
288,160,18685,1,0,0:0:0:0:
288,160,18685,1,0,0:0:0:0:
288,160,18685,1,0,0:0:0:0:
288,160,18685,1,0,0:0:0:0:
384,224,18685,1,0,0:0:0:0:
288,160,18685,1,0,0:0:0:0:
288,160,18685,1,0,0:0:0:0:
288,160,18685,1,0,0:0:0:0:
128,192,18685,1,0,0:0:0:0:
128,192,18685,1,0,0:0:0:0:
128,192,18685,1,0,0:0:0:0:
128,192,18685,1,0,0:0:0:0:
224,96,18685,1,0,0:0:0:0:
288,128,18685,1,0,0:0:0:0:
288,128,18685,1,0,0:0:0:0:
288,128,18685,1,0,0:0:0:0:
64,256,18685,1,0,0:0:0:0:
64,256,18685,1,0,0:0:0:0:
64,256,18685,1,0,0:0:0:0:
384,256,18685,1,0,0:0:0:0:
64,256,18685,1,0,0:0:0:0:
288,96,18685,1,0,0:0:0:0:
288,96,18685,1,0,0:0:0:0:
416,256,18685,1,0,0:0:0:0:
64,320,18685,1,0,0:0:0:0:
416,256,18748,1,0,0:0:0:0:
256,96,18748,1,0,0:0:0:0:
256,96,18748,1,0,0:0:0:0:
256,96,18748,1,0,0:0:0:0:
224,192,18748,1,0,0:0:0:0:
448,256,18748,1,0,0:0:0:0:
448,256,18748,1,0,0:0:0:0:
448,256,18748,1,0,0:0:0:0:
448,256,18748,1,0,0:0:0:0:
448,256,18748,1,0,0:0:0:0:
448,256,18748,1,0,0:0:0:0:
448,256,18748,1,0,0:0:0:0:
448,256,18748,1,0,0:0:0:0:
448,256,18748,1,0,0:0:0:0:
448,256,18748,1,0,0:0:0:0:
448,256,18748,1,0,0:0:0:0:
448,256,18748,1,0,0:0:0:0:
416,224,18748,1,0,0:0:0:0:
224,96,18748,1,0,0:0:0:0:
224,96,18748,1,0,0:0:0:0:
224,96,18748,1,0,0:0:0:0:
416,192,18748,1,0,0:0:0:0:
192,96,18748,1,0,0:0:0:0:
192,96,18748,1,0,0:0:0:0:
192,96,18748,1,0,0:0:0:0:
416,160,18748,1,0,0:0:0:0:
160,96,18748,1,0,0:0:0:0:
160,96,18748,1,0,0:0:0:0:
160,96,18748,1,0,0:0:0:0:
128,192,18748,1,0,0:0:0:0:
384,128,18748,1,0,0:0:0:0:
128,96,18810,1,0,0:0:0:0:
128,96,18810,1,0,0:0:0:0:
128,96,18810,1,0,0:0:0:0:
352,128,18810,1,0,0:0:0:0:
128,128,18810,1,0,0:0:0:0:
128,128,18810,1,0,0:0:0:0:
128,128,18810,1,0,0:0:0:0:
320,288,18810,1,0,0:0:0:0:
320,288,18810,1,0,0:0:0:0:
320,288,18810,1,0,0:0:0:0:
320,288,18810,1,0,0:0:0:0:
256,192,18810,1,0,0:0:0:0:
256,192,18810,1,0,0:0:0:0:
256,192,18810,1,0,0:0:0:0:
256,192,18810,1,0,0:0:0:0:
96,160,18810,1,0,0:0:0:0:
96,160,18810,1,0,0:0:0:0:
96,160,18810,1,0,0:0:0:0:
320,160,18810,1,0,0:0:0:0:
128,160,18810,1,0,0:0:0:0:
384,288,18810,1,0,0:0:0:0:
288,160,18810,1,0,0:0:0:0:
96,192,18810,1,0,0:0:0:0:
96,192,18810,1,0,0:0:0:0:
96,192,18810,1,0,0:0:0:0:
288,160,18810,1,0,0:0:0:0:
192,192,18810,1,0,0:0:0:0:
288,160,18873,1,0,0:0:0:0:
128,224,18873,1,0,0:0:0:0:
128,224,18873,1,0,0:0:0:0:
128,224,18873,1,0,0:0:0:0:
288,160,18873,1,0,0:0:0:0:
256,128,18873,1,0,0:0:0:0:
256,128,18873,1,0,0:0:0:0:
256,128,18873,1,0,0:0:0:0:
256,128,18873,1,0,0:0:0:0:
256,128,18873,1,0,0:0:0:0:
256,128,18873,1,0,0:0:0:0:
256,128,18873,1,0,0:0:0:0:
256,128,18873,1,0,0:0:0:0:
256,128,18873,1,0,0:0:0:0:
256,128,18873,1,0,0:0:0:0:
256,128,18873,1,0,0:0:0:0:
256,128,18873,1,0,0:0:0:0:
288,128,18873,1,0,0:0:0:0:
288,128,18873,1,0,0:0:0:0:
160,256,18873,1,0,0:0:0:0:
160,256,18873,1,0,0:0:0:0:
160,256,18873,1,0,0:0:0:0:
288,96,18873,1,0,0:0:0:0:
192,288,18873,1,0,0:0:0:0:
192,288,18873,1,0,0:0:0:0:
192,288,18873,1,0,0:0:0:0:
160,128,18873,1,0,0:0:0:0:
160,128,18873,1,0,0:0:0:0:
256,96,18873,1,0,0:0:0:0:
224,320,18873,1,0,0:0:0:0:
224,320,18873,1,0,0:0:0:0:
224,320,18873,1,0,0:0:0:0:
160,128,18873,1,0,0:0:0:0:
384,320,18935,1,0,0:0:0:0:
384,320,18935,1,0,0:0:0:0:
384,320,18935,1,0,0:0:0:0:
384,320,18935,1,0,0:0:0:0:
224,96,18935,1,0,0:0:0:0:
256,320,18935,1,0,0:0:0:0:
256,320,18935,1,0,0:0:0:0:
256,320,18935,1,0,0:0:0:0:
160,128,18935,1,0,0:0:0:0:
192,128,18935,1,0,0:0:0:0:
160,128,18935,1,0,0:0:0:0:
160,128,18935,1,0,0:0:0:0:
192,96,18935,1,0,0:0:0:0:
160,224,18935,1,0,0:0:0:0:
288,288,18935,1,0,0:0:0:0:
288,288,18935,1,0,0:0:0:0:
288,288,18935,1,0,0:0:0:0:
224,128,18935,1,0,0:0:0:0:
256,256,18935,1,0,0:0:0:0:
256,256,18935,1,0,0:0:0:0:
256,256,18935,1,0,0:0:0:0:
224,128,18935,1,0,0:0:0:0:
160,96,18935,1,0,0:0:0:0:
224,128,18935,1,0,0:0:0:0:
192,96,18935,1,0,0:0:0:0:
128,96,18935,1,0,0:0:0:0:
384,192,18935,1,0,0:0:0:0:
224,160,18998,1,0,0:0:0:0:
128,128,18998,1,0,0:0:0:0:
128,192,18998,1,0,0:0:0:0:
128,192,18998,1,0,0:0:0:0:
128,192,18998,1,0,0:0:0:0:
128,192,18998,1,0,0:0:0:0:
128,192,18998,1,0,0:0:0:0:
128,192,18998,1,0,0:0:0:0:
128,192,18998,1,0,0:0:0:0:
128,192,18998,1,0,0:0:0:0:
128,192,18998,1,0,0:0:0:0:
128,192,18998,1,0,0:0:0:0:
128,192,18998,1,0,0:0:0:0:
128,192,18998,1,0,0:0:0:0:
96,160,18998,1,0,0:0:0:0:
256,192,18998,1,0,0:0:0:0:
96,192,18998,1,0,0:0:0:0:
224,224,18998,1,0,0:0:0:0:
224,192,18998,1,0,0:0:0:0:
224,192,18998,1,0,0:0:0:0:
224,192,18998,1,0,0:0:0:0:
128,224,18998,1,0,0:0:0:0:
224,192,18998,1,0,0:0:0:0:
256,256,19060,1,0,0:0:0:0:
192,96,19060,1,0,0:0:0:0:
256,256,19060,1,0,0:0:0:0:
160,256,19060,1,0,0:0:0:0:
224,96,19060,1,0,0:0:0:0:
256,256,19060,1,0,0:0:0:0:
128,160,19060,1,0,0:0:0:0:
384,288,19060,1,0,0:0:0:0:
384,288,19060,1,0,0:0:0:0:
384,288,19060,1,0,0:0:0:0:
384,288,19060,1,0,0:0:0:0:
288,224,19060,1,0,0:0:0:0:
224,320,19060,1,0,0:0:0:0:
224,160,19060,1,0,0:0:0:0:
320,224,19060,1,0,0:0:0:0:
256,320,19060,1,0,0:0:0:0:
320,288,19123,1,0,0:0:0:0:
320,288,19123,1,0,0:0:0:0:
320,288,19123,1,0,0:0:0:0:
320,288,19123,1,0,0:0:0:0:
320,288,19123,1,0,0:0:0:0:
320,288,19123,1,0,0:0:0:0:
320,288,19123,1,0,0:0:0:0:
320,288,19123,1,0,0:0:0:0:
320,288,19123,1,0,0:0:0:0:
320,288,19123,1,0,0:0:0:0:
320,288,19123,1,0,0:0:0:0:
320,288,19123,1,0,0:0:0:0:
352,256,19123,1,0,0:0:0:0:
256,192,19123,1,0,0:0:0:0:
128,160,19123,1,0,0:0:0:0:
288,288,19123,1,0,0:0:0:0:
352,224,19123,1,0,0:0:0:0:
256,256,19123,1,0,0:0:0:0:
352,224,19123,1,0,0:0:0:0:
352,192,19123,1,0,0:0:0:0:
352,192,19123,1,0,0:0:0:0:
448,256,19123,1,0,0:0:0:0:
448,256,19123,1,0,0:0:0:0:
448,256,19123,1,0,0:0:0:0:
352,192,19123,1,0,0:0:0:0:
384,192,19185,1,0,0:0:0:0:
384,192,19185,1,0,0:0:0:0:
384,192,19185,1,0,0:0:0:0:
64,320,19185,1,0,0:0:0:0:
384,192,19185,1,0,0:0:0:0:
128,192,19185,1,0,0:0:0:0:
384,224,19185,1,0,0:0:0:0:
384,192,19185,1,0,0:0:0:0:
160,128,19185,1,0,0:0:0:0:
160,128,19185,1,0,0:0:0:0:
160,128,19185,1,0,0:0:0:0:
160,128,19185,1,0,0:0:0:0:
160,128,19185,1,0,0:0:0:0:
160,128,19185,1,0,0:0:0:0:
160,128,19185,1,0,0:0:0:0:
160,128,19185,1,0,0:0:0:0:
160,128,19185,1,0,0:0:0:0:
160,128,19185,1,0,0:0:0:0:
160,128,19185,1,0,0:0:0:0:
160,128,19185,1,0,0:0:0:0:
384,256,19248,1,0,0:0:0:0:
384,160,19248,1,0,0:0:0:0:
416,256,19248,1,0,0:0:0:0:
416,256,19248,1,0,0:0:0:0:
192,96,19248,1,0,0:0:0:0:
192,96,19248,1,0,0:0:0:0:
192,96,19248,1,0,0:0:0:0:
416,224,19248,1,0,0:0:0:0:
256,128,19248,1,0,0:0:0:0:
256,128,19248,1,0,0:0:0:0:
256,128,19248,1,0,0:0:0:0:
256,128,19248,1,0,0:0:0:0:
416,192,19248,1,0,0:0:0:0:
288,128,19248,1,0,0:0:0:0:
224,192,19310,5,0,0:0:0:0:
416,160,19310,1,0,0:0:0:0:
384,128,19310,1,0,0:0:0:0:
192,192,19310,1,0,0:0:0:0:
352,128,19310,1,0,0:0:0:0:
192,192,19310,1,0,0:0:0:0:
128,160,19310,1,0,0:0:0:0:
320,160,19373,1,0,0:0:0:0:
384,288,19373,1,0,0:0:0:0:
384,288,19373,1,0,0:0:0:0:
384,288,19373,1,0,0:0:0:0:
384,288,19373,1,0,0:0:0:0:
384,288,19373,1,0,0:0:0:0:
384,288,19373,1,0,0:0:0:0:
384,288,19373,1,0,0:0:0:0:
384,288,19373,1,0,0:0:0:0:
384,288,19373,1,0,0:0:0:0:
384,288,19373,1,0,0:0:0:0:
384,288,19373,1,0,0:0:0:0:
384,288,19373,1,0,0:0:0:0:
288,160,19373,1,0,0:0:0:0:
288,160,19373,1,0,0:0:0:0:
288,160,19373,1,0,0:0:0:0:
288,160,19373,1,0,0:0:0:0:
128,192,19373,1,0,0:0:0:0:
128,192,19373,1,0,0:0:0:0:
128,192,19373,1,0,0:0:0:0:
128,192,19373,1,0,0:0:0:0:
224,96,19373,1,0,0:0:0:0:
288,128,19373,1,0,0:0:0:0:
64,256,19435,1,0,0:0:0:0:
288,96,19435,1,0,0:0:0:0:
256,96,19435,1,0,0:0:0:0:
448,256,19435,1,0,0:0:0:0:
224,192,19435,1,0,0:0:0:0:
224,96,19435,1,0,0:0:0:0:
224,320,19435,1,0,0:0:0:0:
224,320,19435,1,0,0:0:0:0:
224,320,19435,1,0,0:0:0:0:
224,320,19435,1,0,0:0:0:0:
192,96,19435,1,0,0:0:0:0:
384,160,19435,1,0,0:0:0:0:
160,96,19498,1,0,0:0:0:0:
128,96,19498,1,0,0:0:0:0:
128,192,19498,1,0,0:0:0:0:
128,192,19498,1,0,0:0:0:0:
128,192,19498,1,0,0:0:0:0:
128,192,19498,1,0,0:0:0:0:
128,128,19498,1,0,0:0:0:0:
320,288,19498,1,0,0:0:0:0:
320,288,19498,1,0,0:0:0:0:
320,288,19498,1,0,0:0:0:0:
320,288,19498,1,0,0:0:0:0:
96,160,19498,1,0,0:0:0:0:
96,192,19560,1,0,0:0:0:0:
224,160,19560,1,0,0:0:0:0:
128,224,19560,1,0,0:0:0:0:
256,128,19560,1,0,0:0:0:0:
192,192,19560,1,0,0:0:0:0:
192,192,19560,1,0,0:0:0:0:
192,96,19560,1,0,0:0:0:0:
192,96,19560,1,0,0:0:0:0:
192,96,19560,1,0,0:0:0:0:
192,96,19560,1,0,0:0:0:0:
160,256,19560,1,0,0:0:0:0:
288,128,19560,1,0,0:0:0:0:
288,128,19560,1,0,0:0:0:0:
288,128,19560,1,0,0:0:0:0:
288,128,19560,1,0,0:0:0:0:
288,128,19560,1,0,0:0:0:0:
288,128,19560,1,0,0:0:0:0:
288,128,19560,1,0,0:0:0:0:
288,128,19560,1,0,0:0:0:0:
288,128,19560,1,0,0:0:0:0:
288,128,19560,1,0,0:0:0:0:
288,128,19560,1,0,0:0:0:0:
288,128,19560,1,0,0:0:0:0:
64,192,19623,6,0,B|320:192|352:128,1,280
352,128,19623,6,0,B|352:288|288:224|256:224,5,160
160,128,19623,1,0,0:0:0:0:
160,128,19623,1,0,0:0:0:0:
160,128,19623,1,0,0:0:0:0:
160,128,19623,1,0,0:0:0:0:
160,128,19623,1,0,0:0:0:0:
160,128,19623,1,0,0:0:0:0:
160,128,19623,1,0,0:0:0:0:
160,128,19623,1,0,0:0:0:0:
384,320,19623,1,0,0:0:0:0:
224,96,19623,1,0,0:0:0:0:
160,128,19623,1,0,0:0:0:0:
192,128,19623,1,0,0:0:0:0:
160,128,19623,1,0,0:0:0:0:
192,128,19623,1,0,0:0:0:0:
224,96,19623,1,0,0:0:0:0:
192,128,19623,1,0,0:0:0:0:
160,224,19623,1,0,0:0:0:0:
224,128,19623,1,0,0:0:0:0:
224,128,19623,1,0,0:0:0:0:
224,128,19623,1,0,0:0:0:0:
224,128,19623,1,0,0:0:0:0:
224,128,19623,1,0,0:0:0:0:
224,128,19623,1,0,0:0:0:0:
224,128,19685,1,0,0:0:0:0:
224,128,19685,1,0,0:0:0:0:
224,128,19685,1,0,0:0:0:0:
128,192,19685,1,0,0:0:0:0:
224,192,19685,1,0,0:0:0:0:
224,192,19685,1,0,0:0:0:0:
224,160,19685,1,0,0:0:0:0:
224,160,19685,1,0,0:0:0:0:
224,160,19685,1,0,0:0:0:0:
256,192,19685,1,0,0:0:0:0:
256,192,19685,1,0,0:0:0:0:
256,192,19685,1,0,0:0:0:0:
64,256,19685,1,0,0:0:0:0:
64,256,19685,1,0,0:0:0:0:
64,256,19685,1,0,0:0:0:0:
64,256,19685,1,0,0:0:0:0:
64,256,19685,1,0,0:0:0:0:
64,256,19685,1,0,0:0:0:0:
64,256,19685,1,0,0:0:0:0:
64,256,19685,1,0,0:0:0:0:
64,256,19685,1,0,0:0:0:0:
64,256,19685,1,0,0:0:0:0:
64,256,19685,1,0,0:0:0:0:
64,256,19685,1,0,0:0:0:0:
128,192,19685,1,0,0:0:0:0:
64,320,19685,1,0,0:0:0:0:
64,320,19685,1,0,0:0:0:0:
64,320,19685,1,0,0:0:0:0:
64,320,19685,1,0,0:0:0:0:
224,224,19748,1,0,0:0:0:0:
224,224,19748,1,0,0:0:0:0:
224,224,19748,1,0,0:0:0:0:
224,192,19748,1,0,0:0:0:0:
256,256,19748,1,0,0:0:0:0:
256,256,19748,1,0,0:0:0:0:
256,256,19748,1,0,0:0:0:0:
256,256,19748,1,0,0:0:0:0:
256,256,19748,1,0,0:0:0:0:
128,160,19748,1,0,0:0:0:0:
256,256,19748,1,0,0:0:0:0:
256,256,19748,1,0,0:0:0:0:
256,256,19748,1,0,0:0:0:0:
256,256,19748,1,0,0:0:0:0:
384,288,19748,1,0,0:0:0:0:
384,288,19748,1,0,0:0:0:0:
384,288,19748,1,0,0:0:0:0:
384,288,19748,1,0,0:0:0:0:
288,224,19748,1,0,0:0:0:0:
288,224,19748,1,0,0:0:0:0:
192,192,19810,1,0,0:0:0:0:
224,160,19810,1,0,0:0:0:0:
320,224,19810,1,0,0:0:0:0:
320,224,19810,1,0,0:0:0:0:
320,224,19810,1,0,0:0:0:0:
288,128,19810,1,0,0:0:0:0:
352,256,19810,1,0,0:0:0:0:
352,256,19810,1,0,0:0:0:0:
352,256,19810,1,0,0:0:0:0:
256,192,19810,1,0,0:0:0:0:
256,192,19810,1,0,0:0:0:0:
256,192,19810,1,0,0:0:0:0:
256,192,19810,1,0,0:0:0:0:
256,192,19810,1,0,0:0:0:0:
256,192,19810,1,0,0:0:0:0:
256,192,19810,1,0,0:0:0:0:
256,192,19810,1,0,0:0:0:0:
256,192,19810,1,0,0:0:0:0:
256,192,19810,1,0,0:0:0:0:
256,192,19810,1,0,0:0:0:0:
256,192,19810,1,0,0:0:0:0:
352,224,19810,1,0,0:0:0:0:
352,224,19810,1,0,0:0:0:0:
352,224,19810,1,0,0:0:0:0:
352,224,19810,1,0,0:0:0:0:
352,224,19810,1,0,0:0:0:0:
160,128,19810,1,0,0:0:0:0:
352,224,19810,1,0,0:0:0:0:
224,160,19810,1,0,0:0:0:0:
160,128,19810,1,0,0:0:0:0:
160,128,19873,1,0,0:0:0:0:
352,192,19873,1,0,0:0:0:0:
352,192,19873,1,0,0:0:0:0:
352,192,19873,1,0,0:0:0:0:
352,192,19873,1,0,0:0:0:0:
448,256,19873,1,0,0:0:0:0:
352,192,19873,1,0,0:0:0:0:
192,128,19873,1,0,0:0:0:0:
352,192,19873,1,0,0:0:0:0:
352,192,19873,1,0,0:0:0:0:
160,224,19873,1,0,0:0:0:0:
224,128,19873,1,0,0:0:0:0:
384,192,19873,1,0,0:0:0:0:
160,224,19873,1,0,0:0:0:0:
384,192,19873,1,0,0:0:0:0:
384,192,19873,1,0,0:0:0:0:
224,128,19873,1,0,0:0:0:0:
64,256,19873,1,0,0:0:0:0:
384,192,19873,1,0,0:0:0:0:
224,128,19873,1,0,0:0:0:0:
384,192,19873,1,0,0:0:0:0:
384,192,19873,1,0,0:0:0:0:
384,192,19873,1,0,0:0:0:0:
384,192,19873,1,0,0:0:0:0:
384,192,19873,1,0,0:0:0:0:
384,192,19935,1,0,0:0:0:0:
384,224,19935,1,0,0:0:0:0:
224,160,19935,1,0,0:0:0:0:
384,224,19935,1,0,0:0:0:0:
160,128,19935,1,0,0:0:0:0:
384,320,19935,1,0,0:0:0:0:
384,320,19935,1,0,0:0:0:0:
384,320,19935,1,0,0:0:0:0:
384,320,19935,1,0,0:0:0:0:
384,320,19935,1,0,0:0:0:0:
384,320,19935,1,0,0:0:0:0:
384,320,19935,1,0,0:0:0:0:
384,320,19935,1,0,0:0:0:0:
384,320,19935,1,0,0:0:0:0:
384,320,19935,1,0,0:0:0:0:
384,320,19935,1,0,0:0:0:0:
384,320,19935,1,0,0:0:0:0:
256,192,19935,1,0,0:0:0:0:
384,256,19935,1,0,0:0:0:0:
384,256,19935,1,0,0:0:0:0:
416,224,19935,1,0,0:0:0:0:
416,256,19935,1,0,0:0:0:0:
416,256,19935,1,0,0:0:0:0:
416,256,19935,1,0,0:0:0:0:
416,256,19935,1,0,0:0:0:0:
224,224,19935,1,0,0:0:0:0:
416,256,19935,1,0,0:0:0:0:
192,96,19935,1,0,0:0:0:0:
416,224,19998,1,0,0:0:0:0:
416,224,19998,1,0,0:0:0:0:
416,224,19998,1,0,0:0:0:0:
256,256,19998,1,0,0:0:0:0:
256,128,19998,1,0,0:0:0:0:
416,192,19998,1,0,0:0:0:0:
256,256,19998,1,0,0:0:0:0:
224,96,19998,1,0,0:0:0:0:
256,256,19998,1,0,0:0:0:0:
256,192,19998,1,0,0:0:0:0:
128,160,19998,1,0,0:0:0:0:
416,160,19998,1,0,0:0:0:0:
416,160,19998,1,0,0:0:0:0:
416,160,19998,1,0,0:0:0:0:
192,256,19998,2,0,B|128:192|192:192|160:192|256:128|192:224|320:96|320:288|320:160,8,240
288,224,19998,1,0,0:0:0:0:
384,128,19998,1,0,0:0:0:0:
384,128,19998,1,0,0:0:0:0:
224,160,19998,1,0,0:0:0:0:
320,224,19998,1,0,0:0:0:0:
224,160,19998,1,0,0:0:0:0:
352,128,20060,1,0,0:0:0:0:
352,128,20060,1,0,0:0:0:0:
352,128,20060,1,0,0:0:0:0:
224,192,20060,1,0,0:0:0:0:
224,192,20060,1,0,0:0:0:0:
224,192,20060,1,0,0:0:0:0:
224,192,20060,1,0,0:0:0:0:
224,192,20060,1,0,0:0:0:0:
224,192,20060,1,0,0:0:0:0:
224,192,20060,1,0,0:0:0:0:
224,192,20060,1,0,0:0:0:0:
224,192,20060,1,0,0:0:0:0:
224,192,20060,1,0,0:0:0:0:
224,192,20060,1,0,0:0:0:0:
224,192,20060,1,0,0:0:0:0:
352,256,20060,1,0,0:0:0:0:
256,192,20060,1,0,0:0:0:0:
128,160,20060,1,0,0:0:0:0:
352,224,20060,1,0,0:0:0:0:
320,160,20060,1,0,0:0:0:0:
320,160,20060,1,0,0:0:0:0:
352,224,20060,1,0,0:0:0:0:
288,160,20060,1,0,0:0:0:0:
288,160,20060,1,0,0:0:0:0:
288,160,20060,1,0,0:0:0:0:
96,160,20060,2,0,B|-32:160|192:192,2,160
160,128,20060,1,0,0:0:0:0:
160,128,20060,1,0,0:0:0:0:
352,192,20060,1,0,0:0:0:0:
288,160,20060,1,0,0:0:0:0:
160,128,20060,1,0,0:0:0:0:
160,128,20060,1,0,0:0:0:0:
160,128,20060,1,0,0:0:0:0:
160,128,20060,1,0,0:0:0:0:
256,128,20060,1,0,0:0:0:0:
352,192,20060,1,0,0:0:0:0:
288,160,20060,1,0,0:0:0:0:
160,128,20060,1,0,0:0:0:0:
160,128,20060,1,0,0:0:0:0:
160,128,20060,1,0,0:0:0:0:
160,128,20060,1,0,0:0:0:0:
352,192,20060,1,0,0:0:0:0:
288,160,20123,1,0,0:0:0:0:
128,192,20123,1,0,0:0:0:0:
384,320,20123,1,0,0:0:0:0:
384,192,20123,1,0,0:0:0:0:
288,128,20123,1,0,0:0:0:0:
384,192,20123,1,0,0:0:0:0:
384,192,20123,1,0,0:0:0:0:
288,96,20123,1,0,0:0:0:0:
384,192,20123,1,0,0:0:0:0:
256,96,20123,1,0,0:0:0:0:
256,96,20123,1,0,0:0:0:0:
384,224,20123,1,0,0:0:0:0:
384,192,20123,1,0,0:0:0:0:
224,96,20123,1,0,0:0:0:0:
224,96,20123,1,0,0:0:0:0:
448,256,20185,1,0,0:0:0:0:
448,256,20185,1,0,0:0:0:0:
448,256,20185,1,0,0:0:0:0:
448,256,20185,1,0,0:0:0:0:
448,256,20185,1,0,0:0:0:0:
448,256,20185,1,0,0:0:0:0:
448,256,20185,1,0,0:0:0:0:
448,256,20185,1,0,0:0:0:0:
448,256,20185,1,0,0:0:0:0:
448,256,20185,1,0,0:0:0:0:
448,256,20185,1,0,0:0:0:0:
448,256,20185,1,0,0:0:0:0:
384,256,20185,1,0,0:0:0:0:
192,96,20185,1,0,0:0:0:0:
384,160,20185,1,0,0:0:0:0:
416,256,20185,1,0,0:0:0:0:
160,96,20185,1,0,0:0:0:0:
416,256,20185,1,0,0:0:0:0:
128,96,20185,1,0,0:0:0:0:
128,192,20185,1,0,0:0:0:0:
128,96,20185,1,0,0:0:0:0:
416,224,20185,1,0,0:0:0:0:
128,128,20185,1,0,0:0:0:0:
224,192,20185,1,0,0:0:0:0:
128,128,20185,1,0,0:0:0:0:
416,192,20248,1,0,0:0:0:0:
320,288,20248,1,0,0:0:0:0:
96,160,20248,1,0,0:0:0:0:
96,160,20248,1,0,0:0:0:0:
416,160,20248,1,0,0:0:0:0:
128,160,20248,1,0,0:0:0:0:
384,128,20248,1,0,0:0:0:0:
96,192,20248,1,0,0:0:0:0:
224,192,20248,1,0,0:0:0:0:
192,192,20248,1,0,0:0:0:0:
352,128,20248,1,0,0:0:0:0:
128,224,20248,1,0,0:0:0:0:
192,192,20248,1,0,0:0:0:0:
192,192,20248,1,0,0:0:0:0:
192,192,20248,1,0,0:0:0:0:
192,96,20248,1,0,0:0:0:0:
128,160,20310,1,0,0:0:0:0:
256,128,20310,1,0,0:0:0:0:
256,128,20310,1,0,0:0:0:0:
256,128,20310,1,0,0:0:0:0:
256,128,20310,1,0,0:0:0:0:
256,128,20310,1,0,0:0:0:0:
256,128,20310,1,0,0:0:0:0:
256,128,20310,1,0,0:0:0:0:
256,128,20310,1,0,0:0:0:0:
256,128,20310,1,0,0:0:0:0:
256,128,20310,1,0,0:0:0:0:
256,128,20310,1,0,0:0:0:0:
256,128,20310,1,0,0:0:0:0:
160,256,20310,1,0,0:0:0:0:
320,160,20310,1,0,0:0:0:0:
160,256,20310,1,0,0:0:0:0:
288,160,20310,1,0,0:0:0:0:
288,160,20310,1,0,0:0:0:0:
288,160,20310,1,0,0:0:0:0:
288,160,20310,1,0,0:0:0:0:
448,256,20310,1,0,0:0:0:0:
224,96,20310,1,0,0:0:0:0:
288,128,20310,1,0,0:0:0:0:
256,256,20373,1,0,0:0:0:0:
288,96,20373,1,0,0:0:0:0:
256,96,20373,1,0,0:0:0:0:
448,256,20373,1,0,0:0:0:0:
224,192,20373,1,0,0:0:0:0:
224,96,20373,1,0,0:0:0:0:
384,192,20373,1,0,0:0:0:0:
192,96,20373,1,0,0:0:0:0:
128,192,20373,1,0,0:0:0:0:
128,192,20373,1,0,0:0:0:0:
128,192,20373,1,0,0:0:0:0:
128,192,20373,1,0,0:0:0:0:
128,192,20373,1,0,0:0:0:0:
128,192,20373,1,0,0:0:0:0:
128,192,20373,1,0,0:0:0:0:
128,192,20373,1,0,0:0:0:0:
128,192,20373,1,0,0:0:0:0:
128,192,20373,1,0,0:0:0:0:
128,192,20373,1,0,0:0:0:0:
128,192,20373,1,0,0:0:0:0:
384,160,20435,1,0,0:0:0:0:
160,96,20435,1,0,0:0:0:0:
128,96,20435,1,0,0:0:0:0:
128,128,20435,1,0,0:0:0:0:
96,160,20435,1,0,0:0:0:0:
256,128,20435,1,0,0:0:0:0:
96,192,20498,1,0,0:0:0:0:
384,288,20498,1,0,0:0:0:0:
288,224,20498,1,0,0:0:0:0:
288,224,20498,1,0,0:0:0:0:
288,224,20498,1,0,0:0:0:0:
128,224,20498,1,0,0:0:0:0:
256,128,20498,1,0,0:0:0:0:
320,224,20498,1,0,0:0:0:0:
320,224,20498,1,0,0:0:0:0:
320,224,20498,1,0,0:0:0:0:
192,192,20498,1,0,0:0:0:0:
160,256,20498,1,0,0:0:0:0:
128,160,20498,1,0,0:0:0:0:
320,288,20498,1,0,0:0:0:0:
320,288,20498,1,0,0:0:0:0:
320,288,20498,1,0,0:0:0:0:
320,288,20498,1,0,0:0:0:0:
352,256,20498,1,0,0:0:0:0:
320,288,20498,1,0,0:0:0:0:
320,288,20498,1,0,0:0:0:0:
352,256,20498,1,0,0:0:0:0:
320,288,20498,1,0,0:0:0:0:
320,288,20498,1,0,0:0:0:0:
320,288,20498,1,0,0:0:0:0:
352,256,20498,1,0,0:0:0:0:
256,192,20498,1,0,0:0:0:0:
256,192,20498,1,0,0:0:0:0:
352,224,20560,1,0,0:0:0:0:
352,224,20560,1,0,0:0:0:0:
352,224,20560,1,0,0:0:0:0:
160,128,20560,1,0,0:0:0:0:
352,224,20560,1,0,0:0:0:0:
352,224,20560,1,0,0:0:0:0:
352,224,20560,1,0,0:0:0:0:
160,128,20560,1,0,0:0:0:0:
160,128,20560,1,0,0:0:0:0:
160,128,20560,1,0,0:0:0:0:
160,128,20560,1,0,0:0:0:0:
352,192,20560,1,0,0:0:0:0:
352,192,20560,1,0,0:0:0:0:
352,192,20560,1,0,0:0:0:0:
352,192,20560,1,0,0:0:0:0:
352,192,20560,1,0,0:0:0:0:
352,192,20560,1,0,0:0:0:0:
192,128,20560,1,0,0:0:0:0:
192,128,20560,1,0,0:0:0:0:
224,96,20560,1,0,0:0:0:0:
352,192,20560,1,0,0:0:0:0:
352,192,20560,1,0,0:0:0:0:
352,192,20560,1,0,0:0:0:0:
128,192,20560,1,0,0:0:0:0:
160,224,20560,1,0,0:0:0:0:
224,128,20560,1,0,0:0:0:0:
224,128,20560,1,0,0:0:0:0:
384,192,20560,1,0,0:0:0:0:
384,192,20560,1,0,0:0:0:0:
384,192,20560,1,0,0:0:0:0:
224,128,20623,1,0,0:0:0:0:
224,128,20623,1,0,0:0:0:0:
384,192,20623,1,0,0:0:0:0:
384,192,20623,1,0,0:0:0:0:
384,192,20623,1,0,0:0:0:0:
224,128,20623,1,0,0:0:0:0:
224,128,20623,1,0,0:0:0:0:
384,192,20623,1,0,0:0:0:0:
384,192,20623,1,0,0:0:0:0:
384,192,20623,1,0,0:0:0:0:
384,192,20623,1,0,0:0:0:0:
384,192,20623,1,0,0:0:0:0:
384,192,20623,1,0,0:0:0:0:
224,192,20623,1,0,0:0:0:0:
224,160,20623,1,0,0:0:0:0:
224,160,20623,1,0,0:0:0:0:
384,224,20623,1,0,0:0:0:0:
384,224,20623,1,0,0:0:0:0:
384,224,20623,1,0,0:0:0:0:
160,128,20623,1,0,0:0:0:0:
160,128,20623,1,0,0:0:0:0:
160,128,20623,1,0,0:0:0:0:
160,128,20623,1,0,0:0:0:0:
160,128,20623,1,0,0:0:0:0:
160,128,20623,1,0,0:0:0:0:
160,128,20623,1,0,0:0:0:0:
160,128,20623,1,0,0:0:0:0:
160,128,20623,1,0,0:0:0:0:
160,128,20623,1,0,0:0:0:0:
160,128,20623,1,0,0:0:0:0:
160,128,20623,1,0,0:0:0:0:
256,192,20623,1,0,0:0:0:0:
256,192,20623,1,0,0:0:0:0:
384,160,20623,1,0,0:0:0:0:
384,256,20623,1,0,0:0:0:0:
384,256,20623,1,0,0:0:0:0:
384,256,20623,1,0,0:0:0:0:
416,256,20685,1,0,0:0:0:0:
416,256,20685,1,0,0:0:0:0:
416,256,20685,1,0,0:0:0:0:
224,224,20685,1,0,0:0:0:0:
224,224,20685,1,0,0:0:0:0:
416,256,20685,1,0,0:0:0:0:
416,256,20685,1,0,0:0:0:0:
416,256,20685,1,0,0:0:0:0:
192,96,20685,1,0,0:0:0:0:
192,96,20685,1,0,0:0:0:0:
416,224,20685,1,0,0:0:0:0:
416,224,20685,1,0,0:0:0:0:
416,224,20685,1,0,0:0:0:0:
256,256,20685,1,0,0:0:0:0:
256,256,20685,1,0,0:0:0:0:
256,256,20685,1,0,0:0:0:0:
256,256,20685,1,0,0:0:0:0:
224,96,20685,1,0,0:0:0:0:
416,192,20685,1,0,0:0:0:0:
416,192,20685,1,0,0:0:0:0:
416,192,20685,1,0,0:0:0:0:
256,256,20685,1,0,0:0:0:0:
256,256,20685,1,0,0:0:0:0:
416,160,20685,1,0,0:0:0:0:
416,160,20685,1,0,0:0:0:0:
416,160,20748,1,0,0:0:0:0:
288,224,20748,1,0,0:0:0:0:
288,224,20748,1,0,0:0:0:0:
224,160,20748,1,0,0:0:0:0:
384,128,20748,1,0,0:0:0:0:
384,128,20748,1,0,0:0:0:0:
384,128,20748,1,0,0:0:0:0:
320,224,20748,1,0,0:0:0:0:
320,224,20748,1,0,0:0:0:0:
224,192,20748,1,0,0:0:0:0:
224,192,20748,1,0,0:0:0:0:
352,128,20748,1,0,0:0:0:0:
352,128,20748,1,0,0:0:0:0:
352,128,20748,1,0,0:0:0:0:
352,256,20748,1,0,0:0:0:0:
352,256,20748,1,0,0:0:0:0:
192,192,20748,1,0,0:0:0:0:
352,224,20748,1,0,0:0:0:0:
352,224,20748,1,0,0:0:0:0:
320,160,20748,1,0,0:0:0:0:
320,160,20748,1,0,0:0:0:0:
320,160,20748,1,0,0:0:0:0:
352,224,20748,1,0,0:0:0:0:
352,224,20748,1,0,0:0:0:0:
384,288,20810,1,0,0:0:0:0:
288,160,20810,1,0,0:0:0:0:
384,288,20810,1,0,0:0:0:0:
384,288,20810,1,0,0:0:0:0:
384,288,20810,1,0,0:0:0:0:
384,288,20810,1,0,0:0:0:0:
384,288,20810,1,0,0:0:0:0:
384,288,20810,1,0,0:0:0:0:
384,288,20810,1,0,0:0:0:0:
288,160,20810,1,0,0:0:0:0:
384,288,20810,1,0,0:0:0:0:
288,160,20810,1,0,0:0:0:0:
352,192,20810,1,0,0:0:0:0:
352,192,20810,1,0,0:0:0:0:
288,160,20810,1,0,0:0:0:0:
288,160,20810,1,0,0:0:0:0:
288,160,20810,1,0,0:0:0:0:
352,192,20810,1,0,0:0:0:0:
352,192,20810,1,0,0:0:0:0:
288,160,20810,1,0,0:0:0:0:
288,160,20810,1,0,0:0:0:0:
288,160,20810,1,0,0:0:0:0:
352,192,20810,1,0,0:0:0:0:
352,192,20810,1,0,0:0:0:0:
288,160,20810,1,0,0:0:0:0:
288,160,20810,1,0,0:0:0:0:
288,160,20810,1,0,0:0:0:0:
224,96,20810,1,0,0:0:0:0:
384,192,20810,1,0,0:0:0:0:
160,128,20810,1,0,0:0:0:0:
384,192,20810,1,0,0:0:0:0:
160,224,20810,1,0,0:0:0:0:
288,128,20810,1,0,0:0:0:0:
288,128,20810,1,0,0:0:0:0:
288,128,20810,1,0,0:0:0:0:
384,192,20810,1,0,0:0:0:0:
384,192,20810,1,0,0:0:0:0:
384,192,20810,1,0,0:0:0:0:
384,192,20810,1,0,0:0:0:0:
288,96,20810,1,0,0:0:0:0:
288,96,20810,1,0,0:0:0:0:
288,96,20810,1,0,0:0:0:0:
384,192,20810,1,0,0:0:0:0:
64,320,20810,1,0,0:0:0:0:
384,192,20810,1,0,0:0:0:0:
256,96,20873,1,0,0:0:0:0:
256,96,20873,1,0,0:0:0:0:
256,96,20873,1,0,0:0:0:0:
384,224,20873,1,0,0:0:0:0:
384,224,20873,1,0,0:0:0:0:
224,192,20873,1,0,0:0:0:0:
448,256,20873,1,0,0:0:0:0:
448,256,20873,1,0,0:0:0:0:
160,128,20873,1,0,0:0:0:0:
224,96,20873,1,0,0:0:0:0:
224,96,20873,1,0,0:0:0:0:
224,96,20873,1,0,0:0:0:0:
224,320,20873,1,0,0:0:0:0:
224,320,20873,1,0,0:0:0:0:
224,320,20873,1,0,0:0:0:0:
224,320,20873,1,0,0:0:0:0:
384,256,20873,1,0,0:0:0:0:
384,256,20873,1,0,0:0:0:0:
192,96,20873,1,0,0:0:0:0:
192,96,20873,1,0,0:0:0:0:
192,96,20873,1,0,0:0:0:0:
416,256,20873,1,0,0:0:0:0:
416,256,20873,1,0,0:0:0:0:
160,96,20873,1,0,0:0:0:0:
160,96,20873,1,0,0:0:0:0:
160,96,20873,1,0,0:0:0:0:
416,256,20873,1,0,0:0:0:0:
416,256,20873,1,0,0:0:0:0:
128,192,20935,1,0,0:0:0:0:
192,96,20935,1,0,0:0:0:0:
128,192,20935,1,0,0:0:0:0:
319,165,20935,2,0,B|352:256|96:256|320:160|192:288|288:128|160:192|352:96|128:224|288:96,7,240
128,96,20935,1,0,0:0:0:0:
128,96,20935,1,0,0:0:0:0:
128,96,20935,1,0,0:0:0:0:
416,224,20935,1,0,0:0:0:0:
416,224,20935,1,0,0:0:0:0:
128,128,20935,1,0,0:0:0:0:
128,128,20935,1,0,0:0:0:0:
128,128,20935,1,0,0:0:0:0:
416,192,20935,1,0,0:0:0:0:
416,192,20935,1,0,0:0:0:0:
224,96,20935,1,0,0:0:0:0:
96,160,20935,1,0,0:0:0:0:
96,160,20935,1,0,0:0:0:0:
96,160,20935,1,0,0:0:0:0:
416,160,20935,1,0,0:0:0:0:
416,160,20935,1,0,0:0:0:0:
384,128,20935,1,0,0:0:0:0:
384,128,20935,1,0,0:0:0:0:
384,288,20935,1,0,0:0:0:0:
96,192,20935,1,0,0:0:0:0:
96,192,20935,1,0,0:0:0:0:
96,192,20935,1,0,0:0:0:0:
224,160,20998,1,0,0:0:0:0:
352,128,20998,1,0,0:0:0:0:
352,128,20998,1,0,0:0:0:0:
128,224,20998,1,0,0:0:0:0:
128,224,20998,1,0,0:0:0:0:
128,224,20998,1,0,0:0:0:0:
256,128,20998,1,0,0:0:0:0:
256,128,20998,1,0,0:0:0:0:
288,128,20998,1,0,0:0:0:0:
288,128,20998,1,0,0:0:0:0:
320,160,20998,1,0,0:0:0:0:
288,128,20998,1,0,0:0:0:0:
288,128,20998,1,0,0:0:0:0:
320,160,20998,1,0,0:0:0:0:
192,96,20998,1,0,0:0:0:0:
160,256,20998,1,0,0:0:0:0:
192,96,20998,1,0,0:0:0:0:
160,256,20998,1,0,0:0:0:0:
160,256,20998,1,0,0:0:0:0:
288,160,20998,1,0,0:0:0:0:
288,160,20998,1,0,0:0:0:0:
96,160,20998,2,0,B|-32:160|192:192,2,160
192,288,20998,1,0,0:0:0:0:
192,288,20998,1,0,0:0:0:0:
192,288,20998,1,0,0:0:0:0:
288,160,20998,1,0,0:0:0:0:
288,160,20998,1,0,0:0:0:0:
288,160,20998,1,0,0:0:0:0:
288,160,20998,1,0,0:0:0:0:
224,320,21060,1,0,0:0:0:0:
224,320,21060,1,0,0:0:0:0:
224,320,21060,1,0,0:0:0:0:
288,160,21060,1,0,0:0:0:0:
288,160,21060,1,0,0:0:0:0:
160,128,21060,1,0,0:0:0:0:
160,128,21060,1,0,0:0:0:0:
256,320,21060,1,0,0:0:0:0:
256,320,21060,1,0,0:0:0:0:
256,320,21060,1,0,0:0:0:0:
288,128,21060,1,0,0:0:0:0:
224,320,21060,1,0,0:0:0:0:
288,128,21060,1,0,0:0:0:0:
192,128,21060,1,0,0:0:0:0:
160,224,21060,1,0,0:0:0:0:
288,288,21060,1,0,0:0:0:0:
288,288,21060,1,0,0:0:0:0:
288,288,21060,1,0,0:0:0:0:
288,96,21060,1,0,0:0:0:0:
288,96,21060,1,0,0:0:0:0:
256,256,21060,1,0,0:0:0:0:
256,256,21060,1,0,0:0:0:0:
256,256,21060,1,0,0:0:0:0:
224,128,21060,1,0,0:0:0:0:
256,96,21060,1,0,0:0:0:0:
256,96,21060,1,0,0:0:0:0:
224,128,21060,1,0,0:0:0:0:
224,128,21060,1,0,0:0:0:0:
224,96,21123,1,0,0:0:0:0:
224,96,21123,1,0,0:0:0:0:
128,192,21123,1,0,0:0:0:0:
192,96,21123,1,0,0:0:0:0:
128,192,21123,1,0,0:0:0:0:
192,96,21123,1,0,0:0:0:0:
224,160,21123,1,0,0:0:0:0:
160,96,21123,1,0,0:0:0:0:
160,96,21123,1,0,0:0:0:0:
256,192,21123,1,0,0:0:0:0:
128,96,21123,1,0,0:0:0:0:
128,192,21123,1,0,0:0:0:0:
128,96,21123,1,0,0:0:0:0:
64,320,21123,1,0,0:0:0:0:
64,320,21123,1,0,0:0:0:0:
64,320,21123,1,0,0:0:0:0:
64,320,21123,1,0,0:0:0:0:
128,128,21123,1,0,0:0:0:0:
128,128,21123,1,0,0:0:0:0:
224,224,21185,1,0,0:0:0:0:
96,160,21185,1,0,0:0:0:0:
96,160,21185,1,0,0:0:0:0:
192,96,21185,1,0,0:0:0:0:
128,160,21185,1,0,0:0:0:0:
224,96,21185,1,0,0:0:0:0:
256,256,21185,1,0,0:0:0:0:
256,256,21185,1,0,0:0:0:0:
96,192,21185,1,0,0:0:0:0:
96,192,21185,1,0,0:0:0:0:
256,256,21185,1,0,0:0:0:0:
160,128,21185,1,0,0:0:0:0:
128,224,21185,1,0,0:0:0:0:
128,224,21185,1,0,0:0:0:0:
192,192,21185,1,0,0:0:0:0:
160,128,21185,1,0,0:0:0:0:
192,192,21185,1,0,0:0:0:0:
224,160,21185,1,0,0:0:0:0:
288,224,21185,1,0,0:0:0:0:
160,128,21185,1,0,0:0:0:0:
192,96,21248,1,0,0:0:0:0:
320,224,21248,1,0,0:0:0:0:
160,256,21248,1,0,0:0:0:0:
288,128,21248,1,0,0:0:0:0:
192,128,21248,1,0,0:0:0:0:
160,256,21248,1,0,0:0:0:0:
256,192,21248,1,0,0:0:0:0:
256,192,21248,1,0,0:0:0:0:
256,192,21248,1,0,0:0:0:0:
256,192,21248,1,0,0:0:0:0:
352,256,21248,1,0,0:0:0:0:
224,128,21248,1,0,0:0:0:0:
224,128,21248,1,0,0:0:0:0:
352,224,21248,1,0,0:0:0:0:
224,128,21248,1,0,0:0:0:0:
96,160,21248,2,0,B|-32:160|192:192,2,160
352,224,21248,1,0,0:0:0:0:
224,160,21248,1,0,0:0:0:0:
352,192,21248,1,0,0:0:0:0:
224,160,21310,1,0,0:0:0:0:
352,192,21310,1,0,0:0:0:0:
352,192,21310,1,0,0:0:0:0:
256,256,21310,1,0,0:0:0:0:
256,256,21310,1,0,0:0:0:0:
256,192,21310,1,0,0:0:0:0:
384,192,21310,1,0,0:0:0:0:
384,192,21310,1,0,0:0:0:0:
64,320,21310,1,0,0:0:0:0:
384,192,21310,1,0,0:0:0:0:
224,224,21310,1,0,0:0:0:0:
384,192,21310,1,0,0:0:0:0:
384,192,21310,1,0,0:0:0:0:
384,224,21373,1,0,0:0:0:0:
160,128,21373,1,0,0:0:0:0:
160,128,21373,1,0,0:0:0:0:
256,256,21373,1,0,0:0:0:0:
256,256,21373,1,0,0:0:0:0:
256,256,21373,1,0,0:0:0:0:
384,256,21373,1,0,0:0:0:0:
416,224,21373,1,0,0:0:0:0:
288,224,21373,1,0,0:0:0:0:
416,256,21373,1,0,0:0:0:0:
416,256,21373,1,0,0:0:0:0:
192,96,21373,1,0,0:0:0:0:
192,96,21373,1,0,0:0:0:0:
192,96,21373,1,0,0:0:0:0:
320,224,21373,1,0,0:0:0:0:
416,224,21373,1,0,0:0:0:0:
352,256,21435,1,0,0:0:0:0:
416,192,21435,1,0,0:0:0:0:
352,224,21435,1,0,0:0:0:0:
128,160,21435,1,0,0:0:0:0:
352,224,21435,1,0,0:0:0:0:
416,160,21435,1,0,0:0:0:0:
160,128,21435,1,0,0:0:0:0:
352,192,21435,1,0,0:0:0:0:
192,192,21435,1,0,0:0:0:0:
384,128,21435,1,0,0:0:0:0:
224,192,21435,1,0,0:0:0:0:
224,192,21435,1,0,0:0:0:0:
224,192,21435,1,0,0:0:0:0:
224,192,21435,1,0,0:0:0:0:
352,192,21435,1,0,0:0:0:0:
352,192,21435,1,0,0:0:0:0:
352,128,21435,1,0,0:0:0:0:
128,160,21435,1,0,0:0:0:0:
256,192,21435,1,0,0:0:0:0:
256,192,21435,1,0,0:0:0:0:
192,128,21498,1,0,0:0:0:0:
384,192,21498,1,0,0:0:0:0:
384,192,21498,1,0,0:0:0:0:
320,160,21498,1,0,0:0:0:0:
384,192,21498,1,0,0:0:0:0:
384,192,21498,1,0,0:0:0:0:
288,160,21498,1,0,0:0:0:0:
160,128,21498,1,0,0:0:0:0:
160,128,21498,1,0,0:0:0:0:
160,128,21498,1,0,0:0:0:0:
160,128,21498,1,0,0:0:0:0:
160,128,21498,1,0,0:0:0:0:
160,128,21498,1,0,0:0:0:0:
256,128,21498,1,0,0:0:0:0:
384,224,21498,1,0,0:0:0:0:
160,128,21498,1,0,0:0:0:0:
160,128,21498,1,0,0:0:0:0:
160,128,21498,1,0,0:0:0:0:
160,128,21498,1,0,0:0:0:0:
224,160,21498,1,0,0:0:0:0:
384,256,21560,1,0,0:0:0:0:
256,192,21560,1,0,0:0:0:0:
416,256,21560,1,0,0:0:0:0:
416,256,21560,1,0,0:0:0:0:
224,224,21560,1,0,0:0:0:0:
448,256,21560,1,0,0:0:0:0:
448,256,21560,1,0,0:0:0:0:
448,256,21560,1,0,0:0:0:0:
448,256,21560,1,0,0:0:0:0:
416,224,21560,1,0,0:0:0:0:
384,192,21560,1,0,0:0:0:0:
416,192,21560,1,0,0:0:0:0:
384,160,21560,1,0,0:0:0:0:
256,256,21623,1,0,0:0:0:0:
416,160,21623,1,0,0:0:0:0:
192,96,21623,1,0,0:0:0:0:
384,128,21623,1,0,0:0:0:0:
192,96,21623,1,0,0:0:0:0:
128,192,21623,1,0,0:0:0:0:
128,192,21623,1,0,0:0:0:0:
128,192,21623,1,0,0:0:0:0:
128,192,21623,1,0,0:0:0:0:
352,128,21623,1,0,0:0:0:0:
352,256,21623,1,0,0:0:0:0:
320,160,21685,1,0,0:0:0:0:
352,224,21685,1,0,0:0:0:0:
288,160,21685,1,0,0:0:0:0:
288,160,21685,1,0,0:0:0:0:
224,192,21685,1,0,0:0:0:0:
224,192,21685,1,0,0:0:0:0:
288,160,21685,1,0,0:0:0:0:
352,192,21685,1,0,0:0:0:0:
288,160,21685,1,0,0:0:0:0:
192,192,21685,1,0,0:0:0:0:
288,96,21685,2,0,B|192:192,3,120
256,128,21685,1,0,0:0:0:0:
256,128,21685,1,0,0:0:0:0:
256,128,21685,1,0,0:0:0:0:
256,128,21685,1,0,0:0:0:0:
352,192,21685,1,0,0:0:0:0:
192,96,21685,1,0,0:0:0:0:
192,96,21685,1,0,0:0:0:0:
128,160,21685,1,0,0:0:0:0:
288,128,21685,1,0,0:0:0:0:
288,128,21685,1,0,0:0:0:0:
288,128,21685,1,0,0:0:0:0:
288,128,21685,1,0,0:0:0:0:
288,128,21685,1,0,0:0:0:0:
288,128,21685,1,0,0:0:0:0:
288,128,21685,1,0,0:0:0:0:
288,128,21685,1,0,0:0:0:0:
288,128,21685,1,0,0:0:0:0:
288,128,21685,1,0,0:0:0:0:
288,128,21685,1,0,0:0:0:0:
288,128,21685,1,0,0:0:0:0:
288,128,21685,1,0,0:0:0:0:
384,192,21685,1,0,0:0:0:0:
384,192,21748,1,0,0:0:0:0:
288,96,21748,1,0,0:0:0:0:
384,192,21748,1,0,0:0:0:0:
160,128,21748,1,0,0:0:0:0:
160,128,21748,1,0,0:0:0:0:
384,192,21748,1,0,0:0:0:0:
256,96,21748,1,0,0:0:0:0:
384,224,21748,1,0,0:0:0:0:
224,96,21748,1,0,0:0:0:0:
224,96,21748,1,0,0:0:0:0:
192,96,21748,1,0,0:0:0:0:
384,256,21748,1,0,0:0:0:0:
160,96,21810,1,0,0:0:0:0:
416,256,21810,1,0,0:0:0:0:
416,256,21810,1,0,0:0:0:0:
128,96,21810,1,0,0:0:0:0:
224,192,21810,1,0,0:0:0:0:
448,256,21810,1,0,0:0:0:0:
448,256,21810,1,0,0:0:0:0:
416,224,21810,1,0,0:0:0:0:
128,128,21810,1,0,0:0:0:0:
416,192,21810,1,0,0:0:0:0:
96,160,21810,1,0,0:0:0:0:
64,256,21810,1,0,0:0:0:0:
64,256,21810,1,0,0:0:0:0:
64,256,21810,1,0,0:0:0:0:
64,256,21810,1,0,0:0:0:0:
64,256,21810,1,0,0:0:0:0:
64,256,21810,1,0,0:0:0:0:
64,256,21810,1,0,0:0:0:0:
64,256,21810,1,0,0:0:0:0:
64,256,21810,1,0,0:0:0:0:
64,256,21810,1,0,0:0:0:0:
64,256,21810,1,0,0:0:0:0:
64,256,21810,1,0,0:0:0:0:
416,160,21810,1,0,0:0:0:0:
96,320,21873,2,0,B|192:192|96:288,1,120
128,192,21873,1,0,0:0:0:0:
96,192,21873,1,0,0:0:0:0:
128,192,21873,1,0,0:0:0:0:
384,128,21873,1,0,0:0:0:0:
128,224,21873,1,0,0:0:0:0:
352,128,21873,1,0,0:0:0:0:
104,280,21873,2,0,B|288:192|288:160,2,200
160,256,21873,1,0,0:0:0:0:
320,160,21873,1,0,0:0:0:0:
192,288,21873,1,0,0:0:0:0:
288,160,21935,1,0,0:0:0:0:
224,320,21935,1,0,0:0:0:0:
288,160,21935,1,0,0:0:0:0:
288,160,21935,1,0,0:0:0:0:
256,128,21935,1,0,0:0:0:0:
256,128,21935,1,0,0:0:0:0:
288,160,21935,1,0,0:0:0:0:
256,320,21935,1,0,0:0:0:0:
288,128,21935,1,0,0:0:0:0:
288,128,21935,1,0,0:0:0:0:
288,128,21935,1,0,0:0:0:0:
288,128,21935,1,0,0:0:0:0:
288,128,21935,1,0,0:0:0:0:
288,288,21935,1,0,0:0:0:0:
256,192,21935,1,0,0:0:0:0:
256,192,21935,1,0,0:0:0:0:
256,192,21935,1,0,0:0:0:0:
256,192,21935,1,0,0:0:0:0:
256,192,21935,1,0,0:0:0:0:
256,192,21935,1,0,0:0:0:0:
256,192,21935,1,0,0:0:0:0:
256,192,21935,1,0,0:0:0:0:
256,192,21935,1,0,0:0:0:0:
256,192,21935,1,0,0:0:0:0:
256,192,21935,1,0,0:0:0:0:
256,192,21935,1,0,0:0:0:0:
256,256,21935,1,0,0:0:0:0:
288,96,21935,1,0,0:0:0:0:
256,96,21998,1,0,0:0:0:0:
224,96,21998,1,0,0:0:0:0:
160,224,21998,1,0,0:0:0:0:
192,96,21998,1,0,0:0:0:0:
160,96,21998,1,0,0:0:0:0:
128,96,22060,1,0,0:0:0:0:
352,160,22060,2,0,B|384:320,2,160
128,192,22060,1,0,0:0:0:0:
128,192,22060,1,0,0:0:0:0:
128,128,22060,1,0,0:0:0:0:
384,320,22060,1,0,0:0:0:0:
384,320,22060,1,0,0:0:0:0:
384,320,22060,1,0,0:0:0:0:
384,320,22060,1,0,0:0:0:0:
384,320,22060,1,0,0:0:0:0:
384,320,22060,1,0,0:0:0:0:
384,320,22060,1,0,0:0:0:0:
384,320,22060,1,0,0:0:0:0:
384,320,22060,1,0,0:0:0:0:
384,320,22060,1,0,0:0:0:0:
384,320,22060,1,0,0:0:0:0:
384,320,22060,1,0,0:0:0:0:
96,160,22060,1,0,0:0:0:0:
96,192,22060,1,0,0:0:0:0:
128,224,22123,1,0,0:0:0:0:
224,96,22123,1,0,0:0:0:0:
160,256,22123,1,0,0:0:0:0:
192,288,22123,1,0,0:0:0:0:
224,160,22123,1,0,0:0:0:0:
224,320,22185,1,0,0:0:0:0:
224,192,22185,1,0,0:0:0:0:
224,192,22185,1,0,0:0:0:0:
224,192,22185,1,0,0:0:0:0:
224,192,22185,1,0,0:0:0:0:
224,192,22185,1,0,0:0:0:0:
224,192,22185,1,0,0:0:0:0:
224,192,22185,1,0,0:0:0:0:
224,192,22185,1,0,0:0:0:0:
224,192,22185,1,0,0:0:0:0:
224,192,22185,1,0,0:0:0:0:
224,192,22185,1,0,0:0:0:0:
224,192,22185,1,0,0:0:0:0:
256,320,22185,1,0,0:0:0:0:
256,192,22185,1,0,0:0:0:0:
256,192,22185,1,0,0:0:0:0:
256,192,22185,1,0,0:0:0:0:
256,192,22185,1,0,0:0:0:0:
288,288,22185,1,0,0:0:0:0:
256,256,22185,1,0,0:0:0:0:
96,160,22185,2,0,B|-32:160|192:192,2,160
416,320,22248,2,0,B|192:160|224:96,1,280
192,96,22248,1,0,0:0:0:0:
448,256,22310,1,0,0:0:0:0:
448,256,22310,1,0,0:0:0:0:
448,256,22310,1,0,0:0:0:0:
448,256,22310,1,0,0:0:0:0:
448,256,22310,1,0,0:0:0:0:
448,256,22310,1,0,0:0:0:0:
448,256,22310,1,0,0:0:0:0:
448,256,22310,1,0,0:0:0:0:
448,256,22310,1,0,0:0:0:0:
448,256,22310,1,0,0:0:0:0:
448,256,22310,1,0,0:0:0:0:
448,256,22310,1,0,0:0:0:0:
160,128,22310,1,0,0:0:0:0:
160,128,22310,1,0,0:0:0:0:
128,160,22373,1,0,0:0:0:0:
256,96,22373,2,0,B|320:224,2,120
160,128,22373,1,0,0:0:0:0:
192,192,22373,1,0,0:0:0:0:
224,192,22373,1,0,0:0:0:0:
224,192,22373,1,0,0:0:0:0:
224,192,22373,1,0,0:0:0:0:
160,128,22373,1,0,0:0:0:0:
224,192,22373,1,0,0:0:0:0:
160,128,22373,1,0,0:0:0:0:
256,128,22435,1,0,0:0:0:0:
256,128,22435,1,0,0:0:0:0:
256,128,22435,1,0,0:0:0:0:
256,128,22435,1,0,0:0:0:0:
256,128,22435,1,0,0:0:0:0:
256,128,22435,1,0,0:0:0:0:
256,128,22435,1,0,0:0:0:0:
256,128,22435,1,0,0:0:0:0:
256,128,22435,1,0,0:0:0:0:
256,128,22435,1,0,0:0:0:0:
256,128,22435,1,0,0:0:0:0:
256,128,22435,1,0,0:0:0:0:
192,128,22435,1,0,0:0:0:0:
224,128,22435,1,0,0:0:0:0:
224,128,22435,1,0,0:0:0:0:
224,128,22435,1,0,0:0:0:0:
224,160,22498,1,0,0:0:0:0:
160,352,22498,2,0,B|192:160,1,160
256,192,22498,1,0,0:0:0:0:
128,192,22498,1,0,0:0:0:0:
448,256,22498,1,0,0:0:0:0:
448,256,22498,1,0,0:0:0:0:
448,256,22498,1,0,0:0:0:0:
224,224,22498,1,0,0:0:0:0:
448,256,22498,1,0,0:0:0:0:
384,192,22498,1,0,0:0:0:0:
128,192,22560,1,0,0:0:0:0:
128,192,22560,1,0,0:0:0:0:
128,192,22560,1,0,0:0:0:0:
128,192,22560,1,0,0:0:0:0:
128,192,22560,1,0,0:0:0:0:
128,192,22560,1,0,0:0:0:0:
128,192,22560,1,0,0:0:0:0:
128,192,22560,1,0,0:0:0:0:
128,192,22560,1,0,0:0:0:0:
128,192,22560,1,0,0:0:0:0:
128,192,22560,1,0,0:0:0:0:
128,192,22560,1,0,0:0:0:0:
256,256,22560,1,0,0:0:0:0:
256,256,22560,1,0,0:0:0:0:
256,256,22560,1,0,0:0:0:0:
288,224,22560,1,0,0:0:0:0:
320,224,22560,1,0,0:0:0:0:
192,256,22560,2,0,B|320:224,2,120
352,256,22623,1,0,0:0:0:0:
288,128,22623,1,0,0:0:0:0:
352,224,22623,1,0,0:0:0:0:
352,224,22623,1,0,0:0:0:0:
352,192,22623,1,0,0:0:0:0:
256,128,22623,1,0,0:0:0:0:
352,192,22623,1,0,0:0:0:0:
256,128,22623,1,0,0:0:0:0:
256,128,22623,1,0,0:0:0:0:
256,128,22623,1,0,0:0:0:0:
192,96,22623,1,0,0:0:0:0:
192,96,22623,1,0,0:0:0:0:
352,192,22623,1,0,0:0:0:0:
128,160,22623,1,0,0:0:0:0:
320,288,22623,1,0,0:0:0:0:
320,288,22623,1,0,0:0:0:0:
320,288,22623,1,0,0:0:0:0:
320,288,22623,1,0,0:0:0:0:
320,288,22623,1,0,0:0:0:0:
320,288,22623,1,0,0:0:0:0:
320,288,22623,1,0,0:0:0:0:
320,288,22623,1,0,0:0:0:0:
320,288,22623,1,0,0:0:0:0:
320,288,22623,1,0,0:0:0:0:
320,288,22623,1,0,0:0:0:0:
320,288,22623,1,0,0:0:0:0:
384,192,22685,1,0,0:0:0:0:
384,192,22685,1,0,0:0:0:0:
160,128,22685,1,0,0:0:0:0:
384,192,22685,1,0,0:0:0:0:
160,128,22685,1,0,0:0:0:0:
384,192,22685,1,0,0:0:0:0:
192,256,22685,2,0,B|256:128,2,120
384,224,22685,1,0,0:0:0:0:
384,256,22748,1,0,0:0:0:0:
64,256,22748,1,0,0:0:0:0:
416,256,22748,1,0,0:0:0:0:
416,256,22748,1,0,0:0:0:0:
128,192,22748,1,0,0:0:0:0:
416,224,22748,1,0,0:0:0:0:
160,128,22748,1,0,0:0:0:0:
160,128,22748,1,0,0:0:0:0:
160,128,22748,1,0,0:0:0:0:
160,128,22748,1,0,0:0:0:0:
160,128,22748,1,0,0:0:0:0:
160,128,22748,1,0,0:0:0:0:
160,128,22748,1,0,0:0:0:0:
160,128,22748,1,0,0:0:0:0:
160,128,22748,1,0,0:0:0:0:
160,128,22748,1,0,0:0:0:0:
160,128,22748,1,0,0:0:0:0:
160,128,22748,1,0,0:0:0:0:
416,192,22748,1,0,0:0:0:0:
416,160,22810,1,0,0:0:0:0:
320,96,22810,2,0,B|320:160|224:256,2,160
384,128,22810,1,0,0:0:0:0:
352,128,22810,1,0,0:0:0:0:
288,128,22810,1,0,0:0:0:0:
256,192,22810,1,0,0:0:0:0:
320,160,22873,1,0,0:0:0:0:
288,160,22873,1,0,0:0:0:0:
288,160,22873,1,0,0:0:0:0:
288,160,22873,1,0,0:0:0:0:
288,160,22873,1,0,0:0:0:0:
288,128,22873,1,0,0:0:0:0:
288,96,22935,1,0,0:0:0:0:
384,288,22935,1,0,0:0:0:0:
384,288,22935,1,0,0:0:0:0:
384,288,22935,1,0,0:0:0:0:
384,288,22935,1,0,0:0:0:0:
384,288,22935,1,0,0:0:0:0:
384,288,22935,1,0,0:0:0:0:
384,288,22935,1,0,0:0:0:0:
384,288,22935,1,0,0:0:0:0:
384,288,22935,1,0,0:0:0:0:
384,288,22935,1,0,0:0:0:0:
384,288,22935,1,0,0:0:0:0:
384,288,22935,1,0,0:0:0:0:
256,96,22935,1,0,0:0:0:0:
160,256,22935,2,0,B|128:128|224:128|320:192|352:288,1,320
224,96,22935,1,0,0:0:0:0:
192,96,22935,1,0,0:0:0:0:
64,256,22935,1,0,0:0:0:0:
160,96,22998,1,0,0:0:0:0:
128,96,22998,1,0,0:0:0:0:
128,128,22998,1,0,0:0:0:0:
224,320,22998,1,0,0:0:0:0:
224,320,22998,1,0,0:0:0:0:
224,320,22998,1,0,0:0:0:0:
224,320,22998,1,0,0:0:0:0:
96,160,22998,1,0,0:0:0:0:
96,192,23060,1,0,0:0:0:0:
128,224,23060,1,0,0:0:0:0:
224,192,23060,1,0,0:0:0:0:
160,256,23060,1,0,0:0:0:0:
192,288,23060,1,0,0:0:0:0:
160,128,23123,1,0,0:0:0:0:
160,128,23123,1,0,0:0:0:0:
160,128,23123,1,0,0:0:0:0:
160,128,23123,1,0,0:0:0:0:
160,128,23123,1,0,0:0:0:0:
256,320,23123,1,0,0:0:0:0:
192,128,23123,1,0,0:0:0:0:
192,128,23123,1,0,0:0:0:0:
192,96,23123,1,0,0:0:0:0:
192,96,23123,1,0,0:0:0:0:
192,96,23123,1,0,0:0:0:0:
192,96,23123,1,0,0:0:0:0:
288,288,23123,1,0,0:0:0:0:
224,128,23123,1,0,0:0:0:0:
224,128,23123,1,0,0:0:0:0:
224,128,23123,1,0,0:0:0:0:
224,128,23123,1,0,0:0:0:0:
288,320,23123,2,0,B|160:224,2,160
224,128,23185,1,0,0:0:0:0:
224,128,23185,1,0,0:0:0:0:
160,128,23185,1,0,0:0:0:0:
160,128,23185,1,0,0:0:0:0:
448,256,23185,1,0,0:0:0:0:
160,128,23185,1,0,0:0:0:0:
224,160,23185,1,0,0:0:0:0:
224,160,23185,1,0,0:0:0:0:
192,128,23185,1,0,0:0:0:0:
256,192,23185,1,0,0:0:0:0:
256,192,23185,1,0,0:0:0:0:
224,128,23185,1,0,0:0:0:0:
224,128,23185,1,0,0:0:0:0:
224,128,23248,1,0,0:0:0:0:
224,224,23248,1,0,0:0:0:0:
224,224,23248,1,0,0:0:0:0:
224,160,23248,1,0,0:0:0:0:
256,256,23248,1,0,0:0:0:0:
256,256,23248,1,0,0:0:0:0:
256,256,23248,1,0,0:0:0:0:
256,256,23248,1,0,0:0:0:0:
256,256,23248,1,0,0:0:0:0:
256,256,23248,1,0,0:0:0:0:
256,192,23248,1,0,0:0:0:0:
64,320,23248,1,0,0:0:0:0:
64,320,23248,1,0,0:0:0:0:
64,320,23248,1,0,0:0:0:0:
64,320,23248,1,0,0:0:0:0:
288,224,23248,1,0,0:0:0:0:
288,224,23248,1,0,0:0:0:0:
288,320,23310,2,0,B|256:128,1,160
224,224,23310,1,0,0:0:0:0:
320,224,23310,1,0,0:0:0:0:
320,224,23310,1,0,0:0:0:0:
256,128,23310,1,0,0:0:0:0:
352,256,23310,1,0,0:0:0:0:
352,256,23310,1,0,0:0:0:0:
256,256,23310,1,0,0:0:0:0:
320,288,23310,2,0,B|352:224,5,40
256,256,23310,1,0,0:0:0:0:
352,224,23310,1,0,0:0:0:0:
352,224,23310,1,0,0:0:0:0:
256,256,23310,1,0,0:0:0:0:
352,224,23310,1,0,0:0:0:0:
352,224,23310,1,0,0:0:0:0:
288,224,23310,1,0,0:0:0:0:
352,192,23373,1,0,0:0:0:0:
352,192,23373,1,0,0:0:0:0:
352,192,23373,1,0,0:0:0:0:
352,192,23373,1,0,0:0:0:0:
320,224,23373,1,0,0:0:0:0:
352,192,23373,1,0,0:0:0:0:
352,192,23373,1,0,0:0:0:0:
352,256,23373,1,0,0:0:0:0:
384,192,23373,1,0,0:0:0:0:
384,192,23373,1,0,0:0:0:0:
384,192,23373,1,0,0:0:0:0:
384,192,23373,1,0,0:0:0:0:
352,224,23373,1,0,0:0:0:0:
384,192,23373,1,0,0:0:0:0:
384,192,23373,1,0,0:0:0:0:
352,224,23373,1,0,0:0:0:0:
224,160,23373,1,0,0:0:0:0:
384,192,23373,1,0,0:0:0:0:
384,192,23373,1,0,0:0:0:0:
352,192,23435,1,0,0:0:0:0:
384,224,23435,1,0,0:0:0:0:
384,224,23435,1,0,0:0:0:0:
352,192,23435,1,0,0:0:0:0:
128,192,23435,1,0,0:0:0:0:
352,192,23435,1,0,0:0:0:0:
384,256,23435,1,0,0:0:0:0:
384,256,23435,1,0,0:0:0:0:
384,192,23435,1,0,0:0:0:0:
384,192,23435,1,0,0:0:0:0:
416,256,23435,1,0,0:0:0:0:
416,256,23435,1,0,0:0:0:0:
384,192,23435,1,0,0:0:0:0:
416,256,23435,1,0,0:0:0:0:
416,256,23435,1,0,0:0:0:0:
384,192,23435,1,0,0:0:0:0:
192,96,23435,1,0,0:0:0:0:
416,224,23498,1,0,0:0:0:0:
416,224,23498,1,0,0:0:0:0:
384,224,23498,1,0,0:0:0:0:
416,192,23498,1,0,0:0:0:0:
416,192,23498,1,0,0:0:0:0:
384,256,23498,1,0,0:0:0:0:
384,352,23498,2,0,B|160:160,1,280
416,160,23498,1,0,0:0:0:0:
416,160,23498,1,0,0:0:0:0:
416,224,23498,1,0,0:0:0:0:
416,256,23498,1,0,0:0:0:0:
384,128,23498,1,0,0:0:0:0:
384,128,23498,1,0,0:0:0:0:
416,256,23498,1,0,0:0:0:0:
224,192,23498,2,0,B|128:192|96:288|224:256|288:160|160:160,4,240
352,128,23560,1,0,0:0:0:0:
352,128,23560,1,0,0:0:0:0:
416,224,23560,1,0,0:0:0:0:
256,128,23560,1,0,0:0:0:0:
320,288,23560,1,0,0:0:0:0:
416,192,23560,1,0,0:0:0:0:
320,160,23560,1,0,0:0:0:0:
320,160,23560,1,0,0:0:0:0:
416,160,23560,1,0,0:0:0:0:
288,160,23560,1,0,0:0:0:0:
288,160,23560,1,0,0:0:0:0:
288,160,23560,1,0,0:0:0:0:
288,160,23560,1,0,0:0:0:0:
384,128,23560,1,0,0:0:0:0:
288,160,23560,1,0,0:0:0:0:
288,160,23560,1,0,0:0:0:0:
288,160,23560,1,0,0:0:0:0:
288,160,23560,1,0,0:0:0:0:
352,128,23623,1,0,0:0:0:0:
288,128,23623,1,0,0:0:0:0:
288,128,23623,1,0,0:0:0:0:
320,160,23623,1,0,0:0:0:0:
288,96,23623,1,0,0:0:0:0:
288,96,23623,1,0,0:0:0:0:
288,160,23623,1,0,0:0:0:0:
160,128,23623,1,0,0:0:0:0:
160,128,23623,1,0,0:0:0:0:
256,96,23623,1,0,0:0:0:0:
256,96,23623,1,0,0:0:0:0:
160,128,23623,1,0,0:0:0:0:
160,128,23623,1,0,0:0:0:0:
160,128,23623,1,0,0:0:0:0:
160,128,23623,1,0,0:0:0:0:
256,128,23623,1,0,0:0:0:0:
160,128,23623,1,0,0:0:0:0:
160,128,23623,1,0,0:0:0:0:
160,128,23623,1,0,0:0:0:0:
160,128,23623,1,0,0:0:0:0:
224,96,23623,1,0,0:0:0:0:
224,96,23623,1,0,0:0:0:0:
128,192,23685,1,0,0:0:0:0:
160,128,23685,1,0,0:0:0:0:
192,96,23685,1,0,0:0:0:0:
192,96,23685,1,0,0:0:0:0:
160,96,23685,1,0,0:0:0:0:
160,96,23685,1,0,0:0:0:0:
128,96,23685,1,0,0:0:0:0:
128,96,23685,1,0,0:0:0:0:
128,128,23685,1,0,0:0:0:0:
128,128,23685,1,0,0:0:0:0:
96,160,23748,1,0,0:0:0:0:
96,160,23748,1,0,0:0:0:0:
96,192,23748,1,0,0:0:0:0:
96,192,23748,1,0,0:0:0:0:
128,224,23748,1,0,0:0:0:0:
128,224,23748,1,0,0:0:0:0:
320,288,23748,1,0,0:0:0:0:
160,256,23810,1,0,0:0:0:0:
160,256,23810,1,0,0:0:0:0:
192,288,23810,1,0,0:0:0:0:
192,288,23810,1,0,0:0:0:0:
160,128,23810,1,0,0:0:0:0:
224,320,23810,1,0,0:0:0:0:
224,320,23810,1,0,0:0:0:0:
160,128,23810,1,0,0:0:0:0:
256,320,23810,1,0,0:0:0:0:
256,320,23810,1,0,0:0:0:0:
256,320,23810,1,0,0:0:0:0:
192,128,23810,1,0,0:0:0:0:
288,288,23873,1,0,0:0:0:0:
288,288,23873,1,0,0:0:0:0:
288,288,23873,1,0,0:0:0:0:
256,256,23873,1,0,0:0:0:0:
256,256,23873,1,0,0:0:0:0:
224,128,23873,1,0,0:0:0:0:
256,256,23873,1,0,0:0:0:0:
224,128,23873,1,0,0:0:0:0:
224,128,23873,1,0,0:0:0:0:
224,160,23873,1,0,0:0:0:0:
224,320,23873,1,0,0:0:0:0:
160,128,23873,1,0,0:0:0:0:
64,256,23935,1,0,0:0:0:0:
256,192,23935,1,0,0:0:0:0:
224,224,23935,1,0,0:0:0:0:
256,256,23935,1,0,0:0:0:0:
256,256,23935,1,0,0:0:0:0:
256,256,23998,1,0,0:0:0:0:
128,160,23998,2,0,B|192:224,2,80
288,224,23998,1,0,0:0:0:0:
320,224,23998,1,0,0:0:0:0:
352,256,23998,1,0,0:0:0:0:
192,96,23998,1,0,0:0:0:0:
256,192,23998,1,0,0:0:0:0:
352,224,24060,1,0,0:0:0:0:
352,224,24060,1,0,0:0:0:0:
352,192,24060,1,0,0:0:0:0:
352,192,24060,1,0,0:0:0:0:
160,192,24060,2,0,B|160:224|320:192|160:320|256:128|352:224,5,200
352,192,24060,1,0,0:0:0:0:
384,192,24060,1,0,0:0:0:0:
384,192,24060,1,0,0:0:0:0:
384,192,24123,1,0,0:0:0:0:
384,192,24123,1,0,0:0:0:0:
384,224,24123,1,0,0:0:0:0:
384,320,24123,1,0,0:0:0:0:
224,320,24123,1,0,0:0:0:0:
384,256,24123,1,0,0:0:0:0:
64,320,24185,1,0,0:0:0:0:
416,256,24185,1,0,0:0:0:0:
416,256,24185,1,0,0:0:0:0:
192,96,24185,1,0,0:0:0:0:
192,96,24185,1,0,0:0:0:0:
192,96,24185,1,0,0:0:0:0:
416,224,24185,1,0,0:0:0:0:
416,192,24185,1,0,0:0:0:0:
416,160,24185,1,0,0:0:0:0:
384,128,24248,1,0,0:0:0:0:
352,128,24248,1,0,0:0:0:0:
224,192,24248,1,0,0:0:0:0:
192,96,24248,1,0,0:0:0:0:
320,160,24248,1,0,0:0:0:0:
288,160,24248,1,0,0:0:0:0:
288,160,24310,1,0,0:0:0:0:
288,160,24310,1,0,0:0:0:0:
288,160,24310,1,0,0:0:0:0:
288,128,24310,1,0,0:0:0:0:
288,96,24310,1,0,0:0:0:0:
256,96,24373,1,0,0:0:0:0:
448,256,24373,1,0,0:0:0:0:
224,96,24373,1,0,0:0:0:0:
192,96,24373,1,0,0:0:0:0:
160,96,24373,1,0,0:0:0:0:
64,320,24373,1,0,0:0:0:0:
128,192,24435,1,0,0:0:0:0:
128,96,24435,1,0,0:0:0:0:
128,192,24435,1,0,0:0:0:0:
128,192,24435,1,0,0:0:0:0:
128,128,24435,1,0,0:0:0:0:
96,160,24435,1,0,0:0:0:0:
96,192,24435,1,0,0:0:0:0:
128,224,24498,1,0,0:0:0:0:
256,128,24498,1,0,0:0:0:0:
288,128,24498,1,0,0:0:0:0:
288,128,24498,1,0,0:0:0:0:
288,128,24498,1,0,0:0:0:0:
160,256,24498,1,0,0:0:0:0:
288,128,24498,1,0,0:0:0:0:
288,128,24498,1,0,0:0:0:0:
192,288,24498,1,0,0:0:0:0:
224,320,24498,1,0,0:0:0:0:
256,320,24560,1,0,0:0:0:0:
288,288,24560,1,0,0:0:0:0:
256,256,24560,1,0,0:0:0:0:
352,256,24623,2,0,B|192:192,1,160
128,192,24623,1,0,0:0:0:0:
64,256,24623,1,0,0:0:0:0:
64,256,24623,1,0,0:0:0:0:
64,256,24623,1,0,0:0:0:0:
64,256,24623,1,0,0:0:0:0:
64,256,24623,1,0,0:0:0:0:
224,160,24685,2,0,B|288:160,2,40
320,288,24748,1,0,0:0:0:0:
256,192,24748,1,0,0:0:0:0:
256,192,24748,1,0,0:0:0:0:
256,192,24748,1,0,0:0:0:0:
256,192,24748,1,0,0:0:0:0:
256,192,24748,1,0,0:0:0:0:
352,64,24810,2,0,B|352:128,3,40
384,320,24810,1,0,0:0:0:0:
384,320,24810,1,0,0:0:0:0:
384,320,24810,1,0,0:0:0:0:
384,320,24810,1,0,0:0:0:0:
384,320,24810,1,0,0:0:0:0:
160,128,24873,1,0,0:0:0:0:
192,96,24873,1,0,0:0:0:0:
512,192,24873,2,0,B|128:256,1,360
224,192,24935,1,0,0:0:0:0:
224,192,24935,1,0,0:0:0:0:
224,192,24935,1,0,0:0:0:0:
224,192,24935,1,0,0:0:0:0:
224,192,24935,1,0,0:0:0:0:
384,288,24998,1,0,0:0:0:0:
160,128,24998,1,0,0:0:0:0:
160,128,24998,1,0,0:0:0:0:
160,128,24998,1,0,0:0:0:0:
192,128,24998,1,0,0:0:0:0:
96,256,24998,2,0,B|224:128|288:224,1,200
224,128,25060,1,0,0:0:0:0:
224,128,25060,1,0,0:0:0:0:
224,128,25060,1,0,0:0:0:0:
448,256,25060,1,0,0:0:0:0:
448,256,25060,1,0,0:0:0:0:
448,256,25060,1,0,0:0:0:0:
448,256,25060,1,0,0:0:0:0:
448,256,25060,1,0,0:0:0:0:
224,320,25060,1,0,0:0:0:0:
224,160,25060,1,0,0:0:0:0:
256,192,25123,1,0,0:0:0:0:
128,192,25123,1,0,0:0:0:0:
224,224,25123,1,0,0:0:0:0:
256,256,25123,1,0,0:0:0:0:
256,256,25123,1,0,0:0:0:0:
256,256,25185,1,0,0:0:0:0:
288,224,25185,1,0,0:0:0:0:
320,224,25185,1,0,0:0:0:0:
256,128,25185,1,0,0:0:0:0:
256,128,25185,1,0,0:0:0:0:
256,128,25185,1,0,0:0:0:0:
256,128,25185,1,0,0:0:0:0:
256,128,25185,1,0,0:0:0:0:
192,96,25185,1,0,0:0:0:0:
352,256,25185,1,0,0:0:0:0:
352,224,25248,1,0,0:0:0:0:
352,224,25248,1,0,0:0:0:0:
480,288,25248,2,0,B|224:288,1,240
352,192,25248,1,0,0:0:0:0:
352,192,25248,1,0,0:0:0:0:
352,192,25248,1,0,0:0:0:0:
384,192,25248,1,0,0:0:0:0:
384,192,25310,1,0,0:0:0:0:
384,192,25310,1,0,0:0:0:0:
0,352,25310,2,0,B|224:96,1,320
384,192,25310,1,0,0:0:0:0:
384,224,25310,1,0,0:0:0:0:
128,192,25310,1,0,0:0:0:0:
128,192,25310,1,0,0:0:0:0:
128,192,25310,1,0,0:0:0:0:
128,192,25310,1,0,0:0:0:0:
128,192,25310,1,0,0:0:0:0:
384,256,25310,1,0,0:0:0:0:
64,320,25373,1,0,0:0:0:0:
416,256,25373,1,0,0:0:0:0:
416,256,25373,1,0,0:0:0:0:
416,224,25373,1,0,0:0:0:0:
416,192,25373,1,0,0:0:0:0:
416,160,25373,1,0,0:0:0:0:
384,128,25435,1,0,0:0:0:0:
352,128,25435,1,0,0:0:0:0:
320,288,25435,1,0,0:0:0:0:
320,288,25435,1,0,0:0:0:0:
320,288,25435,1,0,0:0:0:0:
320,288,25435,1,0,0:0:0:0:
320,288,25435,1,0,0:0:0:0:
218,101,25435,2,0,B|320:192,1,120
256,192,25435,1,0,0:0:0:0:
320,160,25435,1,0,0:0:0:0:
288,160,25435,1,0,0:0:0:0:
288,160,25498,1,0,0:0:0:0:
288,160,25498,1,0,0:0:0:0:
288,160,25498,1,0,0:0:0:0:
310,183,25498,2,0,B|224:256,2,80
288,128,25498,1,0,0:0:0:0:
288,96,25498,1,0,0:0:0:0:
256,96,25560,1,0,0:0:0:0:
384,320,25560,1,0,0:0:0:0:
224,96,25560,1,0,0:0:0:0:
160,128,25560,1,0,0:0:0:0:
160,128,25560,1,0,0:0:0:0:
160,128,25560,1,0,0:0:0:0:
160,128,25560,1,0,0:0:0:0:
160,128,25560,1,0,0:0:0:0:
192,96,25560,1,0,0:0:0:0:
160,96,25560,1,0,0:0:0:0:
128,96,25623,1,0,0:0:0:0:
128,128,25623,1,0,0:0:0:0:
96,160,25623,1,0,0:0:0:0:
96,192,25623,1,0,0:0:0:0:
192,256,25623,2,0,B|128:128,1,120
128,224,25685,1,0,0:0:0:0:
160,256,25685,1,0,0:0:0:0:
384,288,25685,1,0,0:0:0:0:
384,288,25685,1,0,0:0:0:0:
384,288,25685,1,0,0:0:0:0:
384,288,25685,1,0,0:0:0:0:
384,288,25685,1,0,0:0:0:0:
192,288,25685,1,0,0:0:0:0:
129,130,25685,2,0,B|320:192|320:224|256:288|192:288|192:160|288:128,2,360
224,320,25685,1,0,0:0:0:0:
256,320,25748,1,0,0:0:0:0:
288,288,25748,1,0,0:0:0:0:
256,256,25748,1,0,0:0:0:0:
448,256,25810,1,0,0:0:0:0:
224,320,25810,1,0,0:0:0:0:
256,128,25935,1,0,0:0:0:0:
192,96,25935,1,0,0:0:0:0:
128,192,25998,1,0,0:0:0:0:
64,320,26060,1,0,0:0:0:0:
192,96,26060,1,0,0:0:0:0:
320,288,26123,1,0,0:0:0:0:
320,192,26123,2,0,B|352:256,4,40
160,128,26248,1,0,0:0:0:0:
320,192,26248,2,0,B|192:224,1,120
128,192,26310,1,0,0:0:0:0:
160,160,26373,2,0,B|192:96,3,40
288,128,26373,1,0,0:0:0:0:
384,288,26435,1,0,0:0:0:0:
160,128,26435,1,0,0:0:0:0:
160,128,26435,1,0,0:0:0:0:
160,128,26435,1,0,0:0:0:0:
192,128,26435,1,0,0:0:0:0:
224,128,26435,1,0,0:0:0:0:
224,128,26498,1,0,0:0:0:0:
224,128,26498,1,0,0:0:0:0:
224,160,26498,1,0,0:0:0:0:
256,192,26498,1,0,0:0:0:0:
64,256,26498,1,0,0:0:0:0:
224,224,26560,1,0,0:0:0:0:
256,256,26560,1,0,0:0:0:0:
256,256,26560,1,0,0:0:0:0:
256,256,26560,1,0,0:0:0:0:
288,224,26623,1,0,0:0:0:0:
320,224,26623,1,0,0:0:0:0:
352,256,26623,1,0,0:0:0:0:
256,192,26623,1,0,0:0:0:0:
352,224,26623,1,0,0:0:0:0:
352,224,26623,1,0,0:0:0:0:
352,192,26685,1,0,0:0:0:0:
352,192,26685,1,0,0:0:0:0:
352,192,26685,1,0,0:0:0:0:
384,192,26685,1,0,0:0:0:0:
384,192,26685,1,0,0:0:0:0:
384,192,26685,1,0,0:0:0:0:
384,192,26685,1,0,0:0:0:0:
384,224,26748,1,0,0:0:0:0:
384,320,26748,1,0,0:0:0:0:
384,256,26748,1,0,0:0:0:0:
416,256,26748,1,0,0:0:0:0:
64,320,26748,1,0,0:0:0:0:
416,256,26748,1,0,0:0:0:0:
416,224,26810,1,0,0:0:0:0:
416,192,26810,1,0,0:0:0:0:
416,160,26810,1,0,0:0:0:0:
384,128,26810,1,0,0:0:0:0:
352,128,26873,1,0,0:0:0:0:
224,192,26873,1,0,0:0:0:0:
320,160,26873,1,0,0:0:0:0:
288,160,26873,1,0,0:0:0:0:
288,160,26873,1,0,0:0:0:0:
160,128,26873,1,0,0:0:0:0:
288,160,26873,1,0,0:0:0:0:
160,128,26873,1,0,0:0:0:0:
160,128,26935,1,0,0:0:0:0:
288,160,26935,1,0,0:0:0:0:
192,128,26935,1,0,0:0:0:0:
288,128,26935,1,0,0:0:0:0:
224,128,26935,1,0,0:0:0:0:
288,96,26935,1,0,0:0:0:0:
224,128,26935,1,0,0:0:0:0:
224,128,26935,1,0,0:0:0:0:
256,96,26935,1,0,0:0:0:0:
224,96,26998,1,0,0:0:0:0:
448,256,26998,1,0,0:0:0:0:
96,160,26998,2,0,B|-32:160|192:192,2,160
224,160,26998,1,0,0:0:0:0:
192,96,26998,1,0,0:0:0:0:
256,192,26998,1,0,0:0:0:0:
160,96,26998,1,0,0:0:0:0:
128,96,26998,1,0,0:0:0:0:
224,224,26998,1,0,0:0:0:0:
128,128,26998,1,0,0:0:0:0:
256,256,27060,1,0,0:0:0:0:
96,160,27060,1,0,0:0:0:0:
256,256,27060,1,0,0:0:0:0:
256,256,27060,1,0,0:0:0:0:
96,192,27060,1,0,0:0:0:0:
288,224,27060,1,0,0:0:0:0:
128,224,27060,1,0,0:0:0:0:
320,224,27060,1,0,0:0:0:0:
256,128,27123,1,0,0:0:0:0:
352,256,27123,1,0,0:0:0:0:
160,256,27123,1,0,0:0:0:0:
352,224,27123,1,0,0:0:0:0:
192,288,27123,1,0,0:0:0:0:
352,224,27123,1,0,0:0:0:0:
224,320,27123,1,0,0:0:0:0:
128,160,27123,1,0,0:0:0:0:
352,192,27123,1,0,0:0:0:0:
352,192,27123,1,0,0:0:0:0:
256,320,27123,1,0,0:0:0:0:
352,192,27185,1,0,0:0:0:0:
288,288,27185,1,0,0:0:0:0:
256,256,27185,1,0,0:0:0:0:
384,192,27185,1,0,0:0:0:0:
384,192,27185,1,0,0:0:0:0:
384,192,27185,1,0,0:0:0:0:
384,192,27185,1,0,0:0:0:0:
384,224,27185,1,0,0:0:0:0:
128,192,27185,1,0,0:0:0:0:
384,256,27248,1,0,0:0:0:0:
416,256,27248,1,0,0:0:0:0:
416,256,27248,1,0,0:0:0:0:
416,224,27248,1,0,0:0:0:0:
416,192,27310,1,0,0:0:0:0:
384,192,27310,1,0,0:0:0:0:
416,160,27310,1,0,0:0:0:0:
384,128,27310,1,0,0:0:0:0:
352,128,27310,1,0,0:0:0:0:
320,288,27310,1,0,0:0:0:0:
320,160,27373,1,0,0:0:0:0:
288,160,27373,1,0,0:0:0:0:
288,160,27373,1,0,0:0:0:0:
288,160,27373,1,0,0:0:0:0:
288,160,27373,1,0,0:0:0:0:
288,128,27373,1,0,0:0:0:0:
288,96,27435,1,0,0:0:0:0:
128,160,27435,1,0,0:0:0:0:
256,96,27435,1,0,0:0:0:0:
224,96,27435,1,0,0:0:0:0:
160,128,27435,1,0,0:0:0:0:
192,96,27435,1,0,0:0:0:0:
160,96,27498,1,0,0:0:0:0:
192,96,27498,1,0,0:0:0:0:
128,96,27498,1,0,0:0:0:0:
128,128,27498,1,0,0:0:0:0:
96,160,27498,1,0,0:0:0:0:
96,192,27560,1,0,0:0:0:0:
384,160,27560,1,0,0:0:0:0:
128,224,27560,1,0,0:0:0:0:
160,256,27560,1,0,0:0:0:0:
192,288,27623,1,0,0:0:0:0:
384,288,27623,1,0,0:0:0:0:
224,320,27623,1,0,0:0:0:0:
256,320,27623,1,0,0:0:0:0:
288,288,27623,1,0,0:0:0:0:
256,256,27623,1,0,0:0:0:0:
192,192,27623,1,0,0:0:0:0:
224,320,27685,1,0,0:0:0:0:
224,96,27685,1,0,0:0:0:0:
128,192,27748,1,0,0:0:0:0:
224,192,27748,1,0,0:0:0:0:
288,128,27810,1,0,0:0:0:0:
192,96,27810,1,0,0:0:0:0:
160,128,27810,1,0,0:0:0:0:
160,128,27873,1,0,0:0:0:0:
160,128,27873,1,0,0:0:0:0:
192,128,27873,1,0,0:0:0:0:
64,352,27873,1,0,0:0:0:0:
224,128,27873,1,0,0:0:0:0:
224,128,27873,1,0,0:0:0:0:
224,128,27873,1,0,0:0:0:0:
224,160,27935,1,0,0:0:0:0:
256,192,27935,1,0,0:0:0:0:
64,256,27935,1,0,0:0:0:0:
64,320,27935,1,0,0:0:0:0:
160,224,27935,1,0,0:0:0:0:
224,224,27935,1,0,0:0:0:0:
192,96,27998,1,0,0:0:0:0:
256,256,27998,1,0,0:0:0:0:
256,256,27998,1,0,0:0:0:0:
256,256,27998,1,0,0:0:0:0:
288,224,27998,1,0,0:0:0:0:
320,224,27998,1,0,0:0:0:0:
352,256,28060,1,0,0:0:0:0:
256,192,28060,1,0,0:0:0:0:
352,224,28060,1,0,0:0:0:0:
352,224,28060,1,0,0:0:0:0:
224,96,28060,1,0,0:0:0:0:
352,192,28060,1,0,0:0:0:0:
352,192,28060,1,0,0:0:0:0:
352,192,28123,1,0,0:0:0:0:
224,160,28123,1,0,0:0:0:0:
384,192,28123,1,0,0:0:0:0:
384,192,28123,1,0,0:0:0:0:
384,192,28123,1,0,0:0:0:0:
384,192,28123,1,0,0:0:0:0:
384,224,28123,1,0,0:0:0:0:
384,320,28185,1,0,0:0:0:0:
384,256,28185,1,0,0:0:0:0:
416,256,28185,1,0,0:0:0:0:
416,256,28185,1,0,0:0:0:0:
128,192,28185,1,0,0:0:0:0:
416,224,28185,1,0,0:0:0:0:
416,192,28248,1,0,0:0:0:0:
416,160,28248,1,0,0:0:0:0:
384,128,28248,1,0,0:0:0:0:
512,192,28248,1,0,0:0:0:0:
352,128,28248,1,0,0:0:0:0:
224,192,28248,1,0,0:0:0:0:
320,160,28310,1,0,0:0:0:0:
288,160,28310,1,0,0:0:0:0:
288,160,28310,1,0,0:0:0:0:
288,160,28310,1,0,0:0:0:0:
288,160,28310,1,0,0:0:0:0:
288,128,28373,1,0,0:0:0:0:
192,192,28373,1,0,0:0:0:0:
288,96,28373,1,0,0:0:0:0:
256,96,28373,1,0,0:0:0:0:
224,96,28373,1,0,0:0:0:0:
192,96,28373,1,0,0:0:0:0:
160,96,28435,1,0,0:0:0:0:
128,96,28435,1,0,0:0:0:0:
128,32,28435,1,0,0:0:0:0:
128,128,28435,1,0,0:0:0:0:
96,160,28435,1,0,0:0:0:0:
96,192,28498,1,0,0:0:0:0:
128,224,28498,1,0,0:0:0:0:
256,128,28498,1,0,0:0:0:0:
160,256,28498,1,0,0:0:0:0:
256,192,28560,1,0,0:0:0:0:
192,288,28560,1,0,0:0:0:0:
160,128,28560,1,0,0:0:0:0:
224,320,28560,1,0,0:0:0:0:
160,128,28560,1,0,0:0:0:0:
224,160,28560,1,0,0:0:0:0:
160,128,28560,1,0,0:0:0:0:
256,320,28560,1,0,0:0:0:0:
192,128,28560,1,0,0:0:0:0:
192,192,28560,1,0,0:0:0:0:
288,288,28560,1,0,0:0:0:0:
256,256,28560,1,0,0:0:0:0:
224,128,28560,1,0,0:0:0:0:
224,128,28623,1,0,0:0:0:0:
224,128,28623,1,0,0:0:0:0:
224,160,28623,1,0,0:0:0:0:
384,320,28623,1,0,0:0:0:0:
128,192,28623,1,0,0:0:0:0:
224,96,28623,1,0,0:0:0:0:
256,192,28623,1,0,0:0:0:0:
224,224,28685,1,0,0:0:0:0:
224,192,28685,1,0,0:0:0:0:
256,256,28685,1,0,0:0:0:0:
256,256,28685,1,0,0:0:0:0:
256,256,28685,1,0,0:0:0:0:
128,192,28748,1,0,0:0:0:0:
320,224,28748,1,0,0:0:0:0:
224,192,28748,1,0,0:0:0:0:
352,256,28748,1,0,0:0:0:0:
352,224,28748,1,0,0:0:0:0:
128,160,28748,1,0,0:0:0:0:
352,224,28748,1,0,0:0:0:0:
352,192,28810,1,0,0:0:0:0:
192,192,28810,1,0,0:0:0:0:
352,192,28810,1,0,0:0:0:0:
352,192,28810,1,0,0:0:0:0:
288,128,28810,1,0,0:0:0:0:
384,192,28810,1,0,0:0:0:0:
384,192,28810,1,0,0:0:0:0:
384,192,28810,1,0,0:0:0:0:
384,192,28873,1,0,0:0:0:0:
160,128,28873,1,0,0:0:0:0:
96,160,28873,2,0,B|-32:160|192:192,2,160
160,128,28873,1,0,0:0:0:0:
160,128,28873,1,0,0:0:0:0:
384,224,28873,1,0,0:0:0:0:
448,256,28873,1,0,0:0:0:0:
192,128,28873,1,0,0:0:0:0:
160,128,28873,1,0,0:0:0:0:
384,256,28873,1,0,0:0:0:0:
160,224,28873,1,0,0:0:0:0:
224,128,28873,1,0,0:0:0:0:
224,128,28873,1,0,0:0:0:0:
416,256,28873,1,0,0:0:0:0:
224,128,28873,1,0,0:0:0:0:
416,256,28935,1,0,0:0:0:0:
192,96,28935,1,0,0:0:0:0:
416,224,28935,1,0,0:0:0:0:
384,192,28935,1,0,0:0:0:0:
224,160,28935,1,0,0:0:0:0:
416,192,28935,1,0,0:0:0:0:
256,192,28935,1,0,0:0:0:0:
416,160,28935,1,0,0:0:0:0:
384,128,28935,1,0,0:0:0:0:
224,224,28998,1,0,0:0:0:0:
352,128,28998,1,0,0:0:0:0:
256,256,28998,1,0,0:0:0:0:
256,128,28998,1,0,0:0:0:0:
256,256,28998,1,0,0:0:0:0:
320,160,28998,1,0,0:0:0:0:
224,96,28998,1,0,0:0:0:0:
256,256,28998,1,0,0:0:0:0:
128,160,28998,1,0,0:0:0:0:
128,160,28998,1,0,0:0:0:0:
288,160,28998,1,0,0:0:0:0:
288,224,28998,1,0,0:0:0:0:
288,160,28998,1,0,0:0:0:0:
288,160,29060,1,0,0:0:0:0:
224,160,29060,1,0,0:0:0:0:
320,224,29060,1,0,0:0:0:0:
288,160,29060,1,0,0:0:0:0:
352,256,29060,1,0,0:0:0:0:
256,192,29060,1,0,0:0:0:0:
128,160,29060,1,0,0:0:0:0:
352,224,29060,1,0,0:0:0:0:
288,96,29060,1,0,0:0:0:0:
352,224,29060,1,0,0:0:0:0:
256,96,29060,1,0,0:0:0:0:
352,192,29060,1,0,0:0:0:0:
352,192,29123,1,0,0:0:0:0:
224,96,29123,1,0,0:0:0:0:
352,192,29123,1,0,0:0:0:0:
224,320,29123,1,0,0:0:0:0:
128,192,29123,1,0,0:0:0:0:
192,96,29123,1,0,0:0:0:0:
384,192,29123,1,0,0:0:0:0:
384,192,29123,1,0,0:0:0:0:
160,96,29123,1,0,0:0:0:0:
384,192,29123,1,0,0:0:0:0:
384,192,29123,1,0,0:0:0:0:
128,192,29123,1,0,0:0:0:0:
128,96,29123,1,0,0:0:0:0:
384,224,29185,1,0,0:0:0:0:
384,192,29185,1,0,0:0:0:0:
384,192,29185,1,0,0:0:0:0:
96,160,29185,1,0,0:0:0:0:
384,256,29185,1,0,0:0:0:0:
384,160,29185,1,0,0:0:0:0:
416,256,29185,1,0,0:0:0:0:
96,192,29185,1,0,0:0:0:0:
416,256,29185,1,0,0:0:0:0:
128,224,29185,1,0,0:0:0:0:
416,224,29248,1,0,0:0:0:0:
416,192,29248,1,0,0:0:0:0:
192,96,29248,1,0,0:0:0:0:
320,288,29248,1,0,0:0:0:0:
288,128,29248,1,0,0:0:0:0:
160,256,29248,1,0,0:0:0:0:
416,160,29248,1,0,0:0:0:0:
192,288,29248,1,0,0:0:0:0:
384,128,29248,1,0,0:0:0:0:
224,320,29248,1,0,0:0:0:0:
224,192,29248,1,0,0:0:0:0:
192,192,29248,1,0,0:0:0:0:
352,128,29248,1,0,0:0:0:0:
256,320,29248,1,0,0:0:0:0:
192,192,29310,1,0,0:0:0:0:
128,160,29310,1,0,0:0:0:0:
128,160,29310,1,0,0:0:0:0:
320,160,29310,1,0,0:0:0:0:
256,256,29310,1,0,0:0:0:0:
288,160,29310,1,0,0:0:0:0:
288,160,29310,1,0,0:0:0:0:
288,160,29310,1,0,0:0:0:0:
288,160,29310,1,0,0:0:0:0:
224,96,29373,1,0,0:0:0:0:
288,128,29373,1,0,0:0:0:0:
64,256,29373,1,0,0:0:0:0:
288,96,29373,1,0,0:0:0:0:
64,320,29373,1,0,0:0:0:0:
256,96,29373,1,0,0:0:0:0:
448,256,29373,1,0,0:0:0:0:
224,192,29373,1,0,0:0:0:0:
224,96,29373,1,0,0:0:0:0:
192,96,29435,1,0,0:0:0:0:
384,160,29435,1,0,0:0:0:0:
384,160,29435,1,0,0:0:0:0:
160,96,29435,1,0,0:0:0:0:
128,96,29435,1,0,0:0:0:0:
128,128,29435,1,0,0:0:0:0:
96,160,29498,1,0,0:0:0:0:
96,192,29498,1,0,0:0:0:0:
384,288,29498,1,0,0:0:0:0:
224,160,29498,1,0,0:0:0:0:
128,224,29498,1,0,0:0:0:0:
256,128,29498,1,0,0:0:0:0:
192,192,29498,1,0,0:0:0:0:
192,192,29498,1,0,0:0:0:0:
192,192,29498,1,0,0:0:0:0:
160,256,29560,1,0,0:0:0:0:
160,128,29560,1,0,0:0:0:0:
160,128,29560,1,0,0:0:0:0:
160,128,29560,1,0,0:0:0:0:
160,128,29560,1,0,0:0:0:0:
160,128,29560,1,0,0:0:0:0:
384,320,29560,1,0,0:0:0:0:
224,96,29560,1,0,0:0:0:0:
192,128,29560,1,0,0:0:0:0:
192,128,29560,1,0,0:0:0:0:
224,96,29560,1,0,0:0:0:0:
224,96,29560,1,0,0:0:0:0:
160,224,29623,1,0,0:0:0:0:
224,128,29623,1,0,0:0:0:0:
224,128,29623,1,0,0:0:0:0:
224,128,29623,1,0,0:0:0:0:
224,128,29623,1,0,0:0:0:0:
224,128,29623,1,0,0:0:0:0:
224,128,29623,1,0,0:0:0:0:
192,96,29623,1,0,0:0:0:0:
224,192,29623,1,0,0:0:0:0:
224,192,29623,1,0,0:0:0:0:
224,192,29623,1,0,0:0:0:0:
224,160,29623,1,0,0:0:0:0:
224,160,29623,1,0,0:0:0:0:
256,192,29685,1,0,0:0:0:0:
256,192,29685,1,0,0:0:0:0:
128,192,29685,1,0,0:0:0:0:
224,224,29685,1,0,0:0:0:0:
224,224,29685,1,0,0:0:0:0:
224,192,29685,1,0,0:0:0:0:
256,256,29685,1,0,0:0:0:0:
256,256,29685,1,0,0:0:0:0:
256,256,29685,1,0,0:0:0:0:
256,256,29685,1,0,0:0:0:0:
128,160,29685,1,0,0:0:0:0:
224,96,29685,1,0,0:0:0:0:
256,256,29748,1,0,0:0:0:0:
256,256,29748,1,0,0:0:0:0:
288,224,29748,1,0,0:0:0:0:
288,224,29748,1,0,0:0:0:0:
192,192,29748,1,0,0:0:0:0:
160,128,29748,1,0,0:0:0:0:
160,128,29748,1,0,0:0:0:0:
160,128,29748,1,0,0:0:0:0:
160,128,29748,1,0,0:0:0:0:
224,160,29748,1,0,0:0:0:0:
320,224,29748,1,0,0:0:0:0:
160,128,29748,1,0,0:0:0:0:
320,224,29748,1,0,0:0:0:0:
64,352,29748,1,0,0:0:0:0:
288,128,29748,1,0,0:0:0:0:
352,256,29748,1,0,0:0:0:0:
192,128,29748,1,0,0:0:0:0:
192,128,29748,1,0,0:0:0:0:
352,256,29748,1,0,0:0:0:0:
352,224,29748,1,0,0:0:0:0:
224,128,29748,1,0,0:0:0:0:
352,224,29748,1,0,0:0:0:0:
224,128,29748,1,0,0:0:0:0:
352,224,29810,1,0,0:0:0:0:
224,128,29810,1,0,0:0:0:0:
224,128,29810,1,0,0:0:0:0:
352,224,29810,1,0,0:0:0:0:
160,128,29810,1,0,0:0:0:0:
224,128,29810,1,0,0:0:0:0:
160,128,29810,1,0,0:0:0:0:
224,128,29810,1,0,0:0:0:0:
160,128,29810,1,0,0:0:0:0:
352,192,29810,1,0,0:0:0:0:
352,192,29810,1,0,0:0:0:0:
352,192,29810,1,0,0:0:0:0:
448,256,29810,1,0,0:0:0:0:
352,192,29810,1,0,0:0:0:0:
192,128,29810,1,0,0:0:0:0:
352,192,29810,1,0,0:0:0:0:
224,160,29810,1,0,0:0:0:0:
352,192,29810,1,0,0:0:0:0:
224,160,29810,1,0,0:0:0:0:
160,224,29810,1,0,0:0:0:0:
224,128,29810,1,0,0:0:0:0:
384,192,29810,1,0,0:0:0:0:
384,192,29810,1,0,0:0:0:0:
160,224,29810,1,0,0:0:0:0:
160,224,29810,1,0,0:0:0:0:
384,192,29810,1,0,0:0:0:0:
256,192,29810,1,0,0:0:0:0:
224,128,29810,1,0,0:0:0:0:
256,192,29810,1,0,0:0:0:0:
384,192,29810,1,0,0:0:0:0:
224,128,29873,1,0,0:0:0:0:
384,192,29873,1,0,0:0:0:0:
384,192,29873,1,0,0:0:0:0:
384,192,29873,1,0,0:0:0:0:
64,320,29873,1,0,0:0:0:0:
384,192,29873,1,0,0:0:0:0:
128,192,29873,1,0,0:0:0:0:
224,224,29873,1,0,0:0:0:0:
224,224,29873,1,0,0:0:0:0:
384,192,29873,1,0,0:0:0:0:
384,224,29873,1,0,0:0:0:0:
224,160,29873,1,0,0:0:0:0:
384,224,29873,1,0,0:0:0:0:
160,128,29873,1,0,0:0:0:0:
256,256,29873,1,0,0:0:0:0:
256,256,29873,1,0,0:0:0:0:
256,192,29873,1,0,0:0:0:0:
384,256,29873,1,0,0:0:0:0:
256,256,29873,1,0,0:0:0:0:
384,256,29873,1,0,0:0:0:0:
256,256,29873,1,0,0:0:0:0:
256,256,29873,1,0,0:0:0:0:
256,256,29873,1,0,0:0:0:0:
416,256,29935,1,0,0:0:0:0:
416,256,29935,1,0,0:0:0:0:
416,256,29935,1,0,0:0:0:0:
288,224,29935,1,0,0:0:0:0:
288,224,29935,1,0,0:0:0:0:
224,224,29935,1,0,0:0:0:0:
416,256,29935,1,0,0:0:0:0:
192,96,29935,1,0,0:0:0:0:
416,224,29935,1,0,0:0:0:0:
320,224,29935,1,0,0:0:0:0:
416,224,29935,1,0,0:0:0:0:
320,224,29935,1,0,0:0:0:0:
256,256,29935,1,0,0:0:0:0:
256,128,29935,1,0,0:0:0:0:
416,192,29935,1,0,0:0:0:0:
256,256,29935,1,0,0:0:0:0:
352,256,29935,1,0,0:0:0:0:
416,192,29935,1,0,0:0:0:0:
352,256,29935,1,0,0:0:0:0:
288,128,29935,1,0,0:0:0:0:
224,96,29935,1,0,0:0:0:0:
256,256,29935,1,0,0:0:0:0:
128,160,29935,1,0,0:0:0:0:
224,96,29935,1,0,0:0:0:0:
224,96,29935,1,0,0:0:0:0:
416,160,29935,1,0,0:0:0:0:
352,224,29935,1,0,0:0:0:0:
352,224,29935,1,0,0:0:0:0:
416,160,29935,1,0,0:0:0:0:
288,224,29935,1,0,0:0:0:0:
352,224,29935,1,0,0:0:0:0:
352,224,29935,1,0,0:0:0:0:
384,128,29998,1,0,0:0:0:0:
384,128,29998,1,0,0:0:0:0:
224,160,29998,1,0,0:0:0:0:
96,160,29998,2,0,B|-32:160|192:192,2,160
320,224,29998,1,0,0:0:0:0:
352,192,29998,1,0,0:0:0:0:
352,192,29998,1,0,0:0:0:0:
224,160,29998,1,0,0:0:0:0:
224,160,29998,1,0,0:0:0:0:
352,128,29998,1,0,0:0:0:0:
352,128,29998,1,0,0:0:0:0:
352,192,29998,1,0,0:0:0:0:
352,192,29998,1,0,0:0:0:0:
352,256,29998,1,0,0:0:0:0:
352,192,29998,1,0,0:0:0:0:
256,192,29998,1,0,0:0:0:0:
352,192,29998,1,0,0:0:0:0:
128,160,29998,1,0,0:0:0:0:
352,224,29998,1,0,0:0:0:0:
320,160,29998,1,0,0:0:0:0:
384,192,29998,1,0,0:0:0:0:
384,192,29998,1,0,0:0:0:0:
320,160,29998,1,0,0:0:0:0:
352,224,29998,1,0,0:0:0:0:
384,192,29998,1,0,0:0:0:0:
384,192,29998,1,0,0:0:0:0:
288,160,29998,1,0,0:0:0:0:
384,192,29998,1,0,0:0:0:0:
288,160,29998,1,0,0:0:0:0:
384,192,29998,1,0,0:0:0:0:
96,160,29998,2,0,B|-32:160|192:192,2,160
352,192,30060,1,0,0:0:0:0:
288,160,30060,1,0,0:0:0:0:
384,192,30060,1,0,0:0:0:0:
384,192,30060,1,0,0:0:0:0:
288,160,30060,1,0,0:0:0:0:
288,160,30060,1,0,0:0:0:0:
352,192,30060,1,0,0:0:0:0:
288,160,30060,1,0,0:0:0:0:
384,224,30060,1,0,0:0:0:0:
384,224,30060,1,0,0:0:0:0:
288,160,30060,1,0,0:0:0:0:
352,192,30060,1,0,0:0:0:0:
288,160,30060,1,0,0:0:0:0:
128,192,30060,1,0,0:0:0:0:
384,192,30060,1,0,0:0:0:0:
288,128,30060,1,0,0:0:0:0:
288,128,30060,1,0,0:0:0:0:
384,192,30060,1,0,0:0:0:0:
384,256,30060,1,0,0:0:0:0:
384,256,30060,1,0,0:0:0:0:
64,256,30060,1,0,0:0:0:0:
288,96,30060,1,0,0:0:0:0:
384,192,30060,1,0,0:0:0:0:
288,96,30060,1,0,0:0:0:0:
384,192,30060,1,0,0:0:0:0:
416,256,30060,1,0,0:0:0:0:
416,256,30060,1,0,0:0:0:0:
256,96,30123,1,0,0:0:0:0:
416,256,30123,1,0,0:0:0:0:
416,256,30123,1,0,0:0:0:0:
256,96,30123,1,0,0:0:0:0:
384,224,30123,1,0,0:0:0:0:
384,192,30123,1,0,0:0:0:0:
224,96,30123,1,0,0:0:0:0:
416,224,30123,1,0,0:0:0:0:
416,224,30123,1,0,0:0:0:0:
224,96,30123,1,0,0:0:0:0:
416,192,30123,1,0,0:0:0:0:
416,192,30123,1,0,0:0:0:0:
384,256,30123,1,0,0:0:0:0:
192,96,30123,1,0,0:0:0:0:
192,96,30123,1,0,0:0:0:0:
384,160,30123,1,0,0:0:0:0:
512,192,30123,1,0,0:0:0:0:
416,256,30123,1,0,0:0:0:0:
416,160,30123,1,0,0:0:0:0:
416,160,30123,1,0,0:0:0:0:
160,96,30123,1,0,0:0:0:0:
160,96,30123,1,0,0:0:0:0:
128,160,30123,1,0,0:0:0:0:
416,256,30123,1,0,0:0:0:0:
384,128,30123,1,0,0:0:0:0:
128,192,30123,1,0,0:0:0:0:
128,96,30123,1,0,0:0:0:0:
384,128,30123,1,0,0:0:0:0:
128,96,30123,1,0,0:0:0:0:
416,224,30185,1,0,0:0:0:0:
352,128,30185,1,0,0:0:0:0:
352,128,30185,1,0,0:0:0:0:
128,128,30185,1,0,0:0:0:0:
128,128,30185,1,0,0:0:0:0:
416,192,30185,1,0,0:0:0:0:
320,288,30185,1,0,0:0:0:0:
96,160,30185,1,0,0:0:0:0:
256,192,30185,1,0,0:0:0:0:
96,160,30185,1,0,0:0:0:0:
416,160,30185,1,0,0:0:0:0:
320,160,30185,1,0,0:0:0:0:
320,160,30185,1,0,0:0:0:0:
128,160,30185,1,0,0:0:0:0:
384,128,30185,1,0,0:0:0:0:
96,192,30185,1,0,0:0:0:0:
288,160,30185,1,0,0:0:0:0:
288,160,30185,1,0,0:0:0:0:
96,192,30185,1,0,0:0:0:0:
224,192,30185,1,0,0:0:0:0:
288,160,30185,1,0,0:0:0:0:
288,160,30185,1,0,0:0:0:0:
192,192,30185,1,0,0:0:0:0:
96,160,30185,2,0,B|-32:160|192:192,2,160
352,128,30248,1,0,0:0:0:0:
128,224,30248,1,0,0:0:0:0:
288,160,30248,1,0,0:0:0:0:
128,224,30248,1,0,0:0:0:0:
288,160,30248,1,0,0:0:0:0:
192,192,30248,1,0,0:0:0:0:
192,192,30248,1,0,0:0:0:0:
192,192,30248,1,0,0:0:0:0:
288,160,30248,1,0,0:0:0:0:
288,160,30248,1,0,0:0:0:0:
192,192,30248,1,0,0:0:0:0:
192,96,30248,1,0,0:0:0:0:
128,160,30248,1,0,0:0:0:0:
320,160,30248,1,0,0:0:0:0:
160,256,30248,1,0,0:0:0:0:
288,128,30248,1,0,0:0:0:0:
288,128,30248,1,0,0:0:0:0:
160,256,30248,1,0,0:0:0:0:
288,128,30248,1,0,0:0:0:0:
288,160,30248,1,0,0:0:0:0:
288,96,30248,1,0,0:0:0:0:
288,96,30248,1,0,0:0:0:0:
288,160,30248,1,0,0:0:0:0:
288,160,30248,1,0,0:0:0:0:
256,96,30248,1,0,0:0:0:0:
256,96,30248,1,0,0:0:0:0:
288,160,30248,1,0,0:0:0:0:
224,96,30310,1,0,0:0:0:0:
384,320,30310,1,0,0:0:0:0:
224,96,30310,1,0,0:0:0:0:
224,96,30310,1,0,0:0:0:0:
384,192,30310,1,0,0:0:0:0:
288,128,30310,1,0,0:0:0:0:
160,128,30310,1,0,0:0:0:0:
192,96,30310,1,0,0:0:0:0:
192,96,30310,1,0,0:0:0:0:
256,256,30310,1,0,0:0:0:0:
288,96,30310,1,0,0:0:0:0:
256,256,30310,1,0,0:0:0:0:
128,32,30310,1,0,0:0:0:0:
160,96,30310,1,0,0:0:0:0:
160,96,30310,1,0,0:0:0:0:
256,96,30310,1,0,0:0:0:0:
128,96,30310,1,0,0:0:0:0:
448,256,30310,1,0,0:0:0:0:
128,96,30310,1,0,0:0:0:0:
224,192,30310,1,0,0:0:0:0:
224,96,30310,1,0,0:0:0:0:
384,192,30310,1,0,0:0:0:0:
128,128,30373,1,0,0:0:0:0:
128,128,30373,1,0,0:0:0:0:
192,96,30373,1,0,0:0:0:0:
96,160,30373,1,0,0:0:0:0:
96,160,30373,1,0,0:0:0:0:
384,160,30373,1,0,0:0:0:0:
160,96,30373,1,0,0:0:0:0:
128,160,30373,1,0,0:0:0:0:
128,96,30373,1,0,0:0:0:0:
96,192,30373,1,0,0:0:0:0:
96,192,30373,1,0,0:0:0:0:
128,128,30373,1,0,0:0:0:0:
128,224,30373,1,0,0:0:0:0:
128,224,30373,1,0,0:0:0:0:
224,192,30373,1,0,0:0:0:0:
96,160,30435,1,0,0:0:0:0:
160,256,30435,1,0,0:0:0:0:
160,256,30435,1,0,0:0:0:0:
128,160,30435,1,0,0:0:0:0:
96,192,30435,1,0,0:0:0:0:
192,288,30435,1,0,0:0:0:0:
192,288,30435,1,0,0:0:0:0:
384,288,30435,1,0,0:0:0:0:
128,224,30435,1,0,0:0:0:0:
224,320,30435,1,0,0:0:0:0:
224,320,30435,1,0,0:0:0:0:
256,128,30435,1,0,0:0:0:0:
256,320,30435,1,0,0:0:0:0:
256,320,30435,1,0,0:0:0:0:
192,192,30498,1,0,0:0:0:0:
160,256,30498,1,0,0:0:0:0:
128,160,30498,1,0,0:0:0:0:
256,192,30498,1,0,0:0:0:0:
256,192,30498,1,0,0:0:0:0:
288,288,30498,1,0,0:0:0:0:
288,288,30498,1,0,0:0:0:0:
256,256,30498,1,0,0:0:0:0:
256,256,30498,1,0,0:0:0:0:
160,128,30498,1,0,0:0:0:0:
160,128,30498,1,0,0:0:0:0:
160,128,30498,1,0,0:0:0:0:
160,128,30498,1,0,0:0:0:0:
160,128,30498,1,0,0:0:0:0:
448,256,30498,1,0,0:0:0:0:
192,128,30498,1,0,0:0:0:0:
192,128,30498,1,0,0:0:0:0:
224,320,30498,1,0,0:0:0:0:
224,96,30498,1,0,0:0:0:0:
384,192,30498,1,0,0:0:0:0:
160,224,30560,1,0,0:0:0:0:
224,128,30560,1,0,0:0:0:0:
224,128,30560,1,0,0:0:0:0:
224,128,30560,1,0,0:0:0:0:
224,128,30560,1,0,0:0:0:0:
384,160,30560,1,0,0:0:0:0:
224,128,30560,1,0,0:0:0:0:
224,128,30560,1,0,0:0:0:0:
224,192,30560,1,0,0:0:0:0:
224,160,30560,1,0,0:0:0:0:
224,160,30560,1,0,0:0:0:0:
256,192,30623,1,0,0:0:0:0:
256,192,30623,1,0,0:0:0:0:
384,160,30623,1,0,0:0:0:0:
224,224,30623,1,0,0:0:0:0:
224,224,30623,1,0,0:0:0:0:
192,96,30623,1,0,0:0:0:0:
192,96,30623,1,0,0:0:0:0:
256,256,30623,1,0,0:0:0:0:
256,256,30623,1,0,0:0:0:0:
256,128,30623,1,0,0:0:0:0:
256,256,30623,1,0,0:0:0:0:
192,96,30623,1,0,0:0:0:0:
256,256,30623,1,0,0:0:0:0:
224,96,30685,1,0,0:0:0:0:
192,192,30685,1,0,0:0:0:0:
256,256,30685,1,0,0:0:0:0:
256,256,30685,1,0,0:0:0:0:
128,160,30685,1,0,0:0:0:0:
288,224,30685,1,0,0:0:0:0:
288,224,30685,1,0,0:0:0:0:
224,160,30685,1,0,0:0:0:0:
160,128,30685,1,0,0:0:0:0:
320,224,30685,1,0,0:0:0:0:
320,224,30685,1,0,0:0:0:0:
160,128,30685,1,0,0:0:0:0:
224,192,30685,1,0,0:0:0:0:
224,192,30685,1,0,0:0:0:0:
160,128,30685,1,0,0:0:0:0:
352,256,30685,1,0,0:0:0:0:
352,256,30685,1,0,0:0:0:0:
192,192,30685,1,0,0:0:0:0:
192,128,30685,1,0,0:0:0:0:
224,96,30685,1,0,0:0:0:0:
352,224,30748,1,0,0:0:0:0:
352,224,30748,1,0,0:0:0:0:
352,224,30748,1,0,0:0:0:0:
352,224,30748,1,0,0:0:0:0:
224,128,30748,1,0,0:0:0:0:
224,128,30748,1,0,0:0:0:0:
352,192,30748,1,0,0:0:0:0:
352,192,30748,1,0,0:0:0:0:
224,128,30748,1,0,0:0:0:0:
352,192,30748,1,0,0:0:0:0:
352,192,30748,1,0,0:0:0:0:
352,192,30748,1,0,0:0:0:0:
352,192,30748,1,0,0:0:0:0:
224,192,30748,1,0,0:0:0:0:
224,160,30748,1,0,0:0:0:0:
224,96,30748,1,0,0:0:0:0:
384,192,30748,1,0,0:0:0:0:
384,192,30748,1,0,0:0:0:0:
160,224,30748,1,0,0:0:0:0:
384,192,30748,1,0,0:0:0:0:
384,192,30810,1,0,0:0:0:0:
384,192,30810,1,0,0:0:0:0:
384,192,30810,1,0,0:0:0:0:
256,192,30810,1,0,0:0:0:0:
384,160,30810,1,0,0:0:0:0:
384,192,30810,1,0,0:0:0:0:
384,192,30810,1,0,0:0:0:0:
64,320,30810,1,0,0:0:0:0:
384,224,30810,1,0,0:0:0:0:
384,224,30810,1,0,0:0:0:0:
192,96,30810,1,0,0:0:0:0:
192,96,30810,1,0,0:0:0:0:
224,224,30810,1,0,0:0:0:0:
224,192,30810,1,0,0:0:0:0:
448,256,30810,1,0,0:0:0:0:
448,256,30810,1,0,0:0:0:0:
160,128,30810,1,0,0:0:0:0:
384,256,30810,1,0,0:0:0:0:
384,256,30810,1,0,0:0:0:0:
256,256,30810,1,0,0:0:0:0:
256,256,30810,1,0,0:0:0:0:
416,256,30873,1,0,0:0:0:0:
416,256,30873,1,0,0:0:0:0:
256,256,30873,1,0,0:0:0:0:
416,256,30873,1,0,0:0:0:0:
416,256,30873,1,0,0:0:0:0:
192,96,30873,1,0,0:0:0:0:
128,192,30873,1,0,0:0:0:0:
288,224,30873,1,0,0:0:0:0:
128,192,30873,1,0,0:0:0:0:
416,224,30873,1,0,0:0:0:0:
416,224,30873,1,0,0:0:0:0:
320,224,30873,1,0,0:0:0:0:
64,352,30873,1,0,0:0:0:0:
416,192,30873,1,0,0:0:0:0:
416,192,30873,1,0,0:0:0:0:
320,288,30873,1,0,0:0:0:0:
352,256,30873,1,0,0:0:0:0:
224,96,30873,1,0,0:0:0:0:
192,192,30873,1,0,0:0:0:0:
416,160,30873,1,0,0:0:0:0:
416,160,30873,1,0,0:0:0:0:
352,224,30935,1,0,0:0:0:0:
384,128,30935,1,0,0:0:0:0:
384,128,30935,1,0,0:0:0:0:
352,224,30935,1,0,0:0:0:0:
224,160,30935,1,0,0:0:0:0:
160,128,30935,1,0,0:0:0:0:
352,128,30935,1,0,0:0:0:0:
352,128,30935,1,0,0:0:0:0:
352,192,30935,1,0,0:0:0:0:
352,192,30935,1,0,0:0:0:0:
256,128,30935,1,0,0:0:0:0:
256,128,30935,1,0,0:0:0:0:
352,192,30935,1,0,0:0:0:0:
288,128,30935,1,0,0:0:0:0:
320,160,30935,1,0,0:0:0:0:
288,128,30935,1,0,0:0:0:0:
288,128,30935,1,0,0:0:0:0:
320,160,30935,1,0,0:0:0:0:
192,128,30935,1,0,0:0:0:0:
288,128,30935,1,0,0:0:0:0:
224,96,30935,1,0,0:0:0:0:
384,192,30935,1,0,0:0:0:0:
160,224,30935,1,0,0:0:0:0:
288,160,30935,1,0,0:0:0:0:
288,160,30998,1,0,0:0:0:0:
384,192,30998,1,0,0:0:0:0:
96,160,30998,2,0,B|-32:160|192:192,2,160
288,160,30998,1,0,0:0:0:0:
384,192,30998,1,0,0:0:0:0:
288,160,30998,1,0,0:0:0:0:
288,160,30998,1,0,0:0:0:0:
384,192,30998,1,0,0:0:0:0:
288,160,30998,1,0,0:0:0:0:
288,160,30998,1,0,0:0:0:0:
288,160,30998,1,0,0:0:0:0:
384,224,30998,1,0,0:0:0:0:
224,192,30998,1,0,0:0:0:0:
288,128,30998,1,0,0:0:0:0:
224,160,30998,1,0,0:0:0:0:
160,128,30998,1,0,0:0:0:0:
288,128,30998,1,0,0:0:0:0:
160,224,30998,1,0,0:0:0:0:
288,96,30998,1,0,0:0:0:0:
384,256,30998,1,0,0:0:0:0:
288,96,30998,1,0,0:0:0:0:
256,192,30998,1,0,0:0:0:0:
256,96,31060,1,0,0:0:0:0:
416,256,31060,1,0,0:0:0:0:
256,96,31060,1,0,0:0:0:0:
416,256,31060,1,0,0:0:0:0:
128,192,31060,1,0,0:0:0:0:
224,96,31060,1,0,0:0:0:0:
224,224,31060,1,0,0:0:0:0:
224,96,31060,1,0,0:0:0:0:
416,224,31060,1,0,0:0:0:0:
192,96,31060,1,0,0:0:0:0:
128,192,31060,1,0,0:0:0:0:
128,192,31060,1,0,0:0:0:0:
192,96,31060,1,0,0:0:0:0:
416,192,31060,1,0,0:0:0:0:
160,96,31060,1,0,0:0:0:0:
160,96,31060,1,0,0:0:0:0:
256,256,31060,1,0,0:0:0:0:
224,96,31060,1,0,0:0:0:0:
416,160,31060,1,0,0:0:0:0:
128,96,31123,1,0,0:0:0:0:
128,192,31123,1,0,0:0:0:0:
128,96,31123,1,0,0:0:0:0:
384,128,31123,1,0,0:0:0:0:
128,128,31123,1,0,0:0:0:0:
128,128,31123,1,0,0:0:0:0:
224,160,31123,1,0,0:0:0:0:
352,128,31123,1,0,0:0:0:0:
64,352,31123,1,0,0:0:0:0:
96,160,31123,1,0,0:0:0:0:
96,160,31123,1,0,0:0:0:0:
288,128,31123,1,0,0:0:0:0:
288,128,31123,1,0,0:0:0:0:
352,256,31123,1,0,0:0:0:0:
128,160,31123,1,0,0:0:0:0:
224,96,31123,1,0,0:0:0:0:
320,160,31123,1,0,0:0:0:0:
96,192,31123,1,0,0:0:0:0:
96,192,31123,1,0,0:0:0:0:
352,224,31123,1,0,0:0:0:0:
384,288,31123,1,0,0:0:0:0:
288,160,31123,1,0,0:0:0:0:
96,160,31185,2,0,B|-32:160|192:192,2,160
128,224,31185,1,0,0:0:0:0:
128,224,31185,1,0,0:0:0:0:
288,160,31185,1,0,0:0:0:0:
192,192,31185,1,0,0:0:0:0:
192,192,31185,1,0,0:0:0:0:
224,160,31185,1,0,0:0:0:0:
288,160,31185,1,0,0:0:0:0:
192,96,31185,1,0,0:0:0:0:
352,192,31185,1,0,0:0:0:0:
288,160,31185,1,0,0:0:0:0:
160,256,31185,1,0,0:0:0:0:
288,128,31185,1,0,0:0:0:0:
160,256,31185,1,0,0:0:0:0:
352,192,31185,1,0,0:0:0:0:
256,192,31185,1,0,0:0:0:0:
256,192,31185,1,0,0:0:0:0:
256,192,31185,1,0,0:0:0:0:
256,192,31185,1,0,0:0:0:0:
288,128,31185,1,0,0:0:0:0:
384,192,31185,1,0,0:0:0:0:
160,224,31185,1,0,0:0:0:0:
384,192,31185,1,0,0:0:0:0:
288,96,31185,1,0,0:0:0:0:
384,192,31185,1,0,0:0:0:0:
96,160,31185,2,0,B|-32:160|192:192,2,160
384,192,31248,1,0,0:0:0:0:
256,96,31248,1,0,0:0:0:0:
384,224,31248,1,0,0:0:0:0:
224,96,31248,1,0,0:0:0:0:
256,256,31248,1,0,0:0:0:0:
256,256,31248,1,0,0:0:0:0:
192,96,31248,1,0,0:0:0:0:
384,256,31248,1,0,0:0:0:0:
64,256,31248,1,0,0:0:0:0:
64,256,31248,1,0,0:0:0:0:
512,192,31248,1,0,0:0:0:0:
160,96,31248,1,0,0:0:0:0:
416,256,31248,1,0,0:0:0:0:
416,256,31310,1,0,0:0:0:0:
128,96,31310,1,0,0:0:0:0:
384,192,31310,1,0,0:0:0:0:
416,224,31310,1,0,0:0:0:0:
128,128,31310,1,0,0:0:0:0:
160,128,31310,1,0,0:0:0:0:
160,128,31310,1,0,0:0:0:0:
416,192,31310,1,0,0:0:0:0:
96,160,31310,1,0,0:0:0:0:
128,160,31310,1,0,0:0:0:0:
416,160,31310,1,0,0:0:0:0:
96,192,31310,1,0,0:0:0:0:
384,128,31310,1,0,0:0:0:0:
128,224,31373,1,0,0:0:0:0:
192,192,31373,1,0,0:0:0:0:
352,128,31373,1,0,0:0:0:0:
192,96,31373,1,0,0:0:0:0:
256,192,31373,1,0,0:0:0:0:
256,192,31373,1,0,0:0:0:0:
160,256,31373,1,0,0:0:0:0:
320,160,31373,1,0,0:0:0:0:
128,160,31373,1,0,0:0:0:0:
192,288,31373,1,0,0:0:0:0:
288,160,31373,1,0,0:0:0:0:
160,128,31373,1,0,0:0:0:0:
160,128,31373,1,0,0:0:0:0:
160,128,31373,1,0,0:0:0:0:
192,192,31373,1,0,0:0:0:0:
224,192,31435,1,0,0:0:0:0:
160,128,31435,1,0,0:0:0:0:
224,192,31435,1,0,0:0:0:0:
224,192,31435,1,0,0:0:0:0:
160,128,31435,1,0,0:0:0:0:
224,192,31435,1,0,0:0:0:0:
256,320,31435,1,0,0:0:0:0:
128,160,31435,1,0,0:0:0:0:
256,192,31435,1,0,0:0:0:0:
256,192,31435,1,0,0:0:0:0:
192,128,31435,1,0,0:0:0:0:
192,128,31435,1,0,0:0:0:0:
288,288,31435,1,0,0:0:0:0:
224,128,31435,1,0,0:0:0:0:
224,128,31435,1,0,0:0:0:0:
128,32,31435,1,0,0:0:0:0:
224,128,31435,1,0,0:0:0:0:
224,128,31435,1,0,0:0:0:0:
224,128,31435,1,0,0:0:0:0:
224,128,31435,1,0,0:0:0:0:
256,96,31435,1,0,0:0:0:0:
384,192,31498,1,0,0:0:0:0:
384,320,31498,1,0,0:0:0:0:
224,160,31498,1,0,0:0:0:0:
224,160,31498,1,0,0:0:0:0:
192,96,31498,1,0,0:0:0:0:
256,192,31498,1,0,0:0:0:0:
256,192,31498,1,0,0:0:0:0:
512,192,31498,1,0,0:0:0:0:
160,96,31498,1,0,0:0:0:0:
64,320,31498,1,0,0:0:0:0:
224,224,31498,1,0,0:0:0:0:
224,224,31498,1,0,0:0:0:0:
448,256,31498,1,0,0:0:0:0:
448,256,31498,1,0,0:0:0:0:
448,256,31498,1,0,0:0:0:0:
448,256,31498,1,0,0:0:0:0:
384,192,31498,1,0,0:0:0:0:
128,128,31560,1,0,0:0:0:0:
256,256,31560,1,0,0:0:0:0:
256,256,31560,1,0,0:0:0:0:
384,160,31560,1,0,0:0:0:0:
256,256,31560,1,0,0:0:0:0:
256,256,31560,1,0,0:0:0:0:
256,256,31560,1,0,0:0:0:0:
256,256,31560,1,0,0:0:0:0:
128,160,31560,1,0,0:0:0:0:
192,96,31560,1,0,0:0:0:0:
288,224,31560,1,0,0:0:0:0:
192,96,31560,1,0,0:0:0:0:
288,224,31560,1,0,0:0:0:0:
320,224,31560,1,0,0:0:0:0:
224,192,31560,1,0,0:0:0:0:
320,224,31560,1,0,0:0:0:0:
224,192,31560,1,0,0:0:0:0:
192,192,31560,1,0,0:0:0:0:
352,256,31623,1,0,0:0:0:0:
352,256,31623,1,0,0:0:0:0:
128,160,31623,1,0,0:0:0:0:
160,256,31623,1,0,0:0:0:0:
352,224,31623,1,0,0:0:0:0:
352,224,31623,1,0,0:0:0:0:
352,224,31623,1,0,0:0:0:0:
352,224,31623,1,0,0:0:0:0:
96,160,31623,2,0,B|-32:160|192:192,2,160
224,192,31623,1,0,0:0:0:0:
224,192,31623,1,0,0:0:0:0:
352,192,31623,1,0,0:0:0:0:
352,192,31623,1,0,0:0:0:0:
352,192,31623,1,0,0:0:0:0:
352,192,31623,1,0,0:0:0:0:
192,192,31623,1,0,0:0:0:0:
352,192,31623,1,0,0:0:0:0:
256,128,31623,1,0,0:0:0:0:
256,128,31623,1,0,0:0:0:0:
256,128,31623,1,0,0:0:0:0:
352,192,31685,1,0,0:0:0:0:
256,128,31685,1,0,0:0:0:0:
192,96,31685,1,0,0:0:0:0:
192,96,31685,1,0,0:0:0:0:
128,160,31685,1,0,0:0:0:0:
384,192,31685,1,0,0:0:0:0:
384,192,31685,1,0,0:0:0:0:
384,192,31685,1,0,0:0:0:0:
384,192,31685,1,0,0:0:0:0:
128,32,31685,1,0,0:0:0:0:
384,192,31685,1,0,0:0:0:0:
384,192,31685,1,0,0:0:0:0:
160,128,31685,1,0,0:0:0:0:
384,192,31685,1,0,0:0:0:0:
384,192,31685,1,0,0:0:0:0:
160,128,31685,1,0,0:0:0:0:
384,224,31685,1,0,0:0:0:0:
448,256,31685,1,0,0:0:0:0:
384,224,31685,1,0,0:0:0:0:
224,96,31685,1,0,0:0:0:0:
384,192,31685,1,0,0:0:0:0:
384,256,31748,1,0,0:0:0:0:
384,256,31748,1,0,0:0:0:0:
384,160,31748,1,0,0:0:0:0:
416,256,31748,1,0,0:0:0:0:
416,256,31748,1,0,0:0:0:0:
416,256,31748,1,0,0:0:0:0:
416,256,31748,1,0,0:0:0:0:
224,192,31748,1,0,0:0:0:0:
448,256,31748,1,0,0:0:0:0:
448,256,31748,1,0,0:0:0:0:
192,96,31748,1,0,0:0:0:0:
416,224,31748,1,0,0:0:0:0:
416,224,31748,1,0,0:0:0:0:
416,192,31810,1,0,0:0:0:0:
416,192,31810,1,0,0:0:0:0:
416,160,31810,1,0,0:0:0:0:
416,160,31810,1,0,0:0:0:0:
128,160,31810,1,0,0:0:0:0:
128,192,31810,1,0,0:0:0:0:
128,192,31810,1,0,0:0:0:0:
384,128,31810,1,0,0:0:0:0:
384,128,31810,1,0,0:0:0:0:
352,128,31810,1,0,0:0:0:0:
352,128,31810,1,0,0:0:0:0:
256,128,31810,1,0,0:0:0:0:
256,128,31810,1,0,0:0:0:0:
192,192,31810,1,0,0:0:0:0:
128,160,31873,1,0,0:0:0:0:
320,160,31873,1,0,0:0:0:0:
320,160,31873,1,0,0:0:0:0:
288,160,31873,1,0,0:0:0:0:
288,160,31873,1,0,0:0:0:0:
288,160,31873,1,0,0:0:0:0:
288,160,31873,1,0,0:0:0:0:
96,160,31873,2,0,B|-32:160|192:192,2,160
288,160,31873,1,0,0:0:0:0:
288,160,31873,1,0,0:0:0:0:
256,128,31873,1,0,0:0:0:0:
256,128,31873,1,0,0:0:0:0:
288,160,31873,1,0,0:0:0:0:
288,160,31873,1,0,0:0:0:0:
288,128,31873,1,0,0:0:0:0:
288,128,31873,1,0,0:0:0:0:
288,128,31873,1,0,0:0:0:0:
288,128,31873,1,0,0:0:0:0:
224,96,31873,1,0,0:0:0:0:
288,128,31873,1,0,0:0:0:0:
288,128,31873,1,0,0:0:0:0:
288,96,31935,1,0,0:0:0:0:
288,96,31935,1,0,0:0:0:0:
256,96,31935,1,0,0:0:0:0:
256,96,31935,1,0,0:0:0:0:
224,192,31935,1,0,0:0:0:0:
224,96,31935,1,0,0:0:0:0:
224,96,31935,1,0,0:0:0:0:
384,192,31935,1,0,0:0:0:0:
128,192,31935,1,0,0:0:0:0:
128,192,31935,1,0,0:0:0:0:
160,224,31935,1,0,0:0:0:0:
192,96,31935,1,0,0:0:0:0:
192,96,31935,1,0,0:0:0:0:
384,160,31998,1,0,0:0:0:0:
160,96,31998,1,0,0:0:0:0:
160,96,31998,1,0,0:0:0:0:
128,96,31998,1,0,0:0:0:0:
128,96,31998,1,0,0:0:0:0:
192,96,31998,1,0,0:0:0:0:
128,128,31998,1,0,0:0:0:0:
128,192,31998,1,0,0:0:0:0:
128,192,31998,1,0,0:0:0:0:
128,128,31998,1,0,0:0:0:0:
96,160,31998,1,0,0:0:0:0:
96,160,31998,1,0,0:0:0:0:
128,160,32060,1,0,0:0:0:0:
96,192,32060,1,0,0:0:0:0:
96,192,32060,1,0,0:0:0:0:
128,224,32060,1,0,0:0:0:0:
128,224,32060,1,0,0:0:0:0:
64,352,32060,1,0,0:0:0:0:
320,288,32060,1,0,0:0:0:0:
320,288,32060,1,0,0:0:0:0:
224,96,32060,1,0,0:0:0:0:
192,192,32060,1,0,0:0:0:0:
160,256,32060,1,0,0:0:0:0:
160,256,32060,1,0,0:0:0:0:
128,160,32060,1,0,0:0:0:0:
192,288,32123,1,0,0:0:0:0:
192,288,32123,1,0,0:0:0:0:
224,160,32123,1,0,0:0:0:0:
160,128,32123,1,0,0:0:0:0:
224,320,32123,1,0,0:0:0:0:
224,320,32123,1,0,0:0:0:0:
160,128,32123,1,0,0:0:0:0:
160,128,32123,1,0,0:0:0:0:
256,320,32123,1,0,0:0:0:0:
256,320,32123,1,0,0:0:0:0:
256,192,32123,1,0,0:0:0:0:
256,192,32123,1,0,0:0:0:0:
256,192,32123,1,0,0:0:0:0:
192,128,32123,1,0,0:0:0:0:
256,192,32123,1,0,0:0:0:0:
192,128,32123,1,0,0:0:0:0:
224,96,32123,1,0,0:0:0:0:
288,288,32123,1,0,0:0:0:0:
288,288,32123,1,0,0:0:0:0:
160,224,32123,1,0,0:0:0:0:
256,256,32123,1,0,0:0:0:0:
256,256,32123,1,0,0:0:0:0:
224,128,32185,1,0,0:0:0:0:
224,128,32185,1,0,0:0:0:0:
96,160,32185,2,0,B|-32:160|192:192,2,160
224,128,32185,1,0,0:0:0:0:
224,128,32185,1,0,0:0:0:0:
224,192,32185,1,0,0:0:0:0:
224,160,32185,1,0,0:0:0:0:
224,160,32185,1,0,0:0:0:0:
384,192,32185,1,0,0:0:0:0:
160,128,32185,1,0,0:0:0:0:
160,128,32185,1,0,0:0:0:0:
256,192,32185,1,0,0:0:0:0:
256,192,32185,1,0,0:0:0:0:
64,256,32185,1,0,0:0:0:0:
384,160,32185,1,0,0:0:0:0:
224,224,32248,1,0,0:0:0:0:
224,224,32248,1,0,0:0:0:0:
160,128,32248,1,0,0:0:0:0:
160,128,32248,1,0,0:0:0:0:
256,256,32248,1,0,0:0:0:0:
256,256,32248,1,0,0:0:0:0:
256,256,32248,1,0,0:0:0:0:
256,256,32248,1,0,0:0:0:0:
224,96,32248,1,0,0:0:0:0:
256,256,32248,1,0,0:0:0:0:
256,256,32248,1,0,0:0:0:0:
288,224,32310,1,0,0:0:0:0:
288,224,32310,1,0,0:0:0:0:
224,160,32310,1,0,0:0:0:0:
320,224,32310,1,0,0:0:0:0:
320,224,32310,1,0,0:0:0:0:
64,352,32310,1,0,0:0:0:0:
352,256,32310,1,0,0:0:0:0:
352,256,32310,1,0,0:0:0:0:
192,192,32310,1,0,0:0:0:0:
288,128,32310,1,0,0:0:0:0:
256,192,32310,1,0,0:0:0:0:
128,160,32310,1,0,0:0:0:0:
128,160,32310,1,0,0:0:0:0:
352,224,32310,1,0,0:0:0:0:
352,224,32310,1,0,0:0:0:0:
352,224,32310,1,0,0:0:0:0:
384,288,32310,1,0,0:0:0:0:
352,224,32310,1,0,0:0:0:0:
192,192,32373,1,0,0:0:0:0:
160,128,32373,1,0,0:0:0:0:
224,192,32373,1,0,0:0:0:0:
224,192,32373,1,0,0:0:0:0:
224,192,32373,1,0,0:0:0:0:
352,192,32373,1,0,0:0:0:0:
224,192,32373,1,0,0:0:0:0:
352,192,32373,1,0,0:0:0:0:
352,192,32373,1,0,0:0:0:0:
352,192,32373,1,0,0:0:0:0:
352,192,32373,1,0,0:0:0:0:
352,192,32373,1,0,0:0:0:0:
192,128,32373,1,0,0:0:0:0:
224,96,32373,1,0,0:0:0:0:
384,192,32373,1,0,0:0:0:0:
384,192,32373,1,0,0:0:0:0:
160,224,32373,1,0,0:0:0:0:
384,192,32373,1,0,0:0:0:0:
384,192,32373,1,0,0:0:0:0:
384,192,32373,1,0,0:0:0:0:
384,192,32373,1,0,0:0:0:0:
384,192,32373,1,0,0:0:0:0:
384,192,32373,1,0,0:0:0:0:
384,224,32435,1,0,0:0:0:0:
384,224,32435,1,0,0:0:0:0:
224,192,32435,1,0,0:0:0:0:
224,160,32435,1,0,0:0:0:0:
384,320,32435,1,0,0:0:0:0:
384,256,32435,1,0,0:0:0:0:
384,256,32435,1,0,0:0:0:0:
512,192,32435,1,0,0:0:0:0:
256,192,32435,1,0,0:0:0:0:
64,256,32435,1,0,0:0:0:0:
384,160,32435,1,0,0:0:0:0:
416,256,32435,1,0,0:0:0:0:
416,256,32435,1,0,0:0:0:0:
416,256,32435,1,0,0:0:0:0:
416,256,32435,1,0,0:0:0:0:
448,256,32498,1,0,0:0:0:0:
448,256,32498,1,0,0:0:0:0:
448,256,32498,1,0,0:0:0:0:
192,96,32498,1,0,0:0:0:0:
448,256,32498,1,0,0:0:0:0:
192,96,32498,1,0,0:0:0:0:
384,192,32498,1,0,0:0:0:0:
416,224,32498,1,0,0:0:0:0:
416,224,32498,1,0,0:0:0:0:
416,192,32498,1,0,0:0:0:0:
416,192,32498,1,0,0:0:0:0:
256,256,32498,1,0,0:0:0:0:
224,96,32498,1,0,0:0:0:0:
416,160,32498,1,0,0:0:0:0:
416,160,32498,1,0,0:0:0:0:
128,160,32498,1,0,0:0:0:0:
384,128,32498,1,0,0:0:0:0:
384,128,32498,1,0,0:0:0:0:
224,160,32560,1,0,0:0:0:0:
192,192,32560,1,0,0:0:0:0:
352,128,32560,1,0,0:0:0:0:
352,128,32560,1,0,0:0:0:0:
224,192,32560,1,0,0:0:0:0:
64,352,32560,1,0,0:0:0:0:
352,256,32560,1,0,0:0:0:0:
192,192,32560,1,0,0:0:0:0:
320,160,32560,1,0,0:0:0:0:
320,160,32560,1,0,0:0:0:0:
352,224,32560,1,0,0:0:0:0:
288,160,32560,1,0,0:0:0:0:
288,160,32560,1,0,0:0:0:0:
288,160,32560,1,0,0:0:0:0:
288,160,32560,1,0,0:0:0:0:
288,160,32560,1,0,0:0:0:0:
288,160,32560,1,0,0:0:0:0:
256,128,32623,1,0,0:0:0:0:
256,128,32623,1,0,0:0:0:0:
256,128,32623,1,0,0:0:0:0:
288,160,32623,1,0,0:0:0:0:
256,128,32623,1,0,0:0:0:0:
288,160,32623,1,0,0:0:0:0:
192,96,32623,1,0,0:0:0:0:
192,96,32623,1,0,0:0:0:0:
352,192,32623,1,0,0:0:0:0:
128,160,32623,1,0,0:0:0:0:
288,128,32623,1,0,0:0:0:0:
288,128,32623,1,0,0:0:0:0:
224,96,32623,1,0,0:0:0:0:
384,192,32623,1,0,0:0:0:0:
160,224,32623,1,0,0:0:0:0:
288,96,32623,1,0,0:0:0:0:
288,96,32623,1,0,0:0:0:0:
160,128,32623,1,0,0:0:0:0:
160,128,32623,1,0,0:0:0:0:
384,192,32623,1,0,0:0:0:0:
256,96,32623,1,0,0:0:0:0:
256,96,32623,1,0,0:0:0:0:
224,96,32685,1,0,0:0:0:0:
224,96,32685,1,0,0:0:0:0:
224,96,32685,1,0,0:0:0:0:
384,192,32685,1,0,0:0:0:0:
384,320,32685,1,0,0:0:0:0:
192,96,32685,1,0,0:0:0:0:
192,96,32685,1,0,0:0:0:0:
384,256,32685,1,0,0:0:0:0:
512,192,32685,1,0,0:0:0:0:
160,96,32685,1,0,0:0:0:0:
160,96,32685,1,0,0:0:0:0:
416,256,32685,1,0,0:0:0:0:
128,96,32685,1,0,0:0:0:0:
128,192,32685,1,0,0:0:0:0:
128,96,32685,1,0,0:0:0:0:
128,192,32685,1,0,0:0:0:0:
128,128,32685,1,0,0:0:0:0:
128,128,32685,1,0,0:0:0:0:
96,160,32748,1,0,0:0:0:0:
96,160,32748,1,0,0:0:0:0:
224,96,32748,1,0,0:0:0:0:
416,160,32748,1,0,0:0:0:0:
96,192,32748,1,0,0:0:0:0:
96,192,32748,1,0,0:0:0:0:
384,128,32748,1,0,0:0:0:0:
128,224,32748,1,0,0:0:0:0:
128,224,32748,1,0,0:0:0:0:
224,160,32748,1,0,0:0:0:0:
352,128,32748,1,0,0:0:0:0:
224,192,32748,1,0,0:0:0:0:
64,352,32748,1,0,0:0:0:0:
256,128,32810,1,0,0:0:0:0:
160,256,32810,1,0,0:0:0:0:
288,128,32810,1,0,0:0:0:0:
288,128,32810,1,0,0:0:0:0:
288,128,32810,1,0,0:0:0:0:
160,256,32810,1,0,0:0:0:0:
288,128,32810,1,0,0:0:0:0:
128,160,32810,1,0,0:0:0:0:
320,160,32810,1,0,0:0:0:0:
192,288,32810,1,0,0:0:0:0:
192,288,32810,1,0,0:0:0:0:
288,160,32810,1,0,0:0:0:0:
224,320,32810,1,0,0:0:0:0:
224,320,32810,1,0,0:0:0:0:
288,160,32810,1,0,0:0:0:0:
256,320,32810,1,0,0:0:0:0:
256,320,32810,1,0,0:0:0:0:
288,288,32873,1,0,0:0:0:0:
288,128,32873,1,0,0:0:0:0:
288,288,32873,1,0,0:0:0:0:
256,256,32873,1,0,0:0:0:0:
256,256,32873,1,0,0:0:0:0:
256,256,32873,1,0,0:0:0:0:
160,224,32873,1,0,0:0:0:0:
288,96,32873,1,0,0:0:0:0:
256,96,32873,1,0,0:0:0:0:
224,96,32873,1,0,0:0:0:0:
128,192,32873,1,0,0:0:0:0:
192,96,32935,1,0,0:0:0:0:
64,256,32935,1,0,0:0:0:0:
64,256,32935,1,0,0:0:0:0:
64,256,32935,1,0,0:0:0:0:
64,256,32935,1,0,0:0:0:0:
512,192,32935,1,0,0:0:0:0:
384,160,32935,1,0,0:0:0:0:
160,96,32935,1,0,0:0:0:0:
128,96,32935,1,0,0:0:0:0:
128,128,32935,1,0,0:0:0:0:
96,160,32998,1,0,0:0:0:0:
224,96,32998,1,0,0:0:0:0:
96,192,32998,1,0,0:0:0:0:
128,224,32998,1,0,0:0:0:0:
192,192,32998,1,0,0:0:0:0:
224,160,32998,1,0,0:0:0:0:
256,128,32998,1,0,0:0:0:0:
320,288,32998,1,0,0:0:0:0:
192,192,32998,1,0,0:0:0:0:
256,192,32998,1,0,0:0:0:0:
256,192,32998,1,0,0:0:0:0:
256,192,32998,1,0,0:0:0:0:
160,256,33060,1,0,0:0:0:0:
256,192,33060,1,0,0:0:0:0:
192,288,33060,1,0,0:0:0:0:
224,320,33060,1,0,0:0:0:0:
256,320,33060,1,0,0:0:0:0:
224,96,33060,1,0,0:0:0:0:
288,288,33060,1,0,0:0:0:0:
256,256,33123,1,0,0:0:0:0:
128,32,33123,1,0,0:0:0:0:
224,192,33123,1,0,0:0:0:0:
384,320,33123,1,0,0:0:0:0:
384,320,33123,1,0,0:0:0:0:
384,320,33123,1,0,0:0:0:0:
384,320,33123,1,0,0:0:0:0:
128,192,33123,1,0,0:0:0:0:
160,128,33123,1,0,0:0:0:0:
512,192,33185,1,0,0:0:0:0:
192,96,33185,1,0,0:0:0:0:
192,96,33185,1,0,0:0:0:0:
192,96,33185,1,0,0:0:0:0:
224,192,33248,1,0,0:0:0:0:
224,192,33248,1,0,0:0:0:0:
224,192,33248,1,0,0:0:0:0:
224,192,33248,1,0,0:0:0:0:
64,352,33248,1,0,0:0:0:0:
192,192,33248,1,0,0:0:0:0:
320,288,33248,1,0,0:0:0:0:
384,288,33310,1,0,0:0:0:0:
160,224,33310,1,0,0:0:0:0:
128,32,33310,1,0,0:0:0:0:
128,32,33310,1,0,0:0:0:0:
448,256,33373,1,0,0:0:0:0:
448,256,33373,1,0,0:0:0:0:
448,256,33373,1,0,0:0:0:0:
448,256,33373,1,0,0:0:0:0:
224,320,33373,1,0,0:0:0:0:
160,128,33373,1,0,0:0:0:0:
128,192,33435,1,0,0:0:0:0:
128,192,33435,1,0,0:0:0:0:
128,192,33435,1,0,0:0:0:0:
192,96,33435,1,0,0:0:0:0:
224,96,33435,1,0,0:0:0:0:
224,160,33498,1,0,0:0:0:0:
256,128,33498,1,0,0:0:0:0:
256,128,33498,1,0,0:0:0:0:
256,128,33498,1,0,0:0:0:0:
256,128,33498,1,0,0:0:0:0:
288,128,33498,1,0,0:0:0:0:
288,128,33498,1,0,0:0:0:0:
288,128,33498,1,0,0:0:0:0:
288,128,33498,1,0,0:0:0:0:
288,128,33498,1,0,0:0:0:0:
192,96,33498,1,0,0:0:0:0:
384,288,33498,1,0,0:0:0:0:
160,128,33560,1,0,0:0:0:0:
160,128,33560,1,0,0:0:0:0:
160,128,33560,1,0,0:0:0:0:
192,128,33560,1,0,0:0:0:0:
224,128,33560,1,0,0:0:0:0:
224,128,33560,1,0,0:0:0:0:
224,128,33560,1,0,0:0:0:0:
128,192,33623,1,0,0:0:0:0:
128,192,33623,1,0,0:0:0:0:
128,192,33623,1,0,0:0:0:0:
224,160,33623,1,0,0:0:0:0:
128,192,33623,1,0,0:0:0:0:
64,256,33623,1,0,0:0:0:0:
64,256,33623,1,0,0:0:0:0:
64,256,33623,1,0,0:0:0:0:
64,256,33623,1,0,0:0:0:0:
64,256,33623,1,0,0:0:0:0:
512,192,33623,1,0,0:0:0:0:
256,192,33623,1,0,0:0:0:0:
64,320,33623,1,0,0:0:0:0:
128,192,33623,1,0,0:0:0:0:
224,224,33685,1,0,0:0:0:0:
256,256,33685,1,0,0:0:0:0:
256,256,33685,1,0,0:0:0:0:
256,256,33685,1,0,0:0:0:0:
288,224,33685,1,0,0:0:0:0:
192,192,33748,1,0,0:0:0:0:
320,224,33748,1,0,0:0:0:0:
320,288,33748,1,0,0:0:0:0:
320,288,33748,1,0,0:0:0:0:
320,288,33748,1,0,0:0:0:0:
320,288,33748,1,0,0:0:0:0:
256,192,33748,1,0,0:0:0:0:
256,192,33748,1,0,0:0:0:0:
256,192,33748,1,0,0:0:0:0:
288,128,33748,1,0,0:0:0:0:
256,192,33748,1,0,0:0:0:0:
256,192,33748,1,0,0:0:0:0:
352,256,33748,1,0,0:0:0:0:
352,224,33748,1,0,0:0:0:0:
352,224,33748,1,0,0:0:0:0:
352,192,33748,1,0,0:0:0:0:
352,192,33810,1,0,0:0:0:0:
352,192,33810,1,0,0:0:0:0:
384,192,33810,1,0,0:0:0:0:
128,32,33810,1,0,0:0:0:0:
384,192,33810,1,0,0:0:0:0:
384,192,33810,1,0,0:0:0:0:
384,192,33810,1,0,0:0:0:0:
384,320,33873,1,0,0:0:0:0:
384,320,33873,1,0,0:0:0:0:
384,320,33873,1,0,0:0:0:0:
384,224,33873,1,0,0:0:0:0:
384,320,33873,1,0,0:0:0:0:
160,128,33873,1,0,0:0:0:0:
160,128,33873,1,0,0:0:0:0:
160,128,33873,1,0,0:0:0:0:
160,128,33873,1,0,0:0:0:0:
64,256,33873,1,0,0:0:0:0:
384,256,33873,1,0,0:0:0:0:
416,256,33873,1,0,0:0:0:0:
416,256,33873,1,0,0:0:0:0:
416,224,33873,1,0,0:0:0:0:
416,192,33935,1,0,0:0:0:0:
416,160,33935,1,0,0:0:0:0:
384,128,33935,1,0,0:0:0:0:
224,192,33935,1,0,0:0:0:0:
224,192,33935,1,0,0:0:0:0:
224,192,33935,1,0,0:0:0:0:
224,192,33935,1,0,0:0:0:0:
224,192,33935,1,0,0:0:0:0:
352,128,33935,1,0,0:0:0:0:
256,192,33998,1,0,0:0:0:0:
320,160,33998,1,0,0:0:0:0:
384,288,33998,1,0,0:0:0:0:
384,288,33998,1,0,0:0:0:0:
384,288,33998,1,0,0:0:0:0:
384,288,33998,1,0,0:0:0:0:
288,160,33998,1,0,0:0:0:0:
288,160,33998,1,0,0:0:0:0:
288,160,33998,1,0,0:0:0:0:
288,160,33998,1,0,0:0:0:0:
288,128,34060,1,0,0:0:0:0:
288,96,34060,1,0,0:0:0:0:
256,96,34060,1,0,0:0:0:0:
448,256,34060,1,0,0:0:0:0:
448,256,34060,1,0,0:0:0:0:
448,256,34060,1,0,0:0:0:0:
448,256,34060,1,0,0:0:0:0:
448,256,34060,1,0,0:0:0:0:
384,320,34060,1,0,0:0:0:0:
224,96,34060,1,0,0:0:0:0:
192,96,34123,1,0,0:0:0:0:
160,96,34123,1,0,0:0:0:0:
128,96,34123,1,0,0:0:0:0:
128,128,34123,1,0,0:0:0:0:
96,160,34185,1,0,0:0:0:0:
96,192,34185,1,0,0:0:0:0:
224,192,34185,1,0,0:0:0:0:
128,224,34185,1,0,0:0:0:0:
256,128,34185,1,0,0:0:0:0:
256,128,34185,1,0,0:0:0:0:
256,128,34185,1,0,0:0:0:0:
256,128,34185,1,0,0:0:0:0:
256,128,34185,1,0,0:0:0:0:
160,256,34248,1,0,0:0:0:0:
192,288,34248,1,0,0:0:0:0:
96,160,34248,2,0,B|-32:160|192:192,2,160
224,320,34248,1,0,0:0:0:0:
256,320,34248,1,0,0:0:0:0:
288,288,34248,1,0,0:0:0:0:
256,256,34310,1,0,0:0:0:0:
448,256,34310,1,0,0:0:0:0:
128,192,34310,1,0,0:0:0:0:
128,192,34310,1,0,0:0:0:0:
128,192,34310,1,0,0:0:0:0:
128,192,34310,1,0,0:0:0:0:
128,192,34310,1,0,0:0:0:0:
128,160,34435,1,0,0:0:0:0:
320,288,34435,1,0,0:0:0:0:
320,288,34435,1,0,0:0:0:0:
320,288,34435,1,0,0:0:0:0:
256,128,34435,1,0,0:0:0:0:
320,288,34435,1,0,0:0:0:0:
320,288,34435,1,0,0:0:0:0:
96,160,34498,2,0,B|-32:160|192:192,2,160
384,192,34560,1,0,0:0:0:0:
160,128,34560,1,0,0:0:0:0:
160,128,34560,1,0,0:0:0:0:
160,128,34560,1,0,0:0:0:0:
128,192,34560,1,0,0:0:0:0:
160,128,34560,1,0,0:0:0:0:
160,128,34560,1,0,0:0:0:0:
192,96,34623,1,0,0:0:0:0:
128,160,34623,1,0,0:0:0:0:
320,288,34685,1,0,0:0:0:0:
128,160,34685,1,0,0:0:0:0:
384,288,34685,1,0,0:0:0:0:
384,288,34685,1,0,0:0:0:0:
384,288,34685,1,0,0:0:0:0:
384,288,34685,1,0,0:0:0:0:
384,288,34685,1,0,0:0:0:0:
96,160,34685,2,0,B|-32:160|192:192,2,160
384,192,34810,1,0,0:0:0:0:
224,320,34810,1,0,0:0:0:0:
160,128,34810,1,0,0:0:0:0:
384,160,34810,1,0,0:0:0:0:
128,192,34810,1,0,0:0:0:0:
128,192,34810,1,0,0:0:0:0:
128,160,34873,1,0,0:0:0:0:
192,96,34935,1,0,0:0:0:0:
128,160,34935,1,0,0:0:0:0:
288,128,34935,1,0,0:0:0:0:
288,128,34935,1,0,0:0:0:0:
384,288,34935,1,0,0:0:0:0:
224,96,34998,1,0,0:0:0:0:
384,192,34998,1,0,0:0:0:0:
224,320,35060,1,0,0:0:0:0:
384,160,35060,1,0,0:0:0:0:
64,256,35060,1,0,0:0:0:0:
64,256,35060,1,0,0:0:0:0:
64,320,35060,1,0,0:0:0:0:
64,352,35123,1,0,0:0:0:0:
192,192,35185,1,0,0:0:0:0:
192,96,35185,1,0,0:0:0:0:
128,160,35185,1,0,0:0:0:0:
256,192,35185,1,0,0:0:0:0:
256,192,35185,1,0,0:0:0:0:
224,96,35185,1,0,0:0:0:0:
160,224,35248,1,0,0:0:0:0:
224,192,35248,1,0,0:0:0:0:
384,320,35248,1,0,0:0:0:0:
384,320,35248,1,0,0:0:0:0:
384,160,35310,1,0,0:0:0:0:
64,320,35310,1,0,0:0:0:0:
224,96,35373,1,0,0:0:0:0:
64,352,35373,1,0,0:0:0:0:
224,192,35373,1,0,0:0:0:0:
224,192,35373,1,0,0:0:0:0:
192,192,35373,1,0,0:0:0:0:
160,128,35435,1,0,0:0:0:0:
160,128,35435,1,0,0:0:0:0:
160,128,35435,1,0,0:0:0:0:
192,128,35435,1,0,0:0:0:0:
224,96,35435,1,0,0:0:0:0:
160,224,35435,1,0,0:0:0:0:
224,128,35498,1,0,0:0:0:0:
224,128,35498,1,0,0:0:0:0:
224,128,35498,1,0,0:0:0:0:
224,192,35498,1,0,0:0:0:0:
448,256,35498,1,0,0:0:0:0:
448,256,35498,1,0,0:0:0:0:
224,160,35498,1,0,0:0:0:0:
256,192,35498,1,0,0:0:0:0:
512,192,35498,1,0,0:0:0:0:
224,224,35560,1,0,0:0:0:0:
256,256,35560,1,0,0:0:0:0:
256,256,35560,1,0,0:0:0:0:
224,96,35560,1,0,0:0:0:0:
256,256,35560,1,0,0:0:0:0:
128,160,35560,1,0,0:0:0:0:
288,224,35623,1,0,0:0:0:0:
224,160,35623,1,0,0:0:0:0:
320,224,35623,1,0,0:0:0:0:
64,352,35623,1,0,0:0:0:0:
352,256,35623,1,0,0:0:0:0:
256,128,35623,1,0,0:0:0:0:
352,224,35623,1,0,0:0:0:0:
352,224,35623,1,0,0:0:0:0:
352,192,35685,1,0,0:0:0:0:
352,192,35685,1,0,0:0:0:0:
352,192,35685,1,0,0:0:0:0:
384,192,35685,1,0,0:0:0:0:
160,224,35685,1,0,0:0:0:0:
384,192,35685,1,0,0:0:0:0:
128,32,35685,1,0,0:0:0:0:
384,192,35685,1,0,0:0:0:0:
384,192,35748,1,0,0:0:0:0:
384,224,35748,1,0,0:0:0:0:
384,192,35748,1,0,0:0:0:0:
128,192,35748,1,0,0:0:0:0:
128,192,35748,1,0,0:0:0:0:
384,256,35748,1,0,0:0:0:0:
512,192,35748,1,0,0:0:0:0:
416,256,35748,1,0,0:0:0:0:
416,256,35810,1,0,0:0:0:0:
416,224,35810,1,0,0:0:0:0:
416,192,35810,1,0,0:0:0:0:
224,96,35810,1,0,0:0:0:0:
416,160,35810,1,0,0:0:0:0:
384,128,35810,1,0,0:0:0:0:
224,160,35873,1,0,0:0:0:0:
352,128,35873,1,0,0:0:0:0:
320,288,35873,1,0,0:0:0:0:
320,288,35873,1,0,0:0:0:0:
128,160,35873,1,0,0:0:0:0:
320,160,35873,1,0,0:0:0:0:
288,160,35873,1,0,0:0:0:0:
288,160,35873,1,0,0:0:0:0:
96,160,35873,2,0,B|-32:160|192:192,2,160
288,160,35935,1,0,0:0:0:0:
288,160,35935,1,0,0:0:0:0:
288,128,35935,1,0,0:0:0:0:
128,32,35935,1,0,0:0:0:0:
288,96,35935,1,0,0:0:0:0:
256,96,35935,1,0,0:0:0:0:
224,96,35998,1,0,0:0:0:0:
160,128,35998,1,0,0:0:0:0:
160,128,35998,1,0,0:0:0:0:
192,96,35998,1,0,0:0:0:0:
512,192,35998,1,0,0:0:0:0:
512,192,35998,1,0,0:0:0:0:
384,160,35998,1,0,0:0:0:0:
160,96,35998,1,0,0:0:0:0:
128,96,35998,1,0,0:0:0:0:
128,128,36060,1,0,0:0:0:0:
96,160,36060,1,0,0:0:0:0:
128,160,36060,1,0,0:0:0:0:
96,192,36060,1,0,0:0:0:0:
128,224,36060,1,0,0:0:0:0:
192,192,36060,1,0,0:0:0:0:
192,192,36060,1,0,0:0:0:0:
192,192,36123,1,0,0:0:0:0:
160,256,36123,1,0,0:0:0:0:
192,288,36123,1,0,0:0:0:0:
384,288,36123,1,0,0:0:0:0:
384,288,36123,1,0,0:0:0:0:
224,320,36123,1,0,0:0:0:0:
256,320,36185,1,0,0:0:0:0:
224,96,36185,1,0,0:0:0:0:
288,288,36185,1,0,0:0:0:0:
256,256,36185,1,0,0:0:0:0:
128,32,36185,1,0,0:0:0:0:
128,32,36185,1,0,0:0:0:0:
224,192,36185,1,0,0:0:0:0:
384,192,36185,1,0,0:0:0:0:
224,320,36248,1,0,0:0:0:0:
224,320,36248,1,0,0:0:0:0:
64,352,36310,1,0,0:0:0:0:
192,96,36373,1,0,0:0:0:0:
192,96,36373,1,0,0:0:0:0:
128,160,36373,1,0,0:0:0:0:
160,224,36435,1,0,0:0:0:0:
384,160,36498,1,0,0:0:0:0:
64,320,36498,1,0,0:0:0:0:
64,320,36498,1,0,0:0:0:0:
192,96,36498,1,0,0:0:0:0:
224,96,36560,1,0,0:0:0:0:
224,160,36560,1,0,0:0:0:0:
192,192,36560,1,0,0:0:0:0:
96,160,36623,2,0,B|-32:160|192:192,2,160
224,96,36623,1,0,0:0:0:0:
224,192,36685,1,0,0:0:0:0:
512,192,36685,1,0,0:0:0:0:
128,192,36748,1,0,0:0:0:0:
128,160,36748,1,0,0:0:0:0:
192,192,36810,1,0,0:0:0:0:
64,352,36810,1,0,0:0:0:0:
288,128,36810,1,0,0:0:0:0:
160,128,36873,1,0,0:0:0:0:
160,128,36873,1,0,0:0:0:0:
160,128,36873,1,0,0:0:0:0:
192,128,36873,1,0,0:0:0:0:
160,224,36873,1,0,0:0:0:0:
128,32,36873,1,0,0:0:0:0:
224,128,36873,1,0,0:0:0:0:
224,128,36873,1,0,0:0:0:0:
224,128,36935,1,0,0:0:0:0:
384,192,36935,1,0,0:0:0:0:
224,160,36935,1,0,0:0:0:0:
64,256,36935,1,0,0:0:0:0:
256,192,36935,1,0,0:0:0:0:
224,224,36998,1,0,0:0:0:0:
256,256,36998,1,0,0:0:0:0:
256,256,36998,1,0,0:0:0:0:
224,96,36998,1,0,0:0:0:0:
256,256,36998,1,0,0:0:0:0:
128,160,36998,1,0,0:0:0:0:
288,224,36998,1,0,0:0:0:0:
224,160,37060,1,0,0:0:0:0:
320,224,37060,1,0,0:0:0:0:
352,256,37060,1,0,0:0:0:0:
256,192,37060,1,0,0:0:0:0:
128,160,37060,1,0,0:0:0:0:
352,224,37060,1,0,0:0:0:0:
352,224,37060,1,0,0:0:0:0:
352,192,37123,1,0,0:0:0:0:
352,192,37123,1,0,0:0:0:0:
352,192,37123,1,0,0:0:0:0:
384,192,37123,1,0,0:0:0:0:
384,192,37123,1,0,0:0:0:0:
384,192,37123,1,0,0:0:0:0:
384,192,37123,1,0,0:0:0:0:
384,224,37185,1,0,0:0:0:0:
384,320,37185,1,0,0:0:0:0:
384,192,37185,1,0,0:0:0:0:
384,256,37185,1,0,0:0:0:0:
384,160,37185,1,0,0:0:0:0:
512,192,37185,1,0,0:0:0:0:
416,256,37185,1,0,0:0:0:0:
416,256,37185,1,0,0:0:0:0:
416,224,37248,1,0,0:0:0:0:
416,192,37248,1,0,0:0:0:0:
416,160,37248,1,0,0:0:0:0:
384,128,37248,1,0,0:0:0:0:
224,192,37248,1,0,0:0:0:0:
192,192,37248,1,0,0:0:0:0:
352,128,37310,1,0,0:0:0:0:
192,192,37310,1,0,0:0:0:0:
128,160,37310,1,0,0:0:0:0:
320,160,37310,1,0,0:0:0:0:
288,160,37310,1,0,0:0:0:0:
288,160,37310,1,0,0:0:0:0:
288,160,37310,1,0,0:0:0:0:
288,160,37373,1,0,0:0:0:0:
224,96,37373,1,0,0:0:0:0:
288,128,37373,1,0,0:0:0:0:
128,32,37373,1,0,0:0:0:0:
288,96,37373,1,0,0:0:0:0:
256,96,37373,1,0,0:0:0:0:
448,256,37373,1,0,0:0:0:0:
224,192,37373,1,0,0:0:0:0:
224,96,37373,1,0,0:0:0:0:
192,96,37435,1,0,0:0:0:0:
384,160,37435,1,0,0:0:0:0:
160,96,37435,1,0,0:0:0:0:
128,96,37435,1,0,0:0:0:0:
128,128,37435,1,0,0:0:0:0:
96,160,37498,1,0,0:0:0:0:
96,192,37498,1,0,0:0:0:0:
128,224,37498,1,0,0:0:0:0:
64,352,37498,1,0,0:0:0:0:
256,128,37498,1,0,0:0:0:0:
192,192,37560,1,0,0:0:0:0:
160,256,37560,1,0,0:0:0:0:
192,288,37560,1,0,0:0:0:0:
160,128,37560,1,0,0:0:0:0:
160,128,37560,1,0,0:0:0:0:
160,128,37560,1,0,0:0:0:0:
160,128,37560,1,0,0:0:0:0:
160,128,37560,1,0,0:0:0:0:
256,320,37560,1,0,0:0:0:0:
192,128,37560,1,0,0:0:0:0:
192,128,37560,1,0,0:0:0:0:
224,96,37560,1,0,0:0:0:0:
288,288,37623,1,0,0:0:0:0:
160,224,37623,1,0,0:0:0:0:
224,128,37623,1,0,0:0:0:0:
224,128,37623,1,0,0:0:0:0:
224,128,37623,1,0,0:0:0:0:
224,128,37623,1,0,0:0:0:0:
224,128,37623,1,0,0:0:0:0:
224,128,37623,1,0,0:0:0:0:
224,192,37623,1,0,0:0:0:0:
224,160,37623,1,0,0:0:0:0:
224,160,37623,1,0,0:0:0:0:
256,192,37685,1,0,0:0:0:0:
256,192,37685,1,0,0:0:0:0:
224,224,37685,1,0,0:0:0:0:
224,224,37685,1,0,0:0:0:0:
256,256,37685,1,0,0:0:0:0:
256,256,37685,1,0,0:0:0:0:
256,256,37685,1,0,0:0:0:0:
256,256,37748,1,0,0:0:0:0:
224,96,37748,1,0,0:0:0:0:
256,256,37748,1,0,0:0:0:0:
256,256,37748,1,0,0:0:0:0:
288,224,37748,1,0,0:0:0:0:
288,224,37748,1,0,0:0:0:0:
224,160,37748,1,0,0:0:0:0:
320,224,37748,1,0,0:0:0:0:
320,224,37748,1,0,0:0:0:0:
64,352,37748,1,0,0:0:0:0:
320,288,37748,1,0,0:0:0:0:
352,256,37748,1,0,0:0:0:0:
352,256,37748,1,0,0:0:0:0:
352,224,37810,1,0,0:0:0:0:
352,224,37810,1,0,0:0:0:0:
352,224,37810,1,0,0:0:0:0:
352,224,37810,1,0,0:0:0:0:
352,192,37810,1,0,0:0:0:0:
352,192,37810,1,0,0:0:0:0:
352,192,37810,1,0,0:0:0:0:
352,192,37810,1,0,0:0:0:0:
352,192,37810,1,0,0:0:0:0:
352,192,37810,1,0,0:0:0:0:
384,192,37810,1,0,0:0:0:0:
384,192,37810,1,0,0:0:0:0:
160,224,37810,1,0,0:0:0:0:
384,192,37873,1,0,0:0:0:0:
384,192,37873,1,0,0:0:0:0:
384,192,37873,1,0,0:0:0:0:
384,192,37873,1,0,0:0:0:0:
384,192,37873,1,0,0:0:0:0:
384,192,37873,1,0,0:0:0:0:
384,224,37873,1,0,0:0:0:0:
384,224,37873,1,0,0:0:0:0:
160,128,37873,1,0,0:0:0:0:
384,256,37873,1,0,0:0:0:0:
384,256,37873,1,0,0:0:0:0:
512,192,37873,1,0,0:0:0:0:
416,256,37935,1,0,0:0:0:0:
416,256,37935,1,0,0:0:0:0:
416,256,37935,1,0,0:0:0:0:
416,256,37935,1,0,0:0:0:0:
192,96,37935,1,0,0:0:0:0:
416,224,37935,1,0,0:0:0:0:
416,224,37935,1,0,0:0:0:0:
416,192,37935,1,0,0:0:0:0:
416,192,37935,1,0,0:0:0:0:
224,96,37935,1,0,0:0:0:0:
416,160,37935,1,0,0:0:0:0:
416,160,37935,1,0,0:0:0:0:
384,128,37998,1,0,0:0:0:0:
384,128,37998,1,0,0:0:0:0:
224,160,37998,1,0,0:0:0:0:
352,128,37998,1,0,0:0:0:0:
352,128,37998,1,0,0:0:0:0:
320,160,37998,1,0,0:0:0:0:
320,160,37998,1,0,0:0:0:0:
384,288,37998,1,0,0:0:0:0:
288,160,38060,1,0,0:0:0:0:
288,160,38060,1,0,0:0:0:0:
96,160,38060,2,0,B|-32:160|192:192,2,160
288,160,38060,1,0,0:0:0:0:
288,160,38060,1,0,0:0:0:0:
288,160,38060,1,0,0:0:0:0:
288,160,38060,1,0,0:0:0:0:
288,160,38060,1,0,0:0:0:0:
288,160,38060,1,0,0:0:0:0:
288,128,38060,1,0,0:0:0:0:
288,128,38060,1,0,0:0:0:0:
128,32,38060,1,0,0:0:0:0:
288,96,38060,1,0,0:0:0:0:
288,96,38060,1,0,0:0:0:0:
256,96,38123,1,0,0:0:0:0:
256,96,38123,1,0,0:0:0:0:
224,96,38123,1,0,0:0:0:0:
224,96,38123,1,0,0:0:0:0:
192,96,38123,1,0,0:0:0:0:
192,96,38123,1,0,0:0:0:0:
512,192,38123,1,0,0:0:0:0:
512,192,38123,1,0,0:0:0:0:
160,96,38123,1,0,0:0:0:0:
160,96,38123,1,0,0:0:0:0:
128,96,38185,1,0,0:0:0:0:
128,192,38185,1,0,0:0:0:0:
128,96,38185,1,0,0:0:0:0:
128,128,38185,1,0,0:0:0:0:
128,128,38185,1,0,0:0:0:0:
96,160,38185,1,0,0:0:0:0:
96,160,38185,1,0,0:0:0:0:
128,160,38185,1,0,0:0:0:0:
96,192,38185,1,0,0:0:0:0:
96,192,38185,1,0,0:0:0:0:
128,224,38248,1,0,0:0:0:0:
128,224,38248,1,0,0:0:0:0:
192,192,38248,1,0,0:0:0:0:
192,192,38248,1,0,0:0:0:0:
192,96,38248,1,0,0:0:0:0:
160,256,38248,1,0,0:0:0:0:
288,128,38248,1,0,0:0:0:0:
160,256,38248,1,0,0:0:0:0:
192,288,38248,1,0,0:0:0:0:
192,288,38248,1,0,0:0:0:0:
224,320,38248,1,0,0:0:0:0:
224,320,38248,1,0,0:0:0:0:
256,320,38310,1,0,0:0:0:0:
256,320,38310,1,0,0:0:0:0:
288,288,38310,1,0,0:0:0:0:
288,288,38310,1,0,0:0:0:0:
256,256,38310,1,0,0:0:0:0:
256,256,38310,1,0,0:0:0:0:
128,32,38310,1,0,0:0:0:0:
128,32,38310,1,0,0:0:0:0:
384,192,38373,1,0,0:0:0:0:
64,256,38373,1,0,0:0:0:0:
64,256,38373,1,0,0:0:0:0:
64,320,38373,1,0,0:0:0:0:
128,160,38498,1,0,0:0:0:0:
256,192,38498,1,0,0:0:0:0:
256,192,38498,1,0,0:0:0:0:
224,160,38498,1,0,0:0:0:0:
192,192,38560,1,0,0:0:0:0:
384,320,38560,1,0,0:0:0:0:
384,320,38560,1,0,0:0:0:0:
224,96,38623,1,0,0:0:0:0:
384,160,38623,1,0,0:0:0:0:
192,96,38623,1,0,0:0:0:0:
192,96,38623,1,0,0:0:0:0:
224,192,38623,1,0,0:0:0:0:
128,192,38685,1,0,0:0:0:0:
224,192,38685,1,0,0:0:0:0:
224,192,38685,1,0,0:0:0:0:
192,192,38685,1,0,0:0:0:0:
128,160,38748,1,0,0:0:0:0:
192,192,38748,1,0,0:0:0:0:
288,128,38748,1,0,0:0:0:0:
224,96,38748,1,0,0:0:0:0:
160,128,38810,1,0,0:0:0:0:
160,128,38810,1,0,0:0:0:0:
160,128,38810,1,0,0:0:0:0:
224,192,38810,1,0,0:0:0:0:
448,256,38810,1,0,0:0:0:0:
448,256,38810,1,0,0:0:0:0:
192,128,38810,1,0,0:0:0:0:
160,224,38810,1,0,0:0:0:0:
224,128,38873,1,0,0:0:0:0:
224,128,38873,1,0,0:0:0:0:
224,128,38873,1,0,0:0:0:0:
128,192,38873,1,0,0:0:0:0:
128,192,38873,1,0,0:0:0:0:
384,192,38873,1,0,0:0:0:0:
224,160,38873,1,0,0:0:0:0:
256,192,38873,1,0,0:0:0:0:
224,224,38935,1,0,0:0:0:0:
64,352,38935,1,0,0:0:0:0:
256,256,38935,1,0,0:0:0:0:
256,128,38935,1,0,0:0:0:0:
256,128,38935,1,0,0:0:0:0:
288,128,38935,1,0,0:0:0:0:
256,256,38935,1,0,0:0:0:0:
288,128,38935,1,0,0:0:0:0:
288,128,38935,1,0,0:0:0:0:
224,96,38935,1,0,0:0:0:0:
256,256,38935,1,0,0:0:0:0:
128,160,38935,1,0,0:0:0:0:
288,224,38998,1,0,0:0:0:0:
224,160,38998,1,0,0:0:0:0:
320,224,38998,1,0,0:0:0:0:
352,256,38998,1,0,0:0:0:0:
256,192,38998,1,0,0:0:0:0:
128,160,38998,1,0,0:0:0:0:
160,224,38998,1,0,0:0:0:0:
352,224,38998,1,0,0:0:0:0:
352,224,39060,1,0,0:0:0:0:
352,192,39060,1,0,0:0:0:0:
352,192,39060,1,0,0:0:0:0:
352,192,39060,1,0,0:0:0:0:
128,192,39060,1,0,0:0:0:0:
128,192,39060,1,0,0:0:0:0:
384,192,39060,1,0,0:0:0:0:
384,192,39060,1,0,0:0:0:0:
64,256,39060,1,0,0:0:0:0:
64,256,39060,1,0,0:0:0:0:
64,256,39060,1,0,0:0:0:0:
64,256,39060,1,0,0:0:0:0:
384,192,39060,1,0,0:0:0:0:
384,192,39123,1,0,0:0:0:0:
384,224,39123,1,0,0:0:0:0:
384,192,39123,1,0,0:0:0:0:
384,256,39123,1,0,0:0:0:0:
384,160,39123,1,0,0:0:0:0:
224,96,39123,1,0,0:0:0:0:
416,256,39123,1,0,0:0:0:0:
416,256,39185,1,0,0:0:0:0:
224,160,39185,1,0,0:0:0:0:
416,224,39185,1,0,0:0:0:0:
416,192,39185,1,0,0:0:0:0:
320,288,39185,1,0,0:0:0:0:
320,288,39185,1,0,0:0:0:0:
256,192,39185,1,0,0:0:0:0:
256,192,39185,1,0,0:0:0:0:
256,192,39185,1,0,0:0:0:0:
256,192,39185,1,0,0:0:0:0:
416,160,39185,1,0,0:0:0:0:
384,128,39248,1,0,0:0:0:0:
96,160,39248,2,0,B|-32:160|192:192,2,160
224,192,39248,1,0,0:0:0:0:
192,192,39248,1,0,0:0:0:0:
352,128,39248,1,0,0:0:0:0:
192,192,39248,1,0,0:0:0:0:
128,160,39248,1,0,0:0:0:0:
320,160,39248,1,0,0:0:0:0:
288,160,39248,1,0,0:0:0:0:
288,160,39248,1,0,0:0:0:0:
288,160,39310,1,0,0:0:0:0:
288,160,39310,1,0,0:0:0:0:
384,320,39310,1,0,0:0:0:0:
384,320,39310,1,0,0:0:0:0:
384,320,39310,1,0,0:0:0:0:
384,320,39310,1,0,0:0:0:0:
224,96,39310,1,0,0:0:0:0:
288,128,39310,1,0,0:0:0:0:
160,128,39310,1,0,0:0:0:0:
512,192,39310,1,0,0:0:0:0:
288,96,39310,1,0,0:0:0:0:
256,96,39310,1,0,0:0:0:0:
448,256,39373,1,0,0:0:0:0:
224,192,39373,1,0,0:0:0:0:
224,96,39373,1,0,0:0:0:0:
192,96,39373,1,0,0:0:0:0:
384,160,39373,1,0,0:0:0:0:
160,96,39373,1,0,0:0:0:0:
128,160,39373,1,0,0:0:0:0:
128,96,39373,1,0,0:0:0:0:
192,192,39435,1,0,0:0:0:0:
128,128,39435,1,0,0:0:0:0:
224,192,39435,1,0,0:0:0:0:
224,192,39435,1,0,0:0:0:0:
224,192,39435,1,0,0:0:0:0:
96,160,39435,1,0,0:0:0:0:
96,192,39435,1,0,0:0:0:0:
384,288,39435,1,0,0:0:0:0:
384,288,39435,1,0,0:0:0:0:
128,224,39435,1,0,0:0:0:0:
256,128,39498,1,0,0:0:0:0:
192,192,39498,1,0,0:0:0:0:
160,256,39498,1,0,0:0:0:0:
128,32,39498,1,0,0:0:0:0:
160,128,39498,1,0,0:0:0:0:
160,128,39498,1,0,0:0:0:0:
160,128,39498,1,0,0:0:0:0:
160,128,39498,1,0,0:0:0:0:
160,128,39498,1,0,0:0:0:0:
448,256,39560,1,0,0:0:0:0:
448,256,39560,1,0,0:0:0:0:
448,256,39560,1,0,0:0:0:0:
448,256,39560,1,0,0:0:0:0:
384,192,39560,1,0,0:0:0:0:
192,128,39560,1,0,0:0:0:0:
192,128,39560,1,0,0:0:0:0:
224,320,39560,1,0,0:0:0:0:
224,96,39560,1,0,0:0:0:0:
160,224,39560,1,0,0:0:0:0:
224,128,39560,1,0,0:0:0:0:
224,128,39560,1,0,0:0:0:0:
224,128,39560,1,0,0:0:0:0:
224,128,39560,1,0,0:0:0:0:
224,128,39560,1,0,0:0:0:0:
224,128,39560,1,0,0:0:0:0:
224,192,39560,1,0,0:0:0:0:
224,160,39560,1,0,0:0:0:0:
224,160,39623,1,0,0:0:0:0:
256,192,39623,1,0,0:0:0:0:
256,192,39623,1,0,0:0:0:0:
224,224,39623,1,0,0:0:0:0:
224,224,39623,1,0,0:0:0:0:
256,256,39685,1,0,0:0:0:0:
256,256,39685,1,0,0:0:0:0:
256,128,39685,1,0,0:0:0:0:
256,128,39685,1,0,0:0:0:0:
256,128,39685,1,0,0:0:0:0:
256,256,39685,1,0,0:0:0:0:
192,96,39685,1,0,0:0:0:0:
256,256,39685,1,0,0:0:0:0:
224,96,39685,1,0,0:0:0:0:
256,256,39685,1,0,0:0:0:0:
256,256,39685,1,0,0:0:0:0:
288,224,39685,1,0,0:0:0:0:
288,224,39685,1,0,0:0:0:0:
160,128,39685,1,0,0:0:0:0:
160,128,39685,1,0,0:0:0:0:
224,160,39685,1,0,0:0:0:0:
320,224,39685,1,0,0:0:0:0:
320,224,39685,1,0,0:0:0:0:
352,256,39748,1,0,0:0:0:0:
352,256,39748,1,0,0:0:0:0:
192,128,39748,1,0,0:0:0:0:
352,224,39748,1,0,0:0:0:0:
352,224,39748,1,0,0:0:0:0:
224,128,39748,1,0,0:0:0:0:
352,224,39748,1,0,0:0:0:0:
352,224,39748,1,0,0:0:0:0:
224,128,39748,1,0,0:0:0:0:
224,128,39748,1,0,0:0:0:0:
352,192,39748,1,0,0:0:0:0:
352,192,39748,1,0,0:0:0:0:
352,192,39748,1,0,0:0:0:0:
352,192,39748,1,0,0:0:0:0:
352,192,39748,1,0,0:0:0:0:
352,192,39748,1,0,0:0:0:0:
224,160,39748,1,0,0:0:0:0:
128,192,39748,1,0,0:0:0:0:
128,192,39748,1,0,0:0:0:0:
128,192,39748,1,0,0:0:0:0:
128,192,39810,1,0,0:0:0:0:
384,192,39810,1,0,0:0:0:0:
384,192,39810,1,0,0:0:0:0:
160,224,39810,1,0,0:0:0:0:
384,192,39810,1,0,0:0:0:0:
384,192,39810,1,0,0:0:0:0:
256,192,39810,1,0,0:0:0:0:
384,160,39810,1,0,0:0:0:0:
384,192,39810,1,0,0:0:0:0:
384,192,39810,1,0,0:0:0:0:
384,192,39810,1,0,0:0:0:0:
64,320,39810,1,0,0:0:0:0:
384,192,39810,1,0,0:0:0:0:
64,320,39810,1,0,0:0:0:0:
224,224,39810,1,0,0:0:0:0:
384,224,39810,1,0,0:0:0:0:
384,224,39810,1,0,0:0:0:0:
160,128,39810,1,0,0:0:0:0:
256,256,39810,1,0,0:0:0:0:
384,256,39873,1,0,0:0:0:0:
384,256,39873,1,0,0:0:0:0:
256,256,39873,1,0,0:0:0:0:
256,256,39873,1,0,0:0:0:0:
416,256,39873,1,0,0:0:0:0:
416,256,39873,1,0,0:0:0:0:
416,256,39873,1,0,0:0:0:0:
416,256,39873,1,0,0:0:0:0:
288,224,39873,1,0,0:0:0:0:
192,96,39873,1,0,0:0:0:0:
416,224,39873,1,0,0:0:0:0:
416,224,39873,1,0,0:0:0:0:
320,224,39873,1,0,0:0:0:0:
416,192,39873,1,0,0:0:0:0:
320,288,39873,1,0,0:0:0:0:
416,192,39873,1,0,0:0:0:0:
320,288,39873,1,0,0:0:0:0:
320,288,39873,1,0,0:0:0:0:
352,256,39873,1,0,0:0:0:0:
320,288,39873,1,0,0:0:0:0:
192,192,39873,1,0,0:0:0:0:
224,96,39935,1,0,0:0:0:0:
416,160,39935,1,0,0:0:0:0:
416,160,39935,1,0,0:0:0:0:
352,224,39935,1,0,0:0:0:0:
352,224,39935,1,0,0:0:0:0:
384,128,39935,1,0,0:0:0:0:
384,128,39935,1,0,0:0:0:0:
352,192,39935,1,0,0:0:0:0:
224,160,39935,1,0,0:0:0:0:
352,128,39935,1,0,0:0:0:0:
352,128,39935,1,0,0:0:0:0:
352,192,39935,1,0,0:0:0:0:
352,192,39935,1,0,0:0:0:0:
224,96,39935,1,0,0:0:0:0:
320,160,39935,1,0,0:0:0:0:
320,160,39935,1,0,0:0:0:0:
384,192,39935,1,0,0:0:0:0:
384,192,39998,1,0,0:0:0:0:
288,160,39998,1,0,0:0:0:0:
288,160,39998,1,0,0:0:0:0:
384,192,39998,1,0,0:0:0:0:
96,160,39998,2,0,B|-32:160|192:192,2,160
288,160,39998,1,0,0:0:0:0:
384,192,39998,1,0,0:0:0:0:
288,160,39998,1,0,0:0:0:0:
288,160,39998,1,0,0:0:0:0:
288,160,39998,1,0,0:0:0:0:
384,224,39998,1,0,0:0:0:0:
288,160,39998,1,0,0:0:0:0:
288,160,39998,1,0,0:0:0:0:
224,192,39998,1,0,0:0:0:0:
288,128,39998,1,0,0:0:0:0:
160,128,39998,1,0,0:0:0:0:
160,128,39998,1,0,0:0:0:0:
160,128,39998,1,0,0:0:0:0:
288,128,39998,1,0,0:0:0:0:
160,128,39998,1,0,0:0:0:0:
384,256,39998,1,0,0:0:0:0:
288,96,40060,1,0,0:0:0:0:
288,96,40060,1,0,0:0:0:0:
416,256,40060,1,0,0:0:0:0:
256,96,40060,1,0,0:0:0:0:
416,256,40060,1,0,0:0:0:0:
256,96,40060,1,0,0:0:0:0:
416,224,40060,1,0,0:0:0:0:
224,96,40060,1,0,0:0:0:0:
224,96,40060,1,0,0:0:0:0:
192,96,40060,1,0,0:0:0:0:
416,192,40060,1,0,0:0:0:0:
192,96,40060,1,0,0:0:0:0:
160,96,40123,1,0,0:0:0:0:
416,160,40123,1,0,0:0:0:0:
160,96,40123,1,0,0:0:0:0:
128,96,40123,1,0,0:0:0:0:
384,128,40123,1,0,0:0:0:0:
128,192,40123,1,0,0:0:0:0:
128,96,40123,1,0,0:0:0:0:
128,128,40123,1,0,0:0:0:0:
352,128,40123,1,0,0:0:0:0:
128,128,40123,1,0,0:0:0:0:
64,352,40123,1,0,0:0:0:0:
96,160,40123,1,0,0:0:0:0:
96,160,40123,1,0,0:0:0:0:
320,160,40123,1,0,0:0:0:0:
128,160,40123,1,0,0:0:0:0:
96,192,40185,1,0,0:0:0:0:
384,288,40185,1,0,0:0:0:0:
96,192,40185,1,0,0:0:0:0:
384,288,40185,1,0,0:0:0:0:
384,288,40185,1,0,0:0:0:0:
288,160,40185,1,0,0:0:0:0:
384,288,40185,1,0,0:0:0:0:
288,160,40185,1,0,0:0:0:0:
96,160,40185,2,0,B|-32:160|192:192,2,160
128,224,40185,1,0,0:0:0:0:
128,224,40185,1,0,0:0:0:0:
288,160,40185,1,0,0:0:0:0:
192,192,40185,1,0,0:0:0:0:
192,192,40185,1,0,0:0:0:0:
288,160,40185,1,0,0:0:0:0:
192,96,40185,1,0,0:0:0:0:
160,256,40185,1,0,0:0:0:0:
288,128,40185,1,0,0:0:0:0:
160,256,40185,1,0,0:0:0:0:
288,128,40185,1,0,0:0:0:0:
160,224,40185,1,0,0:0:0:0:
288,96,40185,1,0,0:0:0:0:
256,96,40248,1,0,0:0:0:0:
224,96,40248,1,0,0:0:0:0:
192,96,40248,1,0,0:0:0:0:
256,256,40248,1,0,0:0:0:0:
256,256,40248,1,0,0:0:0:0:
160,96,40248,1,0,0:0:0:0:
128,96,40310,1,0,0:0:0:0:
384,192,40310,1,0,0:0:0:0:
128,128,40310,1,0,0:0:0:0:
96,160,40310,1,0,0:0:0:0:
224,96,40310,1,0,0:0:0:0:
128,160,40310,1,0,0:0:0:0:
96,192,40310,1,0,0:0:0:0:
128,224,40373,1,0,0:0:0:0:
224,160,40373,1,0,0:0:0:0:
160,256,40373,1,0,0:0:0:0:
192,288,40373,1,0,0:0:0:0:
160,128,40373,1,0,0:0:0:0:
224,320,40435,1,0,0:0:0:0:
160,128,40435,1,0,0:0:0:0:
160,128,40435,1,0,0:0:0:0:
256,320,40435,1,0,0:0:0:0:
192,128,40435,1,0,0:0:0:0:
128,160,40435,1,0,0:0:0:0:
256,192,40435,1,0,0:0:0:0:
256,192,40435,1,0,0:0:0:0:
288,288,40435,1,0,0:0:0:0:
256,256,40435,1,0,0:0:0:0:
224,128,40435,1,0,0:0:0:0:
224,128,40435,1,0,0:0:0:0:
224,128,40435,1,0,0:0:0:0:
224,160,40498,1,0,0:0:0:0:
384,192,40498,1,0,0:0:0:0:
256,192,40498,1,0,0:0:0:0:
512,192,40498,1,0,0:0:0:0:
224,224,40498,1,0,0:0:0:0:
256,256,40560,1,0,0:0:0:0:
256,256,40560,1,0,0:0:0:0:
384,160,40560,1,0,0:0:0:0:
256,256,40560,1,0,0:0:0:0:
288,224,40560,1,0,0:0:0:0:
192,96,40560,1,0,0:0:0:0:
192,96,40560,1,0,0:0:0:0:
320,224,40623,1,0,0:0:0:0:
192,192,40623,1,0,0:0:0:0:
352,256,40623,1,0,0:0:0:0:
128,160,40623,1,0,0:0:0:0:
352,224,40623,1,0,0:0:0:0:
352,224,40623,1,0,0:0:0:0:
96,160,40623,2,0,B|-32:160|192:192,2,160
352,192,40623,1,0,0:0:0:0:
224,192,40623,1,0,0:0:0:0:
224,192,40623,1,0,0:0:0:0:
352,192,40623,1,0,0:0:0:0:
352,192,40685,1,0,0:0:0:0:
192,192,40685,1,0,0:0:0:0:
384,192,40685,1,0,0:0:0:0:
384,192,40685,1,0,0:0:0:0:
128,32,40685,1,0,0:0:0:0:
384,192,40685,1,0,0:0:0:0:
384,192,40685,1,0,0:0:0:0:
384,224,40685,1,0,0:0:0:0:
224,96,40748,1,0,0:0:0:0:
384,256,40748,1,0,0:0:0:0:
384,160,40748,1,0,0:0:0:0:
416,256,40748,1,0,0:0:0:0:
416,256,40748,1,0,0:0:0:0:
192,96,40748,1,0,0:0:0:0:
224,192,40748,1,0,0:0:0:0:
448,256,40748,1,0,0:0:0:0:
448,256,40748,1,0,0:0:0:0:
416,224,40748,1,0,0:0:0:0:
416,192,40810,1,0,0:0:0:0:
416,160,40810,1,0,0:0:0:0:
128,160,40810,1,0,0:0:0:0:
128,192,40810,1,0,0:0:0:0:
128,192,40810,1,0,0:0:0:0:
384,128,40810,1,0,0:0:0:0:
352,128,40810,1,0,0:0:0:0:
192,192,40873,1,0,0:0:0:0:
320,160,40873,1,0,0:0:0:0:
288,160,40873,1,0,0:0:0:0:
288,160,40873,1,0,0:0:0:0:
288,160,40873,1,0,0:0:0:0:
288,160,40873,1,0,0:0:0:0:
256,128,40873,1,0,0:0:0:0:
256,128,40873,1,0,0:0:0:0:
288,128,40935,1,0,0:0:0:0:
288,128,40935,1,0,0:0:0:0:
288,128,40935,1,0,0:0:0:0:
288,128,40935,1,0,0:0:0:0:
288,128,40935,1,0,0:0:0:0:
224,96,40935,1,0,0:0:0:0:
288,96,40935,1,0,0:0:0:0:
256,96,40935,1,0,0:0:0:0:
224,96,40935,1,0,0:0:0:0:
224,192,40935,1,0,0:0:0:0:
192,96,40998,1,0,0:0:0:0:
160,224,40998,1,0,0:0:0:0:
160,96,40998,1,0,0:0:0:0:
128,192,40998,1,0,0:0:0:0:
128,96,40998,1,0,0:0:0:0:
128,128,40998,1,0,0:0:0:0:
128,192,40998,1,0,0:0:0:0:
128,192,40998,1,0,0:0:0:0:
96,160,40998,1,0,0:0:0:0:
96,192,41060,1,0,0:0:0:0:
128,224,41060,1,0,0:0:0:0:
64,352,41060,1,0,0:0:0:0:
288,128,41060,1,0,0:0:0:0:
160,256,41060,1,0,0:0:0:0:
224,96,41060,1,0,0:0:0:0:
128,160,41060,1,0,0:0:0:0:
192,288,41123,1,0,0:0:0:0:
224,320,41123,1,0,0:0:0:0:
224,160,41123,1,0,0:0:0:0:
256,320,41123,1,0,0:0:0:0:
256,192,41123,1,0,0:0:0:0:
256,192,41123,1,0,0:0:0:0:
256,192,41123,1,0,0:0:0:0:
256,192,41123,1,0,0:0:0:0:
288,288,41123,1,0,0:0:0:0:
256,256,41185,1,0,0:0:0:0:
160,224,41185,1,0,0:0:0:0:
96,160,41185,2,0,B|-32:160|192:192,2,160
64,256,41185,1,0,0:0:0:0:
384,160,41185,1,0,0:0:0:0:
160,128,41248,1,0,0:0:0:0:
160,128,41248,1,0,0:0:0:0:
224,96,41248,1,0,0:0:0:0:
224,160,41310,1,0,0:0:0:0:
192,192,41310,1,0,0:0:0:0:
256,192,41310,1,0,0:0:0:0:
128,160,41310,1,0,0:0:0:0:
96,160,41373,2,0,B|-32:160|192:192,2,160
192,192,41373,1,0,0:0:0:0:
224,192,41373,1,0,0:0:0:0:
224,192,41373,1,0,0:0:0:0:
224,192,41373,1,0,0:0:0:0:
224,192,41373,1,0,0:0:0:0:
224,96,41373,1,0,0:0:0:0:
224,192,41435,1,0,0:0:0:0:
384,320,41435,1,0,0:0:0:0:
512,192,41435,1,0,0:0:0:0:
192,96,41498,1,0,0:0:0:0:
448,256,41498,1,0,0:0:0:0:
448,256,41498,1,0,0:0:0:0:
448,256,41498,1,0,0:0:0:0:
448,256,41498,1,0,0:0:0:0:
384,192,41498,1,0,0:0:0:0:
128,160,41498,1,0,0:0:0:0:
224,192,41560,1,0,0:0:0:0:
192,192,41560,1,0,0:0:0:0:
256,128,41623,1,0,0:0:0:0:
256,128,41623,1,0,0:0:0:0:
256,128,41623,1,0,0:0:0:0:
256,128,41623,1,0,0:0:0:0:
192,96,41623,1,0,0:0:0:0:
192,96,41623,1,0,0:0:0:0:
128,160,41623,1,0,0:0:0:0:
160,224,41623,1,0,0:0:0:0:
128,32,41623,1,0,0:0:0:0:
128,32,41623,1,0,0:0:0:0:
160,128,41623,1,0,0:0:0:0:
160,128,41623,1,0,0:0:0:0:
448,256,41685,1,0,0:0:0:0:
384,192,41685,1,0,0:0:0:0:
128,192,41685,1,0,0:0:0:0:
224,96,41748,1,0,0:0:0:0:
224,160,41748,1,0,0:0:0:0:
256,128,41810,1,0,0:0:0:0:
288,128,41810,1,0,0:0:0:0:
128,160,41810,1,0,0:0:0:0:
96,160,41810,2,0,B|-32:160|192:192,2,160
128,192,41935,1,0,0:0:0:0:
64,256,41935,1,0,0:0:0:0:
384,160,41935,1,0,0:0:0:0:
128,160,41998,1,0,0:0:0:0:
192,192,41998,1,0,0:0:0:0:
320,288,41998,1,0,0:0:0:0:
192,192,42060,1,0,0:0:0:0:
256,192,42060,1,0,0:0:0:0:
224,96,42060,1,0,0:0:0:0:
128,32,42123,1,0,0:0:0:0:
224,192,42123,1,0,0:0:0:0:
384,320,42123,1,0,0:0:0:0:
384,192,42123,1,0,0:0:0:0:
160,128,42123,1,0,0:0:0:0:
224,192,42248,1,0,0:0:0:0:
64,352,42248,1,0,0:0:0:0:
128,160,42248,1,0,0:0:0:0:
384,288,42310,1,0,0:0:0:0:
96,160,42310,2,0,B|-32:160|192:192,2,160
160,224,42310,1,0,0:0:0:0:
448,256,42373,1,0,0:0:0:0:
224,320,42373,1,0,0:0:0:0:
384,160,42373,1,0,0:0:0:0:
224,96,42373,1,0,0:0:0:0:
128,160,42373,1,0,0:0:0:0:
224,160,42373,1,0,0:0:0:0:
256,128,42373,1,0,0:0:0:0:
192,96,42373,1,0,0:0:0:0:
192,192,42373,1,0,0:0:0:0:
224,96,42373,1,0,0:0:0:0:
384,192,42373,1,0,0:0:0:0:
128,192,42373,1,0,0:0:0:0:
512,192,42373,1,0,0:0:0:0:
64,320,42373,1,0,0:0:0:0:
192,192,42435,1,0,0:0:0:0:
64,352,42435,1,0,0:0:0:0:
320,288,42435,1,0,0:0:0:0:
128,160,42435,1,0,0:0:0:0:
160,224,42435,1,0,0:0:0:0:
160,128,42560,1,0,0:0:0:0:
384,160,42560,1,0,0:0:0:0:
224,96,42560,1,0,0:0:0:0:
224,160,42560,1,0,0:0:0:0:
192,192,42623,1,0,0:0:0:0:
384,288,42623,1,0,0:0:0:0:
224,96,42685,1,0,0:0:0:0:
224,192,42685,1,0,0:0:0:0:
224,320,42685,1,0,0:0:0:0:
512,192,42748,1,0,0:0:0:0:
64,352,42810,1,0,0:0:0:0:
192,96,42873,1,0,0:0:0:0:
160,128,42873,1,0,0:0:0:0:
160,128,42873,1,0,0:0:0:0:
160,128,42873,1,0,0:0:0:0:
192,128,42873,1,0,0:0:0:0:
160,224,42935,1,0,0:0:0:0:
224,128,42935,1,0,0:0:0:0:
128,32,42935,1,0,0:0:0:0:
224,128,42935,1,0,0:0:0:0:
224,128,42935,1,0,0:0:0:0:
224,160,42935,1,0,0:0:0:0:
256,192,42998,1,0,0:0:0:0:
64,320,42998,1,0,0:0:0:0:
224,224,42998,1,0,0:0:0:0:
256,256,42998,1,0,0:0:0:0:
256,256,43060,1,0,0:0:0:0:
224,96,43060,1,0,0:0:0:0:
256,256,43060,1,0,0:0:0:0:
288,224,43060,1,0,0:0:0:0:
224,160,43060,1,0,0:0:0:0:
320,224,43060,1,0,0:0:0:0:
352,256,43060,1,0,0:0:0:0:
352,224,43123,1,0,0:0:0:0:
352,224,43123,1,0,0:0:0:0:
352,192,43123,1,0,0:0:0:0:
352,192,43123,1,0,0:0:0:0:
352,192,43123,1,0,0:0:0:0:
384,192,43123,1,0,0:0:0:0:
384,192,43185,1,0,0:0:0:0:
384,192,43185,1,0,0:0:0:0:
384,192,43185,1,0,0:0:0:0:
384,224,43185,1,0,0:0:0:0:
384,256,43185,1,0,0:0:0:0:
512,192,43185,1,0,0:0:0:0:
416,256,43248,1,0,0:0:0:0:
416,256,43248,1,0,0:0:0:0:
416,224,43248,1,0,0:0:0:0:
416,192,43248,1,0,0:0:0:0:
416,160,43248,1,0,0:0:0:0:
384,128,43310,1,0,0:0:0:0:
192,192,43310,1,0,0:0:0:0:
352,128,43310,1,0,0:0:0:0:
320,160,43310,1,0,0:0:0:0:
288,160,43373,1,0,0:0:0:0:
160,128,43373,1,0,0:0:0:0:
160,128,43373,1,0,0:0:0:0:
160,128,43373,1,0,0:0:0:0:
288,160,43373,1,0,0:0:0:0:
192,128,43373,1,0,0:0:0:0:
288,128,43373,1,0,0:0:0:0:
224,128,43373,1,0,0:0:0:0:
128,32,43373,1,0,0:0:0:0:
224,128,43373,1,0,0:0:0:0:
224,128,43373,1,0,0:0:0:0:
256,96,43435,1,0,0:0:0:0:
224,160,43435,1,0,0:0:0:0:
192,96,43435,1,0,0:0:0:0:
256,192,43435,1,0,0:0:0:0:
160,96,43435,1,0,0:0:0:0:
224,224,43498,1,0,0:0:0:0:
128,128,43498,1,0,0:0:0:0:
256,256,43498,1,0,0:0:0:0:
256,256,43498,1,0,0:0:0:0:
256,256,43498,1,0,0:0:0:0:
288,224,43498,1,0,0:0:0:0:
320,224,43560,1,0,0:0:0:0:
352,256,43560,1,0,0:0:0:0:
160,256,43560,1,0,0:0:0:0:
352,224,43560,1,0,0:0:0:0:
352,224,43560,1,0,0:0:0:0:
288,352,43560,2,0,B|384:224|160:160|288:160|128:256|256:256|192:192|256:128|256:128|256:160,4,360
352,192,43560,1,0,0:0:0:0:
352,192,43623,1,0,0:0:0:0:
352,192,43623,1,0,0:0:0:0:
384,192,43623,1,0,0:0:0:0:
384,192,43623,1,0,0:0:0:0:
384,192,43623,1,0,0:0:0:0:
384,192,43623,1,0,0:0:0:0:
384,224,43685,1,0,0:0:0:0:
384,256,43685,1,0,0:0:0:0:
416,256,43685,1,0,0:0:0:0:
416,256,43685,1,0,0:0:0:0:
416,224,43685,1,0,0:0:0:0:
416,192,43748,1,0,0:0:0:0:
416,160,43748,1,0,0:0:0:0:
384,128,43748,1,0,0:0:0:0:
352,128,43748,1,0,0:0:0:0:
320,160,43810,1,0,0:0:0:0:
288,160,43810,1,0,0:0:0:0:
288,160,43810,1,0,0:0:0:0:
288,160,43810,1,0,0:0:0:0:
288,160,43810,1,0,0:0:0:0:
288,128,43873,1,0,0:0:0:0:
288,96,43873,1,0,0:0:0:0:
256,96,43873,1,0,0:0:0:0:
224,96,43873,1,0,0:0:0:0:
192,96,43935,1,0,0:0:0:0:
160,96,43935,1,0,0:0:0:0:
128,96,43935,1,0,0:0:0:0:
192,96,43935,1,0,0:0:0:0:
128,128,43935,1,0,0:0:0:0:
96,160,43998,1,0,0:0:0:0:
96,192,43998,1,0,0:0:0:0:
128,224,43998,1,0,0:0:0:0:
160,256,44060,1,0,0:0:0:0:
192,288,44060,1,0,0:0:0:0:
224,320,44060,1,0,0:0:0:0:
256,320,44060,1,0,0:0:0:0:
288,288,44060,1,0,0:0:0:0:
256,256,44123,1,0,0:0:0:0:
128,192,44185,1,0,0:0:0:0:
256,256,44248,2,0,B|160:128,1,160
288,128,44248,1,0,0:0:0:0:
64,256,44373,1,0,0:0:0:0:
192,320,44435,2,0,B|160:128,1,160
192,96,44435,1,0,0:0:0:0:
160,128,44498,2,0,B|256:192|224:160,3,80
256,192,44498,1,0,0:0:0:0:
384,320,44623,1,0,0:0:0:0:
128,192,44623,1,0,0:0:0:0:
416,288,44748,2,0,B|288:224|128:192,1,280
224,192,44748,1,0,0:0:0:0:
288,128,44748,1,0,0:0:0:0:
96,192,44810,2,0,B|256:128|128:288|224:160|192:192|-64:288|32:256|256:192|320:64|384:192|320:288|192:288,5,520
448,256,44873,1,0,0:0:0:0:
64,256,44873,1,0,0:0:0:0:
256,128,44998,1,0,0:0:0:0:
256,192,44998,1,0,0:0:0:0:
384,320,45060,1,0,0:0:0:0:
128,192,45123,1,0,0:0:0:0:
224,192,45185,1,0,0:0:0:0:
320,288,45185,1,0,0:0:0:0:
160,128,45248,1,0,0:0:0:0:
160,128,45248,1,0,0:0:0:0:
160,128,45248,1,0,0:0:0:0:
192,128,45248,1,0,0:0:0:0:
224,128,45310,1,0,0:0:0:0:
224,128,45310,1,0,0:0:0:0:
224,128,45310,1,0,0:0:0:0:
448,256,45310,1,0,0:0:0:0:
224,160,45310,1,0,0:0:0:0:
160,128,45310,1,0,0:0:0:0:
256,192,45373,1,0,0:0:0:0:
224,224,45373,1,0,0:0:0:0:
256,256,45373,1,0,0:0:0:0:
256,256,45373,1,0,0:0:0:0:
256,256,45435,1,0,0:0:0:0:
288,224,45435,1,0,0:0:0:0:
320,224,45435,1,0,0:0:0:0:
256,128,45435,1,0,0:0:0:0:
352,256,45435,1,0,0:0:0:0:
352,224,45435,1,0,0:0:0:0:
352,224,45498,1,0,0:0:0:0:
352,192,45498,1,0,0:0:0:0:
352,192,45498,1,0,0:0:0:0:
352,192,45498,1,0,0:0:0:0:
384,192,45498,1,0,0:0:0:0:
384,192,45498,1,0,0:0:0:0:
384,192,45560,1,0,0:0:0:0:
384,192,45560,1,0,0:0:0:0:
384,224,45560,1,0,0:0:0:0:
128,192,45560,1,0,0:0:0:0:
224,320,45560,1,0,0:0:0:0:
384,256,45560,1,0,0:0:0:0:
416,256,45623,1,0,0:0:0:0:
416,256,45623,1,0,0:0:0:0:
416,224,45623,1,0,0:0:0:0:
416,192,45623,1,0,0:0:0:0:
416,160,45623,1,0,0:0:0:0:
384,128,45685,1,0,0:0:0:0:
352,128,45685,1,0,0:0:0:0:
320,288,45685,1,0,0:0:0:0:
192,96,45685,1,0,0:0:0:0:
320,160,45685,1,0,0:0:0:0:
288,160,45685,1,0,0:0:0:0:
288,160,45748,1,0,0:0:0:0:
288,160,45748,1,0,0:0:0:0:
288,160,45748,1,0,0:0:0:0:
288,128,45748,1,0,0:0:0:0:
288,96,45748,1,0,0:0:0:0:
256,96,45810,1,0,0:0:0:0:
224,96,45810,1,0,0:0:0:0:
160,128,45810,1,0,0:0:0:0:
192,96,45810,1,0,0:0:0:0:
160,96,45810,1,0,0:0:0:0:
64,320,45810,1,0,0:0:0:0:
128,96,45810,1,0,0:0:0:0:
128,128,45873,1,0,0:0:0:0:
96,160,45873,1,0,0:0:0:0:
96,192,45873,1,0,0:0:0:0:
128,224,45935,1,0,0:0:0:0:
160,256,45935,1,0,0:0:0:0:
192,288,45935,1,0,0:0:0:0:
160,128,45935,1,0,0:0:0:0:
160,128,45935,1,0,0:0:0:0:
160,128,45935,1,0,0:0:0:0:
256,320,45998,1,0,0:0:0:0:
192,128,45998,1,0,0:0:0:0:
288,288,45998,1,0,0:0:0:0:
224,128,45998,1,0,0:0:0:0:
224,128,45998,1,0,0:0:0:0:
192,192,45998,2,0,B|192:320|320:192,6,160
224,128,45998,1,0,0:0:0:0:
224,160,46060,1,0,0:0:0:0:
256,192,46060,1,0,0:0:0:0:
224,224,46060,1,0,0:0:0:0:
256,256,46123,1,0,0:0:0:0:
256,256,46123,1,0,0:0:0:0:
256,256,46123,1,0,0:0:0:0:
288,224,46123,1,0,0:0:0:0:
320,224,46123,1,0,0:0:0:0:
352,256,46185,1,0,0:0:0:0:
352,224,46185,1,0,0:0:0:0:
352,224,46185,1,0,0:0:0:0:
352,192,46185,1,0,0:0:0:0:
352,192,46185,1,0,0:0:0:0:
352,192,46185,1,0,0:0:0:0:
384,192,46248,1,0,0:0:0:0:
384,192,46248,1,0,0:0:0:0:
384,192,46248,1,0,0:0:0:0:
384,192,46248,1,0,0:0:0:0:
384,224,46248,1,0,0:0:0:0:
384,256,46310,1,0,0:0:0:0:
416,256,46310,1,0,0:0:0:0:
416,256,46310,1,0,0:0:0:0:
192,96,46310,1,0,0:0:0:0:
416,224,46310,1,0,0:0:0:0:
416,192,46310,1,0,0:0:0:0:
416,160,46373,1,0,0:0:0:0:
384,128,46373,1,0,0:0:0:0:
352,128,46373,1,0,0:0:0:0:
320,160,46435,1,0,0:0:0:0:
288,160,46435,1,0,0:0:0:0:
288,160,46435,1,0,0:0:0:0:
288,160,46435,1,0,0:0:0:0:
288,160,46435,1,0,0:0:0:0:
288,128,46435,1,0,0:0:0:0:
288,96,46498,1,0,0:0:0:0:
256,96,46498,1,0,0:0:0:0:
224,96,46498,1,0,0:0:0:0:
192,96,46498,1,0,0:0:0:0:
160,96,46560,1,0,0:0:0:0:
128,96,46560,1,0,0:0:0:0:
128,128,46560,1,0,0:0:0:0:
96,160,46560,1,0,0:0:0:0:
96,192,46623,1,0,0:0:0:0:
128,224,46623,1,0,0:0:0:0:
160,256,46623,1,0,0:0:0:0:
288,128,46623,1,0,0:0:0:0:
192,288,46623,1,0,0:0:0:0:
160,128,46685,1,0,0:0:0:0:
160,128,46685,1,0,0:0:0:0:
160,128,46685,1,0,0:0:0:0:
256,320,46685,1,0,0:0:0:0:
192,128,46685,1,0,0:0:0:0:
288,288,46685,1,0,0:0:0:0:
224,128,46685,1,0,0:0:0:0:
224,128,46685,1,0,0:0:0:0:
224,128,46748,1,0,0:0:0:0:
224,160,46748,1,0,0:0:0:0:
256,192,46748,1,0,0:0:0:0:
64,256,46748,1,0,0:0:0:0:
224,224,46810,1,0,0:0:0:0:
256,256,46810,1,0,0:0:0:0:
256,256,46810,1,0,0:0:0:0:
256,256,46810,1,0,0:0:0:0:
288,224,46810,1,0,0:0:0:0:
320,224,46873,1,0,0:0:0:0:
352,256,46873,1,0,0:0:0:0:
256,192,46873,1,0,0:0:0:0:
352,224,46873,1,0,0:0:0:0:
352,224,46873,1,0,0:0:0:0:
352,192,46935,1,0,0:0:0:0:
352,192,46935,1,0,0:0:0:0:
352,192,46935,1,0,0:0:0:0:
384,192,46935,1,0,0:0:0:0:
384,192,46935,1,0,0:0:0:0:
384,192,46935,1,0,0:0:0:0:
384,192,46935,1,0,0:0:0:0:
224,96,46998,2,0,B|224:320|320:192|256:288|256:160|384:256|416:320|160:224|64:160|256:96|416:192|352:320|128:224|256:32|448:128|448:128|288:96|256:224|160:128|160:256|160:256|128:256|320:352|64:320|320:288|192:192|192:192|192:288|320:160|384:224|128:192|128:192|160:320|128:160|384:160|384:288|192:256|192:160|128:96|224:32|352:128|352:128|256:256,4,2000
384,224,46998,1,0,0:0:0:0:
384,320,46998,1,0,0:0:0:0:
384,256,46998,1,0,0:0:0:0:
416,256,46998,1,0,0:0:0:0:
416,256,46998,1,0,0:0:0:0:
192,96,46998,1,0,0:0:0:0:
416,224,47060,1,0,0:0:0:0:
416,192,47060,1,0,0:0:0:0:
416,160,47060,1,0,0:0:0:0:
384,128,47060,1,0,0:0:0:0:
352,128,47123,1,0,0:0:0:0:
224,192,47123,1,0,0:0:0:0:
320,160,47123,1,0,0:0:0:0:
288,160,47123,1,0,0:0:0:0:
288,160,47123,1,0,0:0:0:0:
288,160,47123,1,0,0:0:0:0:
288,160,47185,1,0,0:0:0:0:
288,128,47185,1,0,0:0:0:0:
288,96,47185,1,0,0:0:0:0:
256,96,47185,1,0,0:0:0:0:
224,96,47185,1,0,0:0:0:0:
192,96,47248,1,0,0:0:0:0:
160,96,47248,1,0,0:0:0:0:
128,96,47248,1,0,0:0:0:0:
128,128,47248,1,0,0:0:0:0:
96,160,47310,1,0,0:0:0:0:
96,192,47310,1,0,0:0:0:0:
128,224,47310,1,0,0:0:0:0:
256,128,47373,1,0,0:0:0:0:
160,256,47373,1,0,0:0:0:0:
192,288,47373,1,0,0:0:0:0:
224,320,47373,1,0,0:0:0:0:
256,320,47373,1,0,0:0:0:0:
288,288,47435,1,0,0:0:0:0:
256,256,47435,1,0,0:0:0:0:
128,192,47435,1,0,0:0:0:0:
64,256,47498,1,0,0:0:0:0:
320,288,47560,1,0,0:0:0:0:
256,192,47560,1,0,0:0:0:0:
384,320,47685,1,0,0:0:0:0:
160,128,47685,1,0,0:0:0:0:
192,96,47748,1,0,0:0:0:0:
224,192,47810,1,0,0:0:0:0:
384,288,47873,1,0,0:0:0:0:
448,256,47935,1,0,0:0:0:0:
224,320,47935,1,0,0:0:0:0:
128,192,47998,1,0,0:0:0:0:
256,128,48060,1,0,0:0:0:0:
288,128,48060,1,0,0:0:0:0:
192,96,48060,1,0,0:0:0:0:
224,160,48060,1,0,0:0:0:0:
192,192,48123,1,0,0:0:0:0:
128,192,48185,1,0,0:0:0:0:
224,96,48185,1,0,0:0:0:0:
64,256,48185,1,0,0:0:0:0:
64,320,48185,1,0,0:0:0:0:
224,192,48248,1,0,0:0:0:0:
128,192,48248,1,0,0:0:0:0:
320,288,48310,1,0,0:0:0:0:
256,192,48310,1,0,0:0:0:0:
128,160,48310,1,0,0:0:0:0:
192,192,48310,1,0,0:0:0:0:
288,128,48373,1,0,0:0:0:0:
160,128,48373,1,0,0:0:0:0:
160,128,48373,1,0,0:0:0:0:
160,128,48373,1,0,0:0:0:0:
384,320,48373,1,0,0:0:0:0:
192,128,48435,1,0,0:0:0:0:
160,128,48435,1,0,0:0:0:0:
160,224,48435,1,0,0:0:0:0:
224,128,48435,1,0,0:0:0:0:
224,128,48435,1,0,0:0:0:0:
224,128,48435,1,0,0:0:0:0:
384,192,48435,1,0,0:0:0:0:
224,160,48435,1,0,0:0:0:0:
256,192,48498,1,0,0:0:0:0:
224,224,48498,1,0,0:0:0:0:
224,192,48498,1,0,0:0:0:0:
256,256,48498,1,0,0:0:0:0:
256,256,48560,1,0,0:0:0:0:
224,96,48560,1,0,0:0:0:0:
256,256,48560,1,0,0:0:0:0:
128,160,48560,1,0,0:0:0:0:
384,288,48560,1,0,0:0:0:0:
288,224,48560,1,0,0:0:0:0:
224,160,48560,1,0,0:0:0:0:
320,224,48560,1,0,0:0:0:0:
352,256,48560,1,0,0:0:0:0:
256,192,48560,1,0,0:0:0:0:
128,160,48560,1,0,0:0:0:0:
352,224,48623,1,0,0:0:0:0:
352,224,48623,1,0,0:0:0:0:
352,192,48623,1,0,0:0:0:0:
352,192,48623,1,0,0:0:0:0:
448,256,48623,1,0,0:0:0:0:
352,192,48623,1,0,0:0:0:0:
224,320,48623,1,0,0:0:0:0:
384,192,48685,1,0,0:0:0:0:
384,192,48685,1,0,0:0:0:0:
384,192,48685,1,0,0:0:0:0:
384,192,48685,1,0,0:0:0:0:
384,224,48685,1,0,0:0:0:0:
384,192,48685,1,0,0:0:0:0:
384,256,48685,1,0,0:0:0:0:
384,160,48748,1,0,0:0:0:0:
416,256,48748,1,0,0:0:0:0:
416,256,48748,1,0,0:0:0:0:
416,224,48748,1,0,0:0:0:0:
256,128,48748,1,0,0:0:0:0:
416,192,48748,1,0,0:0:0:0:
192,96,48748,1,0,0:0:0:0:
416,160,48810,1,0,0:0:0:0:
384,128,48810,1,0,0:0:0:0:
160,128,48810,1,0,0:0:0:0:
224,192,48810,1,0,0:0:0:0:
192,192,48810,1,0,0:0:0:0:
352,128,48810,1,0,0:0:0:0:
160,128,48810,1,0,0:0:0:0:
192,192,48810,1,0,0:0:0:0:
192,128,48810,1,0,0:0:0:0:
128,160,48810,1,0,0:0:0:0:
320,160,48810,1,0,0:0:0:0:
224,128,48873,1,0,0:0:0:0:
288,160,48873,1,0,0:0:0:0:
224,128,48873,1,0,0:0:0:0:
288,160,48873,1,0,0:0:0:0:
288,160,48873,1,0,0:0:0:0:
288,160,48873,1,0,0:0:0:0:
224,160,48873,1,0,0:0:0:0:
224,96,48873,1,0,0:0:0:0:
288,128,48873,1,0,0:0:0:0:
288,96,48873,1,0,0:0:0:0:
64,320,48935,1,0,0:0:0:0:
256,96,48935,1,0,0:0:0:0:
448,256,48935,1,0,0:0:0:0:
224,192,48935,1,0,0:0:0:0:
224,96,48935,1,0,0:0:0:0:
192,96,48935,1,0,0:0:0:0:
256,256,48935,1,0,0:0:0:0:
384,160,48935,1,0,0:0:0:0:
160,96,48935,1,0,0:0:0:0:
128,96,48998,1,0,0:0:0:0:
128,128,48998,1,0,0:0:0:0:
320,288,48998,1,0,0:0:0:0:
96,160,48998,1,0,0:0:0:0:
352,224,48998,1,0,0:0:0:0:
96,192,49060,1,0,0:0:0:0:
352,224,49060,1,0,0:0:0:0:
128,224,49060,1,0,0:0:0:0:
352,192,49060,1,0,0:0:0:0:
352,192,49060,1,0,0:0:0:0:
256,128,49060,1,0,0:0:0:0:
352,192,49060,1,0,0:0:0:0:
192,192,49060,1,0,0:0:0:0:
160,256,49060,1,0,0:0:0:0:
384,192,49060,1,0,0:0:0:0:
384,192,49060,1,0,0:0:0:0:
384,192,49060,1,0,0:0:0:0:
160,128,49123,1,0,0:0:0:0:
160,128,49123,1,0,0:0:0:0:
160,128,49123,1,0,0:0:0:0:
160,128,49123,1,0,0:0:0:0:
160,128,49123,1,0,0:0:0:0:
384,224,49123,1,0,0:0:0:0:
192,128,49123,1,0,0:0:0:0:
192,128,49123,1,0,0:0:0:0:
224,96,49123,1,0,0:0:0:0:
160,224,49123,1,0,0:0:0:0:
224,128,49123,1,0,0:0:0:0:
224,128,49123,1,0,0:0:0:0:
224,128,49123,1,0,0:0:0:0:
224,128,49123,1,0,0:0:0:0:
224,128,49123,1,0,0:0:0:0:
224,128,49123,1,0,0:0:0:0:
416,256,49185,1,0,0:0:0:0:
224,192,49185,1,0,0:0:0:0:
224,160,49185,1,0,0:0:0:0:
224,160,49185,1,0,0:0:0:0:
416,192,49185,1,0,0:0:0:0:
256,192,49185,1,0,0:0:0:0:
256,192,49185,1,0,0:0:0:0:
416,160,49185,1,0,0:0:0:0:
224,224,49185,1,0,0:0:0:0:
224,224,49248,1,0,0:0:0:0:
352,128,49248,1,0,0:0:0:0:
256,256,49248,1,0,0:0:0:0:
256,256,49248,1,0,0:0:0:0:
256,256,49248,1,0,0:0:0:0:
256,256,49248,1,0,0:0:0:0:
224,96,49248,1,0,0:0:0:0:
256,256,49248,1,0,0:0:0:0:
256,256,49248,1,0,0:0:0:0:
384,288,49248,1,0,0:0:0:0:
288,224,49248,1,0,0:0:0:0:
288,224,49248,1,0,0:0:0:0:
288,160,49248,1,0,0:0:0:0:
224,160,49248,1,0,0:0:0:0:
320,224,49310,1,0,0:0:0:0:
320,224,49310,1,0,0:0:0:0:
320,224,49310,1,0,0:0:0:0:
288,160,49310,1,0,0:0:0:0:
352,256,49310,1,0,0:0:0:0:
352,256,49310,1,0,0:0:0:0:
352,256,49310,1,0,0:0:0:0:
352,256,49310,1,0,0:0:0:0:
288,128,49310,1,0,0:0:0:0:
352,224,49310,1,0,0:0:0:0:
352,224,49310,1,0,0:0:0:0:
352,224,49310,1,0,0:0:0:0:
352,224,49310,1,0,0:0:0:0:
352,224,49310,1,0,0:0:0:0:
352,224,49310,1,0,0:0:0:0:
352,224,49310,1,0,0:0:0:0:
352,224,49310,1,0,0:0:0:0:
288,96,49310,1,0,0:0:0:0:
352,192,49310,1,0,0:0:0:0:
352,192,49310,1,0,0:0:0:0:
352,192,49310,1,0,0:0:0:0:
256,96,49310,1,0,0:0:0:0:
352,192,49310,1,0,0:0:0:0:
352,192,49373,1,0,0:0:0:0:
352,192,49373,1,0,0:0:0:0:
352,192,49373,1,0,0:0:0:0:
352,192,49373,1,0,0:0:0:0:
352,192,49373,1,0,0:0:0:0:
352,192,49373,1,0,0:0:0:0:
352,192,49373,1,0,0:0:0:0:
224,96,49373,1,0,0:0:0:0:
352,192,49373,1,0,0:0:0:0:
384,192,49373,1,0,0:0:0:0:
384,192,49373,1,0,0:0:0:0:
384,192,49373,1,0,0:0:0:0:
384,192,49373,1,0,0:0:0:0:
192,96,49373,1,0,0:0:0:0:
160,224,49373,1,0,0:0:0:0:
160,224,49373,1,0,0:0:0:0:
384,192,49373,1,0,0:0:0:0:
384,192,49373,1,0,0:0:0:0:
384,192,49373,1,0,0:0:0:0:
384,192,49373,1,0,0:0:0:0:
384,192,49373,1,0,0:0:0:0:
384,192,49373,1,0,0:0:0:0:
384,192,49373,1,0,0:0:0:0:
160,96,49373,1,0,0:0:0:0:
384,192,49373,1,0,0:0:0:0:
384,192,49373,1,0,0:0:0:0:
384,192,49373,1,0,0:0:0:0:
384,192,49373,1,0,0:0:0:0:
384,192,49373,1,0,0:0:0:0:
128,96,49373,1,0,0:0:0:0:
384,224,49373,1,0,0:0:0:0:
384,224,49373,1,0,0:0:0:0:
384,224,49373,1,0,0:0:0:0:
384,224,49373,1,0,0:0:0:0:
160,128,49435,1,0,0:0:0:0:
160,128,49435,1,0,0:0:0:0:
128,128,49435,1,0,0:0:0:0:
384,256,49435,1,0,0:0:0:0:
384,256,49435,1,0,0:0:0:0:
384,256,49435,1,0,0:0:0:0:
96,160,49435,1,0,0:0:0:0:
384,256,49435,1,0,0:0:0:0:
416,256,49435,1,0,0:0:0:0:
416,256,49435,1,0,0:0:0:0:
416,256,49435,1,0,0:0:0:0:
416,256,49435,1,0,0:0:0:0:
416,256,49435,1,0,0:0:0:0:
416,256,49435,1,0,0:0:0:0:
96,192,49435,1,0,0:0:0:0:
416,256,49435,1,0,0:0:0:0:
416,256,49435,1,0,0:0:0:0:
192,96,49435,1,0,0:0:0:0:
192,96,49435,1,0,0:0:0:0:
416,224,49435,1,0,0:0:0:0:
416,224,49435,1,0,0:0:0:0:
416,224,49435,1,0,0:0:0:0:
128,224,49435,1,0,0:0:0:0:
416,224,49435,1,0,0:0:0:0:
416,192,49498,1,0,0:0:0:0:
416,192,49498,1,0,0:0:0:0:
192,96,49498,1,0,0:0:0:0:
416,192,49498,1,0,0:0:0:0:
416,192,49498,1,0,0:0:0:0:
160,256,49498,1,0,0:0:0:0:
224,96,49498,1,0,0:0:0:0:
224,96,49498,1,0,0:0:0:0:
416,160,49498,1,0,0:0:0:0:
416,160,49498,1,0,0:0:0:0:
416,160,49498,1,0,0:0:0:0:
416,160,49498,1,0,0:0:0:0:
192,288,49498,1,0,0:0:0:0:
384,128,49498,1,0,0:0:0:0:
384,128,49498,1,0,0:0:0:0:
384,128,49498,1,0,0:0:0:0:
384,128,49498,1,0,0:0:0:0:
224,320,49498,1,0,0:0:0:0:
224,160,49498,1,0,0:0:0:0:
224,160,49498,1,0,0:0:0:0:
352,128,49498,1,0,0:0:0:0:
352,128,49498,1,0,0:0:0:0:
352,128,49498,1,0,0:0:0:0:
352,128,49498,1,0,0:0:0:0:
256,320,49560,1,0,0:0:0:0:
320,160,49560,1,0,0:0:0:0:
320,160,49560,1,0,0:0:0:0:
288,288,49560,1,0,0:0:0:0:
320,160,49560,1,0,0:0:0:0:
320,160,49560,1,0,0:0:0:0:
256,256,49560,1,0,0:0:0:0:
288,160,49560,1,0,0:0:0:0:
288,160,49560,1,0,0:0:0:0:
288,160,49560,1,0,0:0:0:0:
288,160,49560,1,0,0:0:0:0:
96,160,49560,2,0,B|-32:160|192:192,2,160
96,160,49560,2,0,B|-32:160|192:192,2,160
288,160,49560,1,0,0:0:0:0:
288,160,49560,1,0,0:0:0:0:
288,160,49560,1,0,0:0:0:0:
288,160,49560,1,0,0:0:0:0:
288,160,49560,1,0,0:0:0:0:
288,160,49560,1,0,0:0:0:0:
288,160,49560,1,0,0:0:0:0:
288,160,49560,1,0,0:0:0:0:
288,160,49560,1,0,0:0:0:0:
288,160,49560,1,0,0:0:0:0:
288,160,49560,1,0,0:0:0:0:
288,160,49560,1,0,0:0:0:0:
288,128,49623,1,0,0:0:0:0:
288,128,49623,1,0,0:0:0:0:
288,128,49623,1,0,0:0:0:0:
288,128,49623,1,0,0:0:0:0:
288,96,49623,1,0,0:0:0:0:
288,96,49623,1,0,0:0:0:0:
288,96,49623,1,0,0:0:0:0:
288,96,49623,1,0,0:0:0:0:
64,320,49623,1,0,0:0:0:0:
256,96,49623,1,0,0:0:0:0:
256,96,49623,1,0,0:0:0:0:
256,96,49623,1,0,0:0:0:0:
256,96,49623,1,0,0:0:0:0:
224,96,49623,1,0,0:0:0:0:
224,96,49623,1,0,0:0:0:0:
224,96,49623,1,0,0:0:0:0:
224,96,49623,1,0,0:0:0:0:
192,96,49685,1,0,0:0:0:0:
192,96,49685,1,0,0:0:0:0:
192,96,49685,1,0,0:0:0:0:
192,96,49685,1,0,0:0:0:0:
160,96,49685,1,0,0:0:0:0:
160,96,49685,1,0,0:0:0:0:
160,96,49685,1,0,0:0:0:0:
160,96,49685,1,0,0:0:0:0:
128,96,49685,1,0,0:0:0:0:
128,192,49685,1,0,0:0:0:0:
128,96,49685,1,0,0:0:0:0:
128,192,49685,1,0,0:0:0:0:
128,96,49685,1,0,0:0:0:0:
128,96,49685,1,0,0:0:0:0:
128,128,49685,1,0,0:0:0:0:
128,128,49685,1,0,0:0:0:0:
128,128,49685,1,0,0:0:0:0:
128,128,49685,1,0,0:0:0:0:
96,160,49748,1,0,0:0:0:0:
96,160,49748,1,0,0:0:0:0:
96,160,49748,1,0,0:0:0:0:
96,160,49748,1,0,0:0:0:0:
128,160,49748,1,0,0:0:0:0:
128,160,49748,1,0,0:0:0:0:
96,192,49748,1,0,0:0:0:0:
96,192,49748,1,0,0:0:0:0:
96,192,49748,1,0,0:0:0:0:
96,192,49748,1,0,0:0:0:0:
128,224,49748,1,0,0:0:0:0:
128,224,49748,1,0,0:0:0:0:
128,224,49748,1,0,0:0:0:0:
128,224,49748,1,0,0:0:0:0:
192,192,49748,1,0,0:0:0:0:
192,192,49748,1,0,0:0:0:0:
192,192,49748,1,0,0:0:0:0:
192,192,49748,1,0,0:0:0:0:
192,96,49748,1,0,0:0:0:0:
192,96,49748,1,0,0:0:0:0:
160,256,49748,1,0,0:0:0:0:
160,256,49748,1,0,0:0:0:0:
288,128,49748,1,0,0:0:0:0:
288,128,49748,1,0,0:0:0:0:
160,256,49748,1,0,0:0:0:0:
160,256,49748,1,0,0:0:0:0:
256,256,49873,1,0,0:0:0:0:
256,256,49873,1,0,0:0:0:0:
256,256,49873,1,0,0:0:0:0:
256,256,49873,1,0,0:0:0:0:
192,96,49873,1,0,0:0:0:0:
384,192,49873,1,0,0:0:0:0:
384,192,49873,1,0,0:0:0:0:
160,128,49998,1,0,0:0:0:0:
160,128,49998,1,0,0:0:0:0:
160,128,49998,1,0,0:0:0:0:
192,128,49998,1,0,0:0:0:0:
128,160,49998,1,0,0:0:0:0:
128,160,49998,1,0,0:0:0:0:
256,192,49998,1,0,0:0:0:0:
256,192,49998,1,0,0:0:0:0:
256,192,49998,1,0,0:0:0:0:
256,192,49998,1,0,0:0:0:0:
224,128,49998,1,0,0:0:0:0:
224,128,50060,1,0,0:0:0:0:
224,128,50060,1,0,0:0:0:0:
224,160,50060,1,0,0:0:0:0:
256,192,50060,1,0,0:0:0:0:
128,192,50123,1,0,0:0:0:0:
224,224,50123,1,0,0:0:0:0:
256,256,50123,1,0,0:0:0:0:
256,256,50123,1,0,0:0:0:0:
384,160,50123,1,0,0:0:0:0:
384,160,50123,1,0,0:0:0:0:
256,256,50123,1,0,0:0:0:0:
288,224,50185,1,0,0:0:0:0:
192,96,50185,1,0,0:0:0:0:
192,96,50185,1,0,0:0:0:0:
192,96,50185,1,0,0:0:0:0:
192,96,50185,1,0,0:0:0:0:
320,224,50185,1,0,0:0:0:0:
352,256,50185,1,0,0:0:0:0:
288,128,50185,1,0,0:0:0:0:
352,224,50185,1,0,0:0:0:0:
352,224,50185,1,0,0:0:0:0:
352,192,50248,1,0,0:0:0:0:
224,192,50248,1,0,0:0:0:0:
224,192,50248,1,0,0:0:0:0:
224,192,50248,1,0,0:0:0:0:
224,192,50248,1,0,0:0:0:0:
352,192,50248,1,0,0:0:0:0:
352,192,50248,1,0,0:0:0:0:
192,192,50248,1,0,0:0:0:0:
192,192,50248,1,0,0:0:0:0:
384,192,50248,1,0,0:0:0:0:
384,192,50248,1,0,0:0:0:0:
384,192,50248,1,0,0:0:0:0:
384,192,50248,1,0,0:0:0:0:
384,224,50310,1,0,0:0:0:0:
224,96,50310,1,0,0:0:0:0:
224,96,50310,1,0,0:0:0:0:
384,256,50310,1,0,0:0:0:0:
64,256,50310,1,0,0:0:0:0:
416,256,50310,1,0,0:0:0:0:
416,256,50310,1,0,0:0:0:0:
224,192,50373,1,0,0:0:0:0:
224,192,50373,1,0,0:0:0:0:
448,256,50373,1,0,0:0:0:0:
448,256,50373,1,0,0:0:0:0:
448,256,50373,1,0,0:0:0:0:
448,256,50373,1,0,0:0:0:0:
416,224,50373,1,0,0:0:0:0:
160,224,50373,1,0,0:0:0:0:
416,192,50373,1,0,0:0:0:0:
416,160,50373,1,0,0:0:0:0:
128,192,50373,1,0,0:0:0:0:
128,192,50373,1,0,0:0:0:0:
384,128,50373,1,0,0:0:0:0:
128,192,50373,1,0,0:0:0:0:
128,192,50373,1,0,0:0:0:0:
352,128,50435,1,0,0:0:0:0:
256,192,50435,1,0,0:0:0:0:
320,160,50435,1,0,0:0:0:0:
288,160,50435,1,0,0:0:0:0:
288,160,50435,1,0,0:0:0:0:
288,160,50435,1,0,0:0:0:0:
288,160,50498,1,0,0:0:0:0:
256,128,50498,1,0,0:0:0:0:
256,128,50498,1,0,0:0:0:0:
256,128,50498,1,0,0:0:0:0:
256,128,50498,1,0,0:0:0:0:
288,128,50498,1,0,0:0:0:0:
288,128,50498,1,0,0:0:0:0:
288,128,50498,1,0,0:0:0:0:
288,128,50498,1,0,0:0:0:0:
288,128,50498,1,0,0:0:0:0:
288,128,50498,1,0,0:0:0:0:
288,128,50498,1,0,0:0:0:0:
288,128,50498,1,0,0:0:0:0:
288,128,50498,1,0,0:0:0:0:
288,96,50498,1,0,0:0:0:0:
352,288,50498,1,0,0:0:0:0:
256,96,50498,1,0,0:0:0:0:
224,96,50560,1,0,0:0:0:0:
288,288,50560,1,0,0:0:0:0:
384,320,50560,1,0,0:0:0:0:
192,96,50560,1,0,0:0:0:0:
160,224,50560,1,0,0:0:0:0:
160,224,50560,1,0,0:0:0:0:
160,96,50560,1,0,0:0:0:0:
128,96,50560,1,0,0:0:0:0:
128,128,50623,1,0,0:0:0:0:
128,192,50623,1,0,0:0:0:0:
128,192,50623,1,0,0:0:0:0:
128,192,50623,1,0,0:0:0:0:
128,192,50623,1,0,0:0:0:0:
96,160,50623,1,0,0:0:0:0:
160,192,50623,1,0,0:0:0:0:
96,192,50623,1,0,0:0:0:0:
128,224,50623,1,0,0:0:0:0:
224,192,50623,1,0,0:0:0:0:
160,256,50685,1,0,0:0:0:0:
224,96,50685,1,0,0:0:0:0:
224,96,50685,1,0,0:0:0:0:
192,288,50685,1,0,0:0:0:0:
224,320,50685,1,0,0:0:0:0:
224,160,50685,1,0,0:0:0:0:
224,160,50685,1,0,0:0:0:0:
256,320,50685,1,0,0:0:0:0:
32,32,50748,1,0,0:0:0:0:
256,192,50748,1,0,0:0:0:0:
256,192,50748,1,0,0:0:0:0:
256,192,50748,1,0,0:0:0:0:
256,192,50748,1,0,0:0:0:0:
256,192,50748,1,0,0:0:0:0:
256,192,50748,1,0,0:0:0:0:
256,192,50748,1,0,0:0:0:0:
256,192,50748,1,0,0:0:0:0:
288,288,50748,1,0,0:0:0:0:
256,256,50748,1,0,0:0:0:0:
96,160,50748,2,0,B|-32:160|192:192,2,160
96,160,50748,2,0,B|-32:160|192:192,2,160
448,256,50748,1,0,0:0:0:0:
160,128,50810,1,0,0:0:0:0:
160,128,50810,1,0,0:0:0:0:
160,128,50810,1,0,0:0:0:0:
160,128,50810,1,0,0:0:0:0:
224,160,50873,1,0,0:0:0:0:
256,128,50873,1,0,0:0:0:0:
288,224,50873,1,0,0:0:0:0:
128,160,50935,1,0,0:0:0:0:
128,160,50935,1,0,0:0:0:0:
192,192,50935,1,0,0:0:0:0:
192,192,50935,1,0,0:0:0:0:
224,192,50935,1,0,0:0:0:0:
224,192,50935,1,0,0:0:0:0:
224,192,50935,1,0,0:0:0:0:
224,192,50935,1,0,0:0:0:0:
224,192,50935,1,0,0:0:0:0:
224,192,50935,1,0,0:0:0:0:
224,192,50935,1,0,0:0:0:0:
224,192,50935,1,0,0:0:0:0:
288,0,50998,1,0,0:0:0:0:
128,192,50998,1,0,0:0:0:0:
192,96,51060,1,0,0:0:0:0:
448,256,51060,1,0,0:0:0:0:
448,256,51060,1,0,0:0:0:0:
448,256,51060,1,0,0:0:0:0:
448,256,51060,1,0,0:0:0:0:
448,256,51060,1,0,0:0:0:0:
448,256,51060,1,0,0:0:0:0:
448,256,51060,1,0,0:0:0:0:
448,256,51060,1,0,0:0:0:0:
384,192,51060,1,0,0:0:0:0:
384,192,51060,1,0,0:0:0:0:
288,96,51060,1,0,0:0:0:0:
224,192,51123,1,0,0:0:0:0:
320,288,51123,1,0,0:0:0:0:
160,128,51185,1,0,0:0:0:0:
160,128,51185,1,0,0:0:0:0:
160,128,51185,1,0,0:0:0:0:
256,128,51185,1,0,0:0:0:0:
256,128,51185,1,0,0:0:0:0:
256,128,51185,1,0,0:0:0:0:
256,128,51185,1,0,0:0:0:0:
256,128,51185,1,0,0:0:0:0:
256,128,51185,1,0,0:0:0:0:
256,128,51185,1,0,0:0:0:0:
256,128,51185,1,0,0:0:0:0:
192,96,51185,1,0,0:0:0:0:
192,96,51185,1,0,0:0:0:0:
192,96,51185,1,0,0:0:0:0:
192,96,51185,1,0,0:0:0:0:
192,128,51185,1,0,0:0:0:0:
128,160,51185,1,0,0:0:0:0:
128,160,51185,1,0,0:0:0:0:
224,128,51185,1,0,0:0:0:0:
224,128,51248,1,0,0:0:0:0:
160,128,51248,1,0,0:0:0:0:
160,128,51248,1,0,0:0:0:0:
224,128,51248,1,0,0:0:0:0:
160,128,51248,1,0,0:0:0:0:
160,128,51248,1,0,0:0:0:0:
352,320,51248,1,0,0:0:0:0:
224,160,51248,1,0,0:0:0:0:
160,128,51248,1,0,0:0:0:0:
224,192,51248,1,0,0:0:0:0:
256,192,51248,1,0,0:0:0:0:
128,192,51310,1,0,0:0:0:0:
224,224,51310,1,0,0:0:0:0:
256,256,51310,1,0,0:0:0:0:
256,256,51310,1,0,0:0:0:0:
256,256,51310,1,0,0:0:0:0:
288,224,51373,1,0,0:0:0:0:
320,224,51373,1,0,0:0:0:0:
352,256,51373,1,0,0:0:0:0:
288,128,51373,1,0,0:0:0:0:
352,224,51373,1,0,0:0:0:0:
352,224,51373,1,0,0:0:0:0:
480,192,51373,1,0,0:0:0:0:
352,192,51435,1,0,0:0:0:0:
352,192,51435,1,0,0:0:0:0:
352,192,51435,1,0,0:0:0:0:
384,192,51435,1,0,0:0:0:0:
384,192,51435,1,0,0:0:0:0:
384,192,51435,1,0,0:0:0:0:
384,192,51435,1,0,0:0:0:0:
384,224,51498,1,0,0:0:0:0:
224,320,51498,1,0,0:0:0:0:
384,256,51498,1,0,0:0:0:0:
64,256,51498,1,0,0:0:0:0:
416,256,51498,1,0,0:0:0:0:
160,224,51498,1,0,0:0:0:0:
416,256,51498,1,0,0:0:0:0:
416,224,51560,1,0,0:0:0:0:
416,192,51560,1,0,0:0:0:0:
416,160,51560,1,0,0:0:0:0:
256,192,51560,1,0,0:0:0:0:
384,128,51560,1,0,0:0:0:0:
352,128,51623,1,0,0:0:0:0:
192,96,51623,1,0,0:0:0:0:
256,192,51623,1,0,0:0:0:0:
320,160,51623,1,0,0:0:0:0:
288,160,51623,1,0,0:0:0:0:
288,160,51623,1,0,0:0:0:0:
288,160,51623,1,0,0:0:0:0:
288,160,51685,1,0,0:0:0:0:
416,128,51685,1,0,0:0:0:0:
288,128,51685,1,0,0:0:0:0:
288,96,51685,1,0,0:0:0:0:
256,96,51685,1,0,0:0:0:0:
224,96,51748,1,0,0:0:0:0:
288,160,51748,1,0,0:0:0:0:
192,96,51748,1,0,0:0:0:0:
160,96,51748,1,0,0:0:0:0:
64,320,51748,1,0,0:0:0:0:
128,96,51748,1,0,0:0:0:0:
128,128,51810,1,0,0:0:0:0:
96,160,51810,1,0,0:0:0:0:
96,192,51810,1,0,0:0:0:0:
128,224,51810,1,0,0:0:0:0:
224,192,51810,1,0,0:0:0:0:
160,256,51873,1,0,0:0:0:0:
192,288,51873,1,0,0:0:0:0:
224,320,51873,1,0,0:0:0:0:
192,160,51873,1,0,0:0:0:0:
256,320,51873,1,0,0:0:0:0:
288,288,51935,1,0,0:0:0:0:
256,256,51935,1,0,0:0:0:0:
160,224,51935,1,0,0:0:0:0:
448,256,51935,1,0,0:0:0:0:
256,128,52060,1,0,0:0:0:0:
128,192,52185,1,0,0:0:0:0:
256,192,52248,12,0,52691,0:0:0:0:
192,96,52248,5,0,0:0:0:0:
320,288,52310,1,0,0:0:0:0:
160,128,52373,1,0,0:0:0:0:
160,128,52373,1,0,0:0:0:0:
160,128,52373,1,0,0:0:0:0:
192,128,52373,1,0,0:0:0:0:
224,128,52373,1,0,0:0:0:0:
224,128,52435,1,0,0:0:0:0:
224,128,52435,1,0,0:0:0:0:
224,160,52435,1,0,0:0:0:0:
256,192,52435,1,0,0:0:0:0:
128,192,52498,1,0,0:0:0:0:
224,224,52498,1,0,0:0:0:0:
256,256,52498,1,0,0:0:0:0:
256,256,52498,1,0,0:0:0:0:
256,256,52498,1,0,0:0:0:0:
288,224,52560,1,0,0:0:0:0:
320,224,52560,1,0,0:0:0:0:
352,256,52560,1,0,0:0:0:0:
352,224,52560,1,0,0:0:0:0:
384,288,52560,1,0,0:0:0:0:
352,224,52560,1,0,0:0:0:0:
352,192,52623,1,0,0:0:0:0:
352,192,52623,1,0,0:0:0:0:
352,192,52623,1,0,0:0:0:0:
384,192,52623,1,0,0:0:0:0:
384,192,52623,1,0,0:0:0:0:
384,192,52623,1,0,0:0:0:0:
384,224,52685,5,0,0:0:0:0:
384,192,52685,1,0,0:0:0:0:
224,320,52685,1,0,0:0:0:0:
384,256,52685,1,0,0:0:0:0:
416,256,52685,1,0,0:0:0:0:
416,256,52685,1,0,0:0:0:0:
256,192,52748,12,0,52868,0:0:0:0:
416,192,52748,5,0,0:0:0:0:
416,224,52748,1,0,0:0:0:0:
416,160,52748,1,0,0:0:0:0:
384,128,52748,1,0,0:0:0:0:
352,128,52810,1,0,0:0:0:0:
192,96,52810,1,0,0:0:0:0:
256,192,52810,1,0,0:0:0:0:
320,160,52810,1,0,0:0:0:0:
288,160,52810,1,0,0:0:0:0:
288,160,52810,1,0,0:0:0:0:
288,128,52873,5,0,0:0:0:0:
256,192,52873,12,0,52963,0:0:0:0:
288,160,52873,5,0,0:0:0:0:
288,160,52873,1,0,0:0:0:0:
288,96,52873,1,0,0:0:0:0:
256,96,52873,1,0,0:0:0:0:
384,320,52935,5,0,0:0:0:0:
224,96,52935,1,0,0:0:0:0:
192,96,52935,1,0,0:0:0:0:
160,96,52935,1,0,0:0:0:0:
128,96,52935,1,0,0:0:0:0:
96,192,52998,5,0,0:0:0:0:
128,128,52998,1,0,0:0:0:0:
96,160,52998,1,0,0:0:0:0:
128,224,52998,1,0,0:0:0:0:
256,192,53060,12,0,53142,0:0:0:0:
160,256,53060,5,0,0:0:0:0:
192,288,53060,1,0,0:0:0:0:
224,320,53060,1,0,0:0:0:0:
256,320,53060,1,0,0:0:0:0:
448,256,53123,5,0,0:0:0:0:
256,192,53123,12,0,53326,0:0:0:0:
288,288,53123,5,0,0:0:0:0:
256,256,53123,1,0,0:0:0:0:
256,128,53248,5,0,0:0:0:0:
128,192,53373,5,0,0:0:0:0:
256,192,53373,12,0,53486,0:0:0:0:
192,96,53435,5,0,0:0:0:0:
320,288,53498,5,0,0:0:0:0:
256,192,53498,12,0,53656,0:0:0:0:
160,128,53623,5,0,0:0:0:0:
256,192,53685,12,0,54015,0:0:0:0:
128,192,53685,5,0,0:0:0:0:
288,128,53748,5,0,0:0:0:0:
384,288,53748,1,0,0:0:0:0:
224,320,53873,1,0,0:0:0:0:
64,256,53873,1,0,0:0:0:0:
192,96,53998,1,0,0:0:0:0:
256,192,53998,1,0,0:0:0:0:
256,192,54060,12,0,54165,0:0:0:0:
384,320,54123,5,0,0:0:0:0:
256,192,54123,12,0,54153,0:0:0:0:
64,320,54123,5,0,0:0:0:0:
224,192,54185,5,0,0:0:0:0:
256,192,54248,12,0,54323,0:0:0:0:
256,192,54310,12,0,54355,0:0:0:0:
448,256,54310,5,0,0:0:0:0:
256,192,54435,12,0,54518,0:0:0:0:
256,128,54435,5,0,0:0:0:0:
256,192,54498,12,0,54603,0:0:0:0:
128,192,54560,5,0,0:0:0:0:
256,192,54685,12,0,54812,0:0:0:0:
320,288,54685,5,0,0:0:0:0:
160,128,54748,1,0,0:0:0:0:
160,128,54748,1,0,0:0:0:0:
160,128,54748,1,0,0:0:0:0:
192,128,54748,1,0,0:0:0:0:
224,128,54748,1,0,0:0:0:0:
224,128,54748,1,0,0:0:0:0:
224,160,54810,5,0,0:0:0:0:
224,128,54810,1,0,0:0:0:0:
160,224,54810,1,0,0:0:0:0:
160,128,54810,1,0,0:0:0:0:
256,192,54810,1,0,0:0:0:0:
256,192,54873,12,0,54925,0:0:0:0:
256,256,54873,5,0,0:0:0:0:
224,224,54873,1,0,0:0:0:0:
256,256,54873,1,0,0:0:0:0:
256,256,54873,1,0,0:0:0:0:
256,192,54935,12,0,55048,0:0:0:0:
320,224,54935,5,0,0:0:0:0:
288,224,54935,1,0,0:0:0:0:
224,96,54935,1,0,0:0:0:0:
352,256,54935,1,0,0:0:0:0:
128,160,54935,1,0,0:0:0:0:
352,224,54935,1,0,0:0:0:0:
352,224,54935,1,0,0:0:0:0:
64,352,54935,1,0,0:0:0:0:
352,192,54998,1,0,0:0:0:0:
352,192,54998,1,0,0:0:0:0:
352,192,54998,1,0,0:0:0:0:
384,192,54998,1,0,0:0:0:0:
384,192,54998,1,0,0:0:0:0:
384,192,54998,1,0,0:0:0:0:
384,192,54998,1,0,0:0:0:0:
384,224,55060,5,0,0:0:0:0:
256,192,55060,12,0,55120,0:0:0:0:
416,256,55060,5,0,0:0:0:0:
160,224,55060,1,0,0:0:0:0:
224,320,55060,1,0,0:0:0:0:
384,256,55060,1,0,0:0:0:0:
416,256,55060,1,0,0:0:0:0:
384,192,55060,1,0,0:0:0:0:
256,192,55123,12,0,55183,0:0:0:0:
416,160,55123,5,0,0:0:0:0:
416,224,55123,1,0,0:0:0:0:
416,192,55123,1,0,0:0:0:0:
384,128,55123,1,0,0:0:0:0:
224,160,55185,5,0,0:0:0:0:
352,128,55185,1,0,0:0:0:0:
224,96,55185,1,0,0:0:0:0:
128,160,55185,1,0,0:0:0:0:
192,96,55185,1,0,0:0:0:0:
320,160,55185,1,0,0:0:0:0:
288,160,55185,1,0,0:0:0:0:
192,192,55185,1,0,0:0:0:0:
288,160,55185,1,0,0:0:0:0:
288,160,55185,1,0,0:0:0:0:
256,192,55248,12,0,55353,0:0:0:0:
256,96,55248,5,0,0:0:0:0:
288,160,55248,1,0,0:0:0:0:
128,160,55248,1,0,0:0:0:0:
288,128,55248,1,0,0:0:0:0:
288,96,55248,1,0,0:0:0:0:
224,96,55310,1,0,0:0:0:0:
192,96,55310,1,0,0:0:0:0:
160,96,55310,1,0,0:0:0:0:
64,320,55310,1,0,0:0:0:0:
384,192,55310,1,0,0:0:0:0:
128,96,55310,1,0,0:0:0:0:
128,128,55310,1,0,0:0:0:0:
256,192,55373,12,0,55403,0:0:0:0:
96,192,55373,5,0,0:0:0:0:
128,224,55373,5,0,0:0:0:0:
384,160,55373,1,0,0:0:0:0:
96,160,55373,1,0,0:0:0:0:
256,192,55435,12,0,55571,0:0:0:0:
128,160,55435,5,0,0:0:0:0:
128,160,55435,1,0,0:0:0:0:
160,256,55435,1,0,0:0:0:0:
192,288,55435,1,0,0:0:0:0:
192,192,55435,1,0,0:0:0:0:
224,320,55435,1,0,0:0:0:0:
256,320,55435,1,0,0:0:0:0:
288,288,55498,1,0,0:0:0:0:
256,256,55498,1,0,0:0:0:0:
224,96,55498,1,0,0:0:0:0:
256,192,55560,12,0,55635,0:0:0:0:
384,160,55560,5,0,0:0:0:0:
224,192,55560,1,0,0:0:0:0:
128,160,55623,1,0,0:0:0:0:
64,352,55685,5,0,0:0:0:0:
256,192,55685,12,0,55752,0:0:0:0:
192,192,55685,5,0,0:0:0:0:
128,160,55685,1,0,0:0:0:0:
224,96,55748,5,0,0:0:0:0:
160,224,55748,1,0,0:0:0:0:
256,192,55810,12,0,55848,0:0:0:0:
224,192,55810,5,0,0:0:0:0:
384,160,55810,5,0,0:0:0:0:
192,96,55810,1,0,0:0:0:0:
256,192,55873,12,0,55978,0:0:0:0:
224,96,55873,5,0,0:0:0:0:
64,352,55935,1,0,0:0:0:0:
128,160,55935,1,0,0:0:0:0:
224,96,55998,5,0,0:0:0:0:
160,224,55998,1,0,0:0:0:0:
224,192,55998,1,0,0:0:0:0:
256,192,56060,12,0,56158,0:0:0:0:
384,160,56060,5,0,0:0:0:0:
128,192,56060,1,0,0:0:0:0:
256,192,56123,12,0,56205,0:0:0:0:
224,160,56123,5,0,0:0:0:0:
224,96,56123,1,0,0:0:0:0:
128,160,56123,1,0,0:0:0:0:
288,128,56123,1,0,0:0:0:0:
192,192,56123,1,0,0:0:0:0:
192,192,56185,1,0,0:0:0:0:
224,96,56185,1,0,0:0:0:0:
160,224,56248,5,0,0:0:0:0:
64,256,56248,1,0,0:0:0:0:
224,192,56248,1,0,0:0:0:0:
384,192,56248,1,0,0:0:0:0:
256,192,56373,12,0,56494,0:0:0:0:
224,96,56373,5,0,0:0:0:0:
128,160,56373,1,0,0:0:0:0:
256,192,56373,1,0,0:0:0:0:
224,160,56373,1,0,0:0:0:0:
192,192,56373,1,0,0:0:0:0:
160,128,56373,1,0,0:0:0:0:
160,128,56373,1,0,0:0:0:0:
160,128,56373,1,0,0:0:0:0:
128,160,56373,1,0,0:0:0:0:
160,224,56435,5,0,0:0:0:0:
192,128,56435,1,0,0:0:0:0:
224,128,56435,1,0,0:0:0:0:
96,160,56435,2,0,B|-32:160|192:192,2,160
224,128,56435,1,0,0:0:0:0:
224,128,56435,1,0,0:0:0:0:
256,192,56498,12,0,56550,0:0:0:0:
224,224,56498,5,0,0:0:0:0:
224,160,56498,1,0,0:0:0:0:
160,224,56498,1,0,0:0:0:0:
256,192,56498,1,0,0:0:0:0:
384,192,56498,1,0,0:0:0:0:
288,224,56560,5,0,0:0:0:0:
384,160,56560,1,0,0:0:0:0:
256,256,56560,1,0,0:0:0:0:
256,256,56560,1,0,0:0:0:0:
256,256,56560,1,0,0:0:0:0:
320,224,56560,1,0,0:0:0:0:
224,192,56560,1,0,0:0:0:0:
224,96,56560,1,0,0:0:0:0:
224,96,56560,1,0,0:0:0:0:
256,192,56623,12,0,56720,0:0:0:0:
224,160,56623,5,0,0:0:0:0:
352,256,56623,1,0,0:0:0:0:
128,160,56623,1,0,0:0:0:0:
352,224,56623,1,0,0:0:0:0:
352,224,56623,1,0,0:0:0:0:
224,160,56623,1,0,0:0:0:0:
192,192,56623,1,0,0:0:0:0:
352,192,56623,1,0,0:0:0:0:
192,192,56623,1,0,0:0:0:0:
128,160,56623,1,0,0:0:0:0:
352,192,56623,1,0,0:0:0:0:
352,192,56623,1,0,0:0:0:0:
384,192,56685,1,0,0:0:0:0:
96,160,56685,2,0,B|-32:160|192:192,2,160
384,192,56685,1,0,0:0:0:0:
384,192,56685,1,0,0:0:0:0:
384,192,56685,1,0,0:0:0:0:
224,96,56685,1,0,0:0:0:0:
384,224,56685,1,0,0:0:0:0:
448,256,56685,1,0,0:0:0:0:
384,256,56748,5,0,0:0:0:0:
256,192,56748,12,0,56905,0:0:0:0:
416,256,56748,5,0,0:0:0:0:
224,192,56748,1,0,0:0:0:0:
416,256,56748,1,0,0:0:0:0:
384,192,56748,1,0,0:0:0:0:
416,224,56748,1,0,0:0:0:0:
384,160,56748,1,0,0:0:0:0:
416,192,56748,1,0,0:0:0:0:
416,160,56810,1,0,0:0:0:0:
384,128,56810,1,0,0:0:0:0:
352,128,56810,1,0,0:0:0:0:
256,128,56810,1,0,0:0:0:0:
128,160,56810,1,0,0:0:0:0:
320,160,56810,1,0,0:0:0:0:
288,128,56873,5,0,0:0:0:0:
192,192,56873,1,0,0:0:0:0:
288,160,56873,1,0,0:0:0:0:
192,192,56873,1,0,0:0:0:0:
64,352,56873,1,0,0:0:0:0:
288,160,56873,1,0,0:0:0:0:
192,192,56873,1,0,0:0:0:0:
288,160,56873,1,0,0:0:0:0:
288,160,56873,1,0,0:0:0:0:
128,160,56873,1,0,0:0:0:0:
96,160,56873,2,0,B|-32:160|192:192,2,160
256,192,56935,12,0,57138,0:0:0:0:
224,96,56935,5,0,0:0:0:0:
288,96,56935,1,0,0:0:0:0:
256,96,56935,1,0,0:0:0:0:
224,96,56935,1,0,0:0:0:0:
160,224,56935,1,0,0:0:0:0:
128,192,56935,1,0,0:0:0:0:
192,96,56935,1,0,0:0:0:0:
160,96,56998,1,0,0:0:0:0:
224,192,56998,1,0,0:0:0:0:
384,192,56998,1,0,0:0:0:0:
128,96,56998,1,0,0:0:0:0:
128,128,56998,1,0,0:0:0:0:
384,160,56998,1,0,0:0:0:0:
96,160,56998,1,0,0:0:0:0:
96,192,57060,1,0,0:0:0:0:
128,224,57060,1,0,0:0:0:0:
224,96,57060,1,0,0:0:0:0:
320,288,57060,1,0,0:0:0:0:
128,160,57060,1,0,0:0:0:0:
160,256,57060,1,0,0:0:0:0:
192,288,57060,1,0,0:0:0:0:
224,160,57060,1,0,0:0:0:0:
64,352,57060,1,0,0:0:0:0:
288,288,57123,5,0,0:0:0:0:
224,320,57123,1,0,0:0:0:0:
192,192,57123,1,0,0:0:0:0:
128,160,57123,1,0,0:0:0:0:
256,320,57123,1,0,0:0:0:0:
96,160,57123,2,0,B|-32:160|192:192,2,160
256,256,57123,1,0,0:0:0:0:
256,192,57185,12,0,57215,0:0:0:0:
224,96,57185,5,0,0:0:0:0:
160,224,57185,1,0,0:0:0:0:
160,128,57185,1,0,0:0:0:0:
224,192,57248,5,0,0:0:0:0:
256,192,57248,12,0,57323,0:0:0:0:
384,160,57248,5,0,0:0:0:0:
224,96,57310,5,0,0:0:0:0:
128,160,57310,1,0,0:0:0:0:
224,160,57310,1,0,0:0:0:0:
384,288,57310,1,0,0:0:0:0:
192,192,57310,1,0,0:0:0:0:
64,352,57310,1,0,0:0:0:0:
256,192,57373,12,0,57471,0:0:0:0:
224,96,57373,5,0,0:0:0:0:
192,192,57373,1,0,0:0:0:0:
128,160,57373,1,0,0:0:0:0:
224,320,57435,1,0,0:0:0:0:
160,224,57435,1,0,0:0:0:0:
384,192,57435,1,0,0:0:0:0:
192,96,57435,1,0,0:0:0:0:
384,160,57498,1,0,0:0:0:0:
224,96,57560,5,0,0:0:0:0:
256,192,57560,12,0,57650,0:0:0:0:
192,192,57560,5,0,0:0:0:0:
192,96,57560,1,0,0:0:0:0:
192,192,57560,1,0,0:0:0:0:
224,160,57560,1,0,0:0:0:0:
64,352,57560,1,0,0:0:0:0:
128,160,57560,1,0,0:0:0:0:
224,96,57623,1,0,0:0:0:0:
224,96,57623,1,0,0:0:0:0:
160,224,57623,1,0,0:0:0:0:
64,320,57685,5,0,0:0:0:0:
224,192,57685,1,0,0:0:0:0:
224,192,57685,1,0,0:0:0:0:
128,192,57685,1,0,0:0:0:0:
384,160,57685,1,0,0:0:0:0:
256,192,57748,12,0,57883,0:0:0:0:
224,96,57748,5,0,0:0:0:0:
128,160,57748,1,0,0:0:0:0:
128,160,57748,1,0,0:0:0:0:
288,128,57810,1,0,0:0:0:0:
224,160,57810,1,0,0:0:0:0:
192,192,57810,1,0,0:0:0:0:
64,352,57810,1,0,0:0:0:0:
192,192,57810,1,0,0:0:0:0:
256,192,57873,12,0,57964,0:0:0:0:
224,96,57873,5,0,0:0:0:0:
160,224,57873,1,0,0:0:0:0:
64,256,57935,5,0,0:0:0:0:
224,192,57935,1,0,0:0:0:0:
384,192,57935,1,0,0:0:0:0:
384,192,57935,1,0,0:0:0:0:
224,96,57998,5,0,0:0:0:0:
256,192,57998,1,0,0:0:0:0:
256,192,58060,12,0,58113,0:0:0:0:
224,160,58060,5,0,0:0:0:0:
192,192,58060,1,0,0:0:0:0:
224,160,58060,1,0,0:0:0:0:
128,160,58060,1,0,0:0:0:0:
128,160,58060,1,0,0:0:0:0:
192,192,58060,1,0,0:0:0:0:
96,160,58060,2,0,B|-32:160|192:192,2,160
256,192,58123,12,0,58236,0:0:0:0:
384,320,58123,5,0,0:0:0:0:
224,96,58123,1,0,0:0:0:0:
224,192,58185,1,0,0:0:0:0:
384,160,58185,1,0,0:0:0:0:
384,160,58185,1,0,0:0:0:0:
128,192,58185,1,0,0:0:0:0:
224,192,58248,5,0,0:0:0:0:
128,160,58248,1,0,0:0:0:0:
128,160,58248,1,0,0:0:0:0:
128,160,58248,1,0,0:0:0:0:
192,192,58248,1,0,0:0:0:0:
256,192,58310,12,0,58453,0:0:0:0:
192,128,58310,5,0,0:0:0:0:
192,192,58310,1,0,0:0:0:0:
160,128,58310,1,0,0:0:0:0:
192,192,58310,1,0,0:0:0:0:
192,192,58310,1,0,0:0:0:0:
160,128,58310,1,0,0:0:0:0:
288,128,58310,1,0,0:0:0:0:
224,128,58310,1,0,0:0:0:0:
224,128,58310,1,0,0:0:0:0:
160,128,58310,1,0,0:0:0:0:
160,128,58373,1,0,0:0:0:0:
160,128,58373,1,0,0:0:0:0:
224,96,58373,1,0,0:0:0:0:
224,96,58373,1,0,0:0:0:0:
448,256,58373,1,0,0:0:0:0:
192,128,58373,1,0,0:0:0:0:
224,160,58373,1,0,0:0:0:0:
160,224,58373,1,0,0:0:0:0:
224,128,58373,1,0,0:0:0:0:
224,128,58373,1,0,0:0:0:0:
224,128,58373,1,0,0:0:0:0:
224,192,58373,1,0,0:0:0:0:
224,192,58373,1,0,0:0:0:0:
224,224,58435,5,0,0:0:0:0:
384,192,58435,1,0,0:0:0:0:
224,224,58435,1,0,0:0:0:0:
384,192,58435,1,0,0:0:0:0:
224,160,58435,1,0,0:0:0:0:
256,256,58435,1,0,0:0:0:0:
256,192,58435,1,0,0:0:0:0:
256,256,58435,1,0,0:0:0:0:
256,256,58435,1,0,0:0:0:0:
320,224,58498,1,0,0:0:0:0:
256,256,58498,1,0,0:0:0:0:
256,128,58498,1,0,0:0:0:0:
256,256,58498,1,0,0:0:0:0:
224,96,58498,1,0,0:0:0:0:
256,256,58498,1,0,0:0:0:0:
128,160,58498,1,0,0:0:0:0:
352,224,58498,1,0,0:0:0:0:
288,224,58498,1,0,0:0:0:0:
352,224,58498,1,0,0:0:0:0:
64,352,58498,1,0,0:0:0:0:
64,352,58498,1,0,0:0:0:0:
224,160,58498,1,0,0:0:0:0:
320,224,58498,1,0,0:0:0:0:
256,192,58560,12,0,58695,0:0:0:0:
128,160,58560,5,0,0:0:0:0:
352,192,58560,1,0,0:0:0:0:
352,192,58560,1,0,0:0:0:0:
128,160,58560,1,0,0:0:0:0:
352,256,58560,1,0,0:0:0:0:
256,192,58560,1,0,0:0:0:0:
128,160,58560,1,0,0:0:0:0:
352,224,58560,1,0,0:0:0:0:
384,192,58560,1,0,0:0:0:0:
96,160,58560,2,0,B|-32:160|192:192,2,160
352,224,58560,1,0,0:0:0:0:
384,192,58560,1,0,0:0:0:0:
352,192,58560,1,0,0:0:0:0:
352,192,58560,1,0,0:0:0:0:
352,192,58623,1,0,0:0:0:0:
160,224,58623,1,0,0:0:0:0:
160,224,58623,1,0,0:0:0:0:
128,192,58623,1,0,0:0:0:0:
384,192,58623,1,0,0:0:0:0:
384,192,58623,1,0,0:0:0:0:
384,256,58623,1,0,0:0:0:0:
384,192,58623,1,0,0:0:0:0:
384,192,58623,1,0,0:0:0:0:
416,256,58623,1,0,0:0:0:0:
416,256,58623,1,0,0:0:0:0:
384,224,58623,1,0,0:0:0:0:
384,192,58623,1,0,0:0:0:0:
384,160,58685,5,0,0:0:0:0:
192,192,58685,5,0,0:0:0:0:
416,224,58685,1,0,0:0:0:0:
384,160,58685,1,0,0:0:0:0:
384,256,58685,1,0,0:0:0:0:
384,160,58685,1,0,0:0:0:0:
416,256,58685,1,0,0:0:0:0:
416,256,58685,1,0,0:0:0:0:
384,128,58685,1,0,0:0:0:0:
416,224,58685,1,0,0:0:0:0:
352,128,58685,1,0,0:0:0:0:
256,192,58748,12,0,58876,0:0:0:0:
192,192,58748,5,0,0:0:0:0:
224,96,58748,1,0,0:0:0:0:
224,96,58748,1,0,0:0:0:0:
416,192,58748,1,0,0:0:0:0:
320,288,58748,1,0,0:0:0:0:
128,160,58748,1,0,0:0:0:0:
416,160,58748,1,0,0:0:0:0:
320,160,58748,1,0,0:0:0:0:
224,160,58748,1,0,0:0:0:0:
224,160,58748,1,0,0:0:0:0:
384,128,58748,1,0,0:0:0:0:
288,160,58748,1,0,0:0:0:0:
64,352,58748,1,0,0:0:0:0:
224,192,58748,1,0,0:0:0:0:
192,192,58748,1,0,0:0:0:0:
192,192,58748,1,0,0:0:0:0:
352,128,58748,1,0,0:0:0:0:
288,160,58748,1,0,0:0:0:0:
288,160,58748,1,0,0:0:0:0:
192,192,58748,1,0,0:0:0:0:
128,160,58810,1,0,0:0:0:0:
320,160,58810,1,0,0:0:0:0:
288,128,58810,1,0,0:0:0:0:
384,288,58810,1,0,0:0:0:0:
288,160,58810,1,0,0:0:0:0:
288,96,58810,1,0,0:0:0:0:
288,160,58810,1,0,0:0:0:0:
288,160,58810,1,0,0:0:0:0:
256,96,58810,1,0,0:0:0:0:
224,96,58810,1,0,0:0:0:0:
288,160,58810,1,0,0:0:0:0:
224,96,58810,1,0,0:0:0:0:
224,96,58810,1,0,0:0:0:0:
224,96,58810,1,0,0:0:0:0:
160,224,58810,1,0,0:0:0:0:
192,96,58873,5,0,0:0:0:0:
288,128,58873,1,0,0:0:0:0:
192,96,58873,1,0,0:0:0:0:
288,96,58873,1,0,0:0:0:0:
288,256,58873,1,0,0:0:0:0:
160,96,58873,1,0,0:0:0:0:
224,192,58873,1,0,0:0:0:0:
256,96,58873,1,0,0:0:0:0:
384,192,58873,1,0,0:0:0:0:
448,256,58873,1,0,0:0:0:0:
224,192,58873,1,0,0:0:0:0:
224,96,58873,1,0,0:0:0:0:
128,128,58873,1,0,0:0:0:0:
288,192,58873,1,0,0:0:0:0:
96,160,58935,1,0,0:0:0:0:
384,160,58935,1,0,0:0:0:0:
160,96,58935,1,0,0:0:0:0:
128,96,58935,1,0,0:0:0:0:
128,128,58935,1,0,0:0:0:0:
224,96,58935,1,0,0:0:0:0:
128,160,58935,1,0,0:0:0:0:
96,160,58935,1,0,0:0:0:0:
128,160,58935,1,0,0:0:0:0:
256,128,58998,5,0,0:0:0:0:
160,256,58998,1,0,0:0:0:0:
96,192,58998,1,0,0:0:0:0:
192,288,58998,1,0,0:0:0:0:
224,160,58998,1,0,0:0:0:0:
192,192,58998,1,0,0:0:0:0:
64,352,58998,1,0,0:0:0:0:
128,224,58998,1,0,0:0:0:0:
224,320,58998,1,0,0:0:0:0:
256,128,58998,1,0,0:0:0:0:
192,192,58998,1,0,0:0:0:0:
256,320,58998,1,0,0:0:0:0:
192,192,58998,1,0,0:0:0:0:
160,256,58998,1,0,0:0:0:0:
288,288,59060,1,0,0:0:0:0:
256,256,59060,1,0,0:0:0:0:
160,128,59060,1,0,0:0:0:0:
160,128,59060,1,0,0:0:0:0:
160,128,59060,1,0,0:0:0:0:
160,128,59060,1,0,0:0:0:0:
160,128,59060,1,0,0:0:0:0:
224,96,59060,1,0,0:0:0:0:
160,224,59060,1,0,0:0:0:0:
192,128,59060,1,0,0:0:0:0:
192,128,59060,1,0,0:0:0:0:
224,96,59060,1,0,0:0:0:0:
160,224,59060,1,0,0:0:0:0:
160,224,59060,1,0,0:0:0:0:
224,128,59060,1,0,0:0:0:0:
224,128,59060,1,0,0:0:0:0:
224,128,59123,1,0,0:0:0:0:
224,128,59123,1,0,0:0:0:0:
224,128,59123,1,0,0:0:0:0:
224,128,59123,1,0,0:0:0:0:
320,288,59123,1,0,0:0:0:0:
384,192,59123,1,0,0:0:0:0:
224,192,59123,1,0,0:0:0:0:
384,192,59123,1,0,0:0:0:0:
224,192,59123,1,0,0:0:0:0:
224,160,59123,1,0,0:0:0:0:
224,160,59123,1,0,0:0:0:0:
384,160,59123,1,0,0:0:0:0:
256,192,59123,1,0,0:0:0:0:
256,192,59123,1,0,0:0:0:0:
128,192,59185,1,0,0:0:0:0:
224,224,59185,1,0,0:0:0:0:
224,224,59185,1,0,0:0:0:0:
352,160,59185,1,0,0:0:0:0:
224,96,59185,1,0,0:0:0:0:
256,256,59185,1,0,0:0:0:0:
256,256,59185,1,0,0:0:0:0:
224,96,59185,1,0,0:0:0:0:
256,256,59185,1,0,0:0:0:0:
256,256,59185,1,0,0:0:0:0:
128,160,59185,1,0,0:0:0:0:
256,256,59185,1,0,0:0:0:0:
256,256,59185,1,0,0:0:0:0:
224,160,59248,1,0,0:0:0:0:
288,224,59248,1,0,0:0:0:0:
288,224,59248,1,0,0:0:0:0:
192,192,59248,1,0,0:0:0:0:
224,160,59248,1,0,0:0:0:0:
320,224,59248,1,0,0:0:0:0:
320,224,59248,1,0,0:0:0:0:
192,192,59248,1,0,0:0:0:0:
128,160,59248,1,0,0:0:0:0:
288,128,59248,1,0,0:0:0:0:
128,160,59248,1,0,0:0:0:0:
352,256,59248,1,0,0:0:0:0:
352,256,59248,1,0,0:0:0:0:
352,224,59248,1,0,0:0:0:0:
352,224,59248,1,0,0:0:0:0:
96,160,59248,2,0,B|-32:160|192:192,2,160
352,224,59248,1,0,0:0:0:0:
352,224,59248,1,0,0:0:0:0:
160,128,59248,1,0,0:0:0:0:
160,128,59310,1,0,0:0:0:0:
160,128,59310,1,0,0:0:0:0:
352,192,59310,1,0,0:0:0:0:
352,192,59310,1,0,0:0:0:0:
352,192,59310,1,0,0:0:0:0:
224,96,59310,1,0,0:0:0:0:
192,128,59310,1,0,0:0:0:0:
352,192,59310,1,0,0:0:0:0:
160,224,59310,1,0,0:0:0:0:
224,128,59310,1,0,0:0:0:0:
384,192,59310,1,0,0:0:0:0:
160,224,59310,1,0,0:0:0:0:
384,192,59310,1,0,0:0:0:0:
224,128,59310,1,0,0:0:0:0:
224,128,59310,1,0,0:0:0:0:
384,192,59310,1,0,0:0:0:0:
384,192,59373,1,0,0:0:0:0:
384,192,59373,1,0,0:0:0:0:
64,320,59373,1,0,0:0:0:0:
224,192,59373,1,0,0:0:0:0:
384,192,59373,1,0,0:0:0:0:
384,224,59373,1,0,0:0:0:0:
384,224,59373,1,0,0:0:0:0:
224,160,59373,1,0,0:0:0:0:
160,128,59373,1,0,0:0:0:0:
384,160,59373,1,0,0:0:0:0:
384,160,59373,1,0,0:0:0:0:
256,192,59373,1,0,0:0:0:0:
384,256,59373,1,0,0:0:0:0:
416,256,59373,1,0,0:0:0:0:
416,256,59373,1,0,0:0:0:0:
416,256,59373,1,0,0:0:0:0:
224,224,59373,1,0,0:0:0:0:
192,96,59435,1,0,0:0:0:0:
416,224,59435,1,0,0:0:0:0:
416,224,59435,1,0,0:0:0:0:
256,256,59435,1,0,0:0:0:0:
416,192,59435,1,0,0:0:0:0:
256,256,59435,1,0,0:0:0:0:
224,96,59435,1,0,0:0:0:0:
128,160,59435,1,0,0:0:0:0:
256,256,59435,1,0,0:0:0:0:
128,160,59435,1,0,0:0:0:0:
416,160,59435,1,0,0:0:0:0:
416,160,59435,1,0,0:0:0:0:
288,224,59435,1,0,0:0:0:0:
192,192,59435,1,0,0:0:0:0:
384,128,59435,1,0,0:0:0:0:
384,128,59435,1,0,0:0:0:0:
224,160,59435,1,0,0:0:0:0:
256,192,59498,12,0,59550,0:0:0:0:
192,192,59498,5,0,0:0:0:0:
320,224,59498,1,0,0:0:0:0:
224,160,59498,1,0,0:0:0:0:
352,128,59498,1,0,0:0:0:0:
352,128,59498,1,0,0:0:0:0:
192,192,59498,1,0,0:0:0:0:
352,256,59498,1,0,0:0:0:0:
256,192,59498,1,0,0:0:0:0:
128,160,59498,1,0,0:0:0:0:
352,224,59498,1,0,0:0:0:0:
320,160,59498,1,0,0:0:0:0:
352,224,59498,1,0,0:0:0:0:
288,160,59498,1,0,0:0:0:0:
288,160,59498,1,0,0:0:0:0:
96,160,59498,2,0,B|-32:160|192:192,2,160
352,192,59498,1,0,0:0:0:0:
288,160,59498,1,0,0:0:0:0:
352,192,59560,5,0,0:0:0:0:
256,192,59560,12,0,59657,0:0:0:0:
224,192,59560,5,0,0:0:0:0:
288,160,59560,1,0,0:0:0:0:
224,96,59560,1,0,0:0:0:0:
352,192,59560,1,0,0:0:0:0:
288,160,59560,1,0,0:0:0:0:
224,96,59560,1,0,0:0:0:0:
384,192,59560,1,0,0:0:0:0:
288,128,59560,1,0,0:0:0:0:
384,192,59560,1,0,0:0:0:0:
384,192,59560,1,0,0:0:0:0:
288,96,59560,1,0,0:0:0:0:
384,192,59560,1,0,0:0:0:0:
256,96,59560,1,0,0:0:0:0:
256,96,59560,1,0,0:0:0:0:
224,192,59560,1,0,0:0:0:0:
384,224,59560,1,0,0:0:0:0:
128,192,59560,1,0,0:0:0:0:
384,192,59623,1,0,0:0:0:0:
224,96,59623,1,0,0:0:0:0:
224,96,59623,1,0,0:0:0:0:
384,256,59623,1,0,0:0:0:0:
192,96,59623,1,0,0:0:0:0:
384,160,59623,1,0,0:0:0:0:
416,256,59623,1,0,0:0:0:0:
160,96,59623,1,0,0:0:0:0:
416,256,59623,1,0,0:0:0:0:
128,96,59623,1,0,0:0:0:0:
128,192,59623,1,0,0:0:0:0:
128,96,59623,1,0,0:0:0:0:
416,224,59623,1,0,0:0:0:0:
416,160,59685,5,0,0:0:0:0:
256,192,59685,12,0,59842,0:0:0:0:
64,352,59685,5,0,0:0:0:0:
128,128,59685,1,0,0:0:0:0:
128,128,59685,1,0,0:0:0:0:
416,192,59685,1,0,0:0:0:0:
96,160,59685,1,0,0:0:0:0:
96,160,59685,1,0,0:0:0:0:
288,128,59685,1,0,0:0:0:0:
128,160,59685,1,0,0:0:0:0:
384,128,59685,1,0,0:0:0:0:
96,192,59685,1,0,0:0:0:0:
224,192,59685,1,0,0:0:0:0:
192,192,59685,1,0,0:0:0:0:
64,352,59685,1,0,0:0:0:0:
352,128,59685,1,0,0:0:0:0:
128,224,59685,1,0,0:0:0:0:
192,192,59685,1,0,0:0:0:0:
192,192,59685,1,0,0:0:0:0:
192,192,59748,1,0,0:0:0:0:
128,160,59748,1,0,0:0:0:0:
192,96,59748,1,0,0:0:0:0:
128,160,59748,1,0,0:0:0:0:
160,256,59748,1,0,0:0:0:0:
320,160,59748,1,0,0:0:0:0:
160,256,59748,1,0,0:0:0:0:
96,160,59748,2,0,B|-32:160|192:192,2,160
288,160,59748,1,0,0:0:0:0:
288,160,59748,1,0,0:0:0:0:
288,160,59748,1,0,0:0:0:0:
288,160,59748,1,0,0:0:0:0:
224,96,59810,1,0,0:0:0:0:
160,224,59810,1,0,0:0:0:0:
288,128,59810,1,0,0:0:0:0:
160,224,59810,1,0,0:0:0:0:
256,256,59810,1,0,0:0:0:0:
288,96,59810,1,0,0:0:0:0:
64,256,59810,1,0,0:0:0:0:
256,96,59810,1,0,0:0:0:0:
448,256,59810,1,0,0:0:0:0:
224,192,59810,1,0,0:0:0:0:
224,96,59810,1,0,0:0:0:0:
384,192,59810,1,0,0:0:0:0:
384,160,59873,5,0,0:0:0:0:
256,192,59873,12,0,60076,0:0:0:0:
224,96,59873,5,0,0:0:0:0:
192,96,59873,1,0,0:0:0:0:
384,160,59873,1,0,0:0:0:0:
160,96,59873,1,0,0:0:0:0:
128,96,59873,1,0,0:0:0:0:
128,128,59873,1,0,0:0:0:0:
96,160,59935,1,0,0:0:0:0:
224,96,59935,1,0,0:0:0:0:
256,192,59935,1,0,0:0:0:0:
96,192,59935,1,0,0:0:0:0:
224,160,59935,1,0,0:0:0:0:
64,352,59935,1,0,0:0:0:0:
128,224,59935,1,0,0:0:0:0:
256,128,59935,1,0,0:0:0:0:
192,192,59935,1,0,0:0:0:0:
192,192,59935,1,0,0:0:0:0:
160,256,59935,1,0,0:0:0:0:
128,160,59935,1,0,0:0:0:0:
256,192,59998,1,0,0:0:0:0:
256,192,59998,1,0,0:0:0:0:
160,128,59998,1,0,0:0:0:0:
160,128,59998,1,0,0:0:0:0:
160,128,59998,1,0,0:0:0:0:
160,128,59998,1,0,0:0:0:0:
160,128,59998,1,0,0:0:0:0:
224,96,59998,1,0,0:0:0:0:
224,96,59998,1,0,0:0:0:0:
192,128,59998,1,0,0:0:0:0:
192,128,59998,1,0,0:0:0:0:
224,96,59998,1,0,0:0:0:0:
160,224,59998,1,0,0:0:0:0:
384,320,59998,1,0,0:0:0:0:
160,224,59998,1,0,0:0:0:0:
224,128,60060,1,0,0:0:0:0:
224,128,60060,1,0,0:0:0:0:
224,128,60060,1,0,0:0:0:0:
224,128,60060,1,0,0:0:0:0:
224,128,60060,1,0,0:0:0:0:
224,128,60060,1,0,0:0:0:0:
224,192,60060,1,0,0:0:0:0:
384,192,60060,1,0,0:0:0:0:
224,192,60060,1,0,0:0:0:0:
224,160,60060,1,0,0:0:0:0:
224,160,60060,1,0,0:0:0:0:
256,192,60060,1,0,0:0:0:0:
224,224,60123,5,0,0:0:0:0:
256,192,60123,12,0,60153,0:0:0:0:
256,192,60123,5,0,0:0:0:0:
384,160,60123,1,0,0:0:0:0:
224,224,60123,1,0,0:0:0:0:
192,96,60123,1,0,0:0:0:0:
192,96,60123,1,0,0:0:0:0:
256,256,60123,1,0,0:0:0:0:
256,256,60123,1,0,0:0:0:0:
224,96,60123,1,0,0:0:0:0:
256,256,60123,1,0,0:0:0:0:
256,256,60123,1,0,0:0:0:0:
224,96,60123,1,0,0:0:0:0:
128,160,60123,1,0,0:0:0:0:
128,160,60123,1,0,0:0:0:0:
256,256,60123,1,0,0:0:0:0:
256,256,60123,1,0,0:0:0:0:
288,224,60185,5,0,0:0:0:0:
256,192,60185,12,0,60260,0:0:0:0:
224,192,60185,5,0,0:0:0:0:
288,224,60185,1,0,0:0:0:0:
224,160,60185,1,0,0:0:0:0:
224,160,60185,1,0,0:0:0:0:
192,192,60185,1,0,0:0:0:0:
64,352,60185,1,0,0:0:0:0:
320,224,60185,1,0,0:0:0:0:
320,224,60185,1,0,0:0:0:0:
224,192,60185,1,0,0:0:0:0:
128,160,60185,1,0,0:0:0:0:
352,256,60185,1,0,0:0:0:0:
352,256,60185,1,0,0:0:0:0:
192,192,60185,1,0,0:0:0:0:
352,224,60185,1,0,0:0:0:0:
352,224,60185,1,0,0:0:0:0:
160,224,60248,5,0,0:0:0:0:
352,224,60248,1,0,0:0:0:0:
352,224,60248,1,0,0:0:0:0:
352,192,60248,1,0,0:0:0:0:
352,192,60248,1,0,0:0:0:0:
352,192,60248,1,0,0:0:0:0:
352,192,60248,1,0,0:0:0:0:
352,192,60248,1,0,0:0:0:0:
352,192,60248,1,0,0:0:0:0:
448,256,60248,1,0,0:0:0:0:
224,96,60248,1,0,0:0:0:0:
160,224,60248,1,0,0:0:0:0:
384,192,60248,1,0,0:0:0:0:
384,192,60248,1,0,0:0:0:0:
160,224,60248,1,0,0:0:0:0:
384,192,60248,1,0,0:0:0:0:
384,192,60248,1,0,0:0:0:0:
384,192,60248,1,0,0:0:0:0:
384,192,60248,1,0,0:0:0:0:
384,192,60310,1,0,0:0:0:0:
384,192,60310,1,0,0:0:0:0:
384,192,60310,1,0,0:0:0:0:
384,192,60310,1,0,0:0:0:0:
384,224,60310,1,0,0:0:0:0:
384,224,60310,1,0,0:0:0:0:
224,192,60310,1,0,0:0:0:0:
448,256,60310,1,0,0:0:0:0:
448,256,60310,1,0,0:0:0:0:
160,128,60310,1,0,0:0:0:0:
384,160,60310,1,0,0:0:0:0:
384,256,60310,1,0,0:0:0:0:
384,256,60310,1,0,0:0:0:0:
416,256,60310,1,0,0:0:0:0:
416,256,60310,1,0,0:0:0:0:
256,192,60373,12,0,60471,0:0:0:0:
416,192,60373,5,0,0:0:0:0:
416,256,60373,1,0,0:0:0:0:
416,256,60373,1,0,0:0:0:0:
128,192,60373,1,0,0:0:0:0:
192,96,60373,1,0,0:0:0:0:
128,192,60373,1,0,0:0:0:0:
416,224,60373,1,0,0:0:0:0:
416,224,60373,1,0,0:0:0:0:
416,192,60373,1,0,0:0:0:0:
224,96,60373,1,0,0:0:0:0:
224,96,60373,1,0,0:0:0:0:
256,128,60373,1,0,0:0:0:0:
224,96,60373,1,0,0:0:0:0:
416,160,60373,1,0,0:0:0:0:
416,160,60373,1,0,0:0:0:0:
288,160,60435,5,0,0:0:0:0:
384,128,60435,1,0,0:0:0:0:
384,128,60435,1,0,0:0:0:0:
224,160,60435,1,0,0:0:0:0:
192,192,60435,1,0,0:0:0:0:
224,160,60435,1,0,0:0:0:0:
352,128,60435,1,0,0:0:0:0:
352,128,60435,1,0,0:0:0:0:
192,192,60435,1,0,0:0:0:0:
128,160,60435,1,0,0:0:0:0:
128,160,60435,1,0,0:0:0:0:
256,128,60435,1,0,0:0:0:0:
256,128,60435,1,0,0:0:0:0:
288,128,60435,1,0,0:0:0:0:
288,128,60435,1,0,0:0:0:0:
288,128,60435,1,0,0:0:0:0:
320,160,60435,1,0,0:0:0:0:
288,128,60435,1,0,0:0:0:0:
320,160,60435,1,0,0:0:0:0:
288,160,60435,1,0,0:0:0:0:
288,160,60435,1,0,0:0:0:0:
96,160,60435,2,0,B|-32:160|192:192,2,160
96,160,60435,2,0,B|-32:160|192:192,2,160
288,160,60435,1,0,0:0:0:0:
288,160,60498,1,0,0:0:0:0:
288,160,60498,1,0,0:0:0:0:
288,160,60498,1,0,0:0:0:0:
288,160,60498,1,0,0:0:0:0:
224,96,60498,1,0,0:0:0:0:
288,128,60498,1,0,0:0:0:0:
288,128,60498,1,0,0:0:0:0:
128,192,60498,1,0,0:0:0:0:
160,224,60498,1,0,0:0:0:0:
288,96,60498,1,0,0:0:0:0:
288,96,60498,1,0,0:0:0:0:
256,96,60498,1,0,0:0:0:0:
256,96,60498,1,0,0:0:0:0:
224,192,60498,1,0,0:0:0:0:
256,192,60560,12,0,60650,0:0:0:0:
128,192,60560,5,0,0:0:0:0:
224,96,60560,1,0,0:0:0:0:
224,96,60560,1,0,0:0:0:0:
128,192,60560,1,0,0:0:0:0:
192,96,60560,1,0,0:0:0:0:
192,96,60560,1,0,0:0:0:0:
384,160,60560,1,0,0:0:0:0:
384,160,60560,1,0,0:0:0:0:
160,96,60560,1,0,0:0:0:0:
160,96,60560,1,0,0:0:0:0:
128,96,60560,1,0,0:0:0:0:
128,192,60560,1,0,0:0:0:0:
128,96,60560,1,0,0:0:0:0:
192,192,60623,5,0,0:0:0:0:
128,128,60623,1,0,0:0:0:0:
128,128,60623,1,0,0:0:0:0:
96,160,60623,1,0,0:0:0:0:
96,160,60623,1,0,0:0:0:0:
128,160,60623,1,0,0:0:0:0:
320,288,60623,1,0,0:0:0:0:
224,96,60623,1,0,0:0:0:0:
128,160,60623,1,0,0:0:0:0:
128,160,60623,1,0,0:0:0:0:
96,192,60623,1,0,0:0:0:0:
96,192,60623,1,0,0:0:0:0:
64,352,60623,1,0,0:0:0:0:
128,224,60623,1,0,0:0:0:0:
128,224,60623,1,0,0:0:0:0:
192,192,60623,1,0,0:0:0:0:
192,192,60623,1,0,0:0:0:0:
224,160,60685,1,0,0:0:0:0:
192,192,60685,1,0,0:0:0:0:
192,192,60685,1,0,0:0:0:0:
192,96,60685,1,0,0:0:0:0:
160,256,60685,1,0,0:0:0:0:
288,128,60685,1,0,0:0:0:0:
160,256,60685,1,0,0:0:0:0:
256,192,60685,1,0,0:0:0:0:
256,192,60685,1,0,0:0:0:0:
256,192,60685,1,0,0:0:0:0:
256,192,60685,1,0,0:0:0:0:
96,160,60685,2,0,B|-32:160|192:192,2,160
256,192,60748,12,0,60883,0:0:0:0:
256,256,60748,5,0,0:0:0:0:
224,96,60748,1,0,0:0:0:0:
224,96,60748,1,0,0:0:0:0:
256,256,60748,1,0,0:0:0:0:
160,128,60748,1,0,0:0:0:0:
224,192,60748,1,0,0:0:0:0:
224,192,60748,1,0,0:0:0:0:
384,192,60748,1,0,0:0:0:0:
384,192,60748,1,0,0:0:0:0:
160,128,60810,1,0,0:0:0:0:
160,128,60810,1,0,0:0:0:0:
256,192,60873,12,0,60964,0:0:0:0:
128,160,60873,5,0,0:0:0:0:
384,288,60873,5,0,0:0:0:0:
64,352,60873,1,0,0:0:0:0:
64,352,60873,1,0,0:0:0:0:
192,192,60873,1,0,0:0:0:0:
224,192,60873,1,0,0:0:0:0:
224,192,60873,1,0,0:0:0:0:
224,192,60873,1,0,0:0:0:0:
224,192,60873,1,0,0:0:0:0:
128,160,60873,1,0,0:0:0:0:
128,160,60935,1,0,0:0:0:0:
128,160,60935,1,0,0:0:0:0:
256,192,60935,1,0,0:0:0:0:
256,192,60935,1,0,0:0:0:0:
96,160,60935,2,0,B|-32:160|192:192,2,160
160,224,60998,5,0,0:0:0:0:
256,192,60998,12,0,61051,0:0:0:0:
448,256,60998,5,0,0:0:0:0:
160,224,60998,1,0,0:0:0:0:
224,320,60998,1,0,0:0:0:0:
448,256,60998,1,0,0:0:0:0:
448,256,60998,1,0,0:0:0:0:
448,256,60998,1,0,0:0:0:0:
384,192,60998,1,0,0:0:0:0:
192,96,61060,5,0,0:0:0:0:
256,192,61060,12,0,61173,0:0:0:0:
224,96,61060,5,0,0:0:0:0:
384,160,61060,1,0,0:0:0:0:
384,160,61060,1,0,0:0:0:0:
384,160,61060,1,0,0:0:0:0:
192,96,61060,1,0,0:0:0:0:
224,96,61060,1,0,0:0:0:0:
128,160,61123,1,0,0:0:0:0:
192,96,61123,1,0,0:0:0:0:
224,160,61123,1,0,0:0:0:0:
224,160,61123,1,0,0:0:0:0:
224,192,61123,1,0,0:0:0:0:
224,192,61123,1,0,0:0:0:0:
192,192,61123,1,0,0:0:0:0:
192,192,61123,1,0,0:0:0:0:
192,192,61123,1,0,0:0:0:0:
256,128,61123,1,0,0:0:0:0:
256,128,61123,1,0,0:0:0:0:
256,128,61123,1,0,0:0:0:0:
256,128,61123,1,0,0:0:0:0:
192,96,61123,1,0,0:0:0:0:
192,96,61123,1,0,0:0:0:0:
128,160,61123,1,0,0:0:0:0:
224,96,61185,5,0,0:0:0:0:
160,128,61185,1,0,0:0:0:0:
160,128,61185,1,0,0:0:0:0:
224,96,61185,1,0,0:0:0:0:
224,96,61185,1,0,0:0:0:0:
256,192,61248,12,0,61391,0:0:0:0:
224,192,61248,5,0,0:0:0:0:
64,320,61248,1,0,0:0:0:0:
384,192,61248,1,0,0:0:0:0:
224,192,61248,1,0,0:0:0:0:
448,256,61248,1,0,0:0:0:0:
448,256,61248,1,0,0:0:0:0:
128,192,61310,5,0,0:0:0:0:
128,192,61310,1,0,0:0:0:0:
128,160,61310,1,0,0:0:0:0:
192,192,61373,1,0,0:0:0:0:
192,192,61373,1,0,0:0:0:0:
64,352,61373,1,0,0:0:0:0:
256,128,61373,1,0,0:0:0:0:
256,128,61373,1,0,0:0:0:0:
128,160,61373,1,0,0:0:0:0:
288,128,61373,1,0,0:0:0:0:
288,128,61373,1,0,0:0:0:0:
288,128,61373,1,0,0:0:0:0:
288,128,61373,1,0,0:0:0:0:
160,224,61435,5,0,0:0:0:0:
160,224,61435,1,0,0:0:0:0:
160,224,61435,1,0,0:0:0:0:
256,192,61498,12,0,61633,0:0:0:0:
384,160,61498,5,0,0:0:0:0:
384,192,61498,1,0,0:0:0:0:
128,192,61498,1,0,0:0:0:0:
128,192,61498,1,0,0:0:0:0:
224,96,61560,1,0,0:0:0:0:
224,96,61560,1,0,0:0:0:0:
224,96,61560,1,0,0:0:0:0:
224,160,61560,1,0,0:0:0:0:
224,160,61623,1,0,0:0:0:0:
224,160,61623,1,0,0:0:0:0:
64,352,61623,1,0,0:0:0:0:
192,192,61623,1,0,0:0:0:0:
128,160,61623,1,0,0:0:0:0:
256,192,61623,1,0,0:0:0:0:
256,192,61623,1,0,0:0:0:0:
256,192,61623,1,0,0:0:0:0:
256,192,61623,1,0,0:0:0:0:
96,160,61623,2,0,B|-32:160|192:192,2,160
96,160,61623,2,0,B|-32:160|192:192,2,160
224,96,61685,5,0,0:0:0:0:
160,224,61685,1,0,0:0:0:0:
224,192,61685,1,0,0:0:0:0:
256,192,61748,12,0,61876,0:0:0:0:
384,160,61748,5,0,0:0:0:0:
160,128,61748,1,0,0:0:0:0:
160,128,61748,1,0,0:0:0:0:
224,96,61810,1,0,0:0:0:0:
128,160,61810,1,0,0:0:0:0:
128,160,61810,1,0,0:0:0:0:
192,192,61810,1,0,0:0:0:0:
64,352,61810,1,0,0:0:0:0:
192,192,61810,1,0,0:0:0:0:
224,160,61810,1,0,0:0:0:0:
224,192,61810,1,0,0:0:0:0:
224,192,61810,1,0,0:0:0:0:
224,192,61810,1,0,0:0:0:0:
224,192,61810,1,0,0:0:0:0:
256,192,61873,12,0,61895,0:0:0:0:
224,96,61873,5,0,0:0:0:0:
192,192,61873,1,0,0:0:0:0:
256,192,61935,12,0,62453,0:0:0:0:
224,192,61935,5,0,0:0:0:0:
384,192,61935,1,0,0:0:0:0:
448,256,61935,1,0,0:0:0:0:
448,256,61935,1,0,0:0:0:0:
448,256,61935,1,0,0:0:0:0:
448,256,61935,1,0,0:0:0:0:
384,192,61935,1,0,0:0:0:0:
384,192,61935,1,0,0:0:0:0:
64,352,62060,1,0,0:0:0:0:
160,128,62060,1,0,0:0:0:0:
160,128,62060,1,0,0:0:0:0:
256,128,62060,1,0,0:0:0:0:
256,128,62060,1,0,0:0:0:0:
256,128,62060,1,0,0:0:0:0:
160,128,62060,1,0,0:0:0:0:
256,128,62060,1,0,0:0:0:0:
128,160,62060,1,0,0:0:0:0:
192,96,62123,1,0,0:0:0:0:
192,96,62123,1,0,0:0:0:0:
128,160,62123,1,0,0:0:0:0:
128,160,62123,1,0,0:0:0:0:
192,128,62123,1,0,0:0:0:0:
96,160,62123,2,0,B|-32:160|192:192,2,160
224,128,62123,1,0,0:0:0:0:
160,128,62123,1,0,0:0:0:0:
160,128,62123,1,0,0:0:0:0:
224,128,62123,1,0,0:0:0:0:
224,128,62123,1,0,0:0:0:0:
160,224,62123,1,0,0:0:0:0:
224,160,62185,1,0,0:0:0:0:
256,192,62185,1,0,0:0:0:0:
224,224,62185,1,0,0:0:0:0:
384,160,62248,1,0,0:0:0:0:
256,256,62248,1,0,0:0:0:0:
384,160,62248,1,0,0:0:0:0:
256,256,62248,1,0,0:0:0:0:
256,256,62248,1,0,0:0:0:0:
288,224,62248,1,0,0:0:0:0:
320,224,62248,1,0,0:0:0:0:
224,96,62248,1,0,0:0:0:0:
128,160,62248,1,0,0:0:0:0:
256,192,62310,12,0,62362,0:0:0:0:
352,192,62310,5,0,0:0:0:0:
352,256,62310,1,0,0:0:0:0:
128,160,62310,1,0,0:0:0:0:
352,224,62310,1,0,0:0:0:0:
224,160,62310,1,0,0:0:0:0:
352,224,62310,1,0,0:0:0:0:
192,192,62310,1,0,0:0:0:0:
352,192,62310,1,0,0:0:0:0:
192,192,62310,1,0,0:0:0:0:
352,192,62310,1,0,0:0:0:0:
384,192,62373,5,0,0:0:0:0:
384,192,62373,1,0,0:0:0:0:
384,192,62373,1,0,0:0:0:0:
384,192,62373,1,0,0:0:0:0:
224,96,62373,1,0,0:0:0:0:
384,224,62373,1,0,0:0:0:0:
224,96,62373,1,0,0:0:0:0:
256,192,62435,12,0,62532,0:0:0:0:
416,256,62435,5,0,0:0:0:0:
416,224,62435,5,0,0:0:0:0:
384,256,62435,1,0,0:0:0:0:
384,192,62435,1,0,0:0:0:0:
416,256,62435,1,0,0:0:0:0:
224,192,62435,1,0,0:0:0:0:
416,192,62435,1,0,0:0:0:0:
320,160,62498,5,0,0:0:0:0:
416,160,62498,1,0,0:0:0:0:
384,128,62498,1,0,0:0:0:0:
352,128,62498,1,0,0:0:0:0:
256,192,62560,12,0,62717,0:0:0:0:
192,192,62560,5,0,0:0:0:0:
288,160,62560,1,0,0:0:0:0:
64,352,62560,1,0,0:0:0:0:
288,160,62560,1,0,0:0:0:0:
64,352,62560,1,0,0:0:0:0:
288,160,62560,1,0,0:0:0:0:
128,160,62560,1,0,0:0:0:0:
288,160,62560,1,0,0:0:0:0:
128,160,62560,1,0,0:0:0:0:
288,128,62560,1,0,0:0:0:0:
288,96,62623,1,0,0:0:0:0:
256,96,62623,1,0,0:0:0:0:
224,96,62623,1,0,0:0:0:0:
160,224,62623,1,0,0:0:0:0:
160,224,62623,1,0,0:0:0:0:
192,96,62623,1,0,0:0:0:0:
384,160,62685,5,0,0:0:0:0:
160,96,62685,1,0,0:0:0:0:
128,96,62685,1,0,0:0:0:0:
128,128,62685,1,0,0:0:0:0:
384,160,62685,1,0,0:0:0:0:
96,160,62685,1,0,0:0:0:0:
256,192,62748,12,0,62951,0:0:0:0:
128,224,62748,5,0,0:0:0:0:
96,192,62748,1,0,0:0:0:0:
224,96,62748,1,0,0:0:0:0:
224,96,62748,1,0,0:0:0:0:
160,256,62748,1,0,0:0:0:0:
192,288,62748,1,0,0:0:0:0:
224,160,62748,1,0,0:0:0:0:
224,160,62810,1,0,0:0:0:0:
224,320,62810,1,0,0:0:0:0:
192,192,62810,1,0,0:0:0:0:
192,192,62810,1,0,0:0:0:0:
256,320,62810,1,0,0:0:0:0:
288,288,62810,1,0,0:0:0:0:
256,256,62810,1,0,0:0:0:0:
224,96,62873,1,0,0:0:0:0:
224,96,62873,1,0,0:0:0:0:
224,192,62873,1,0,0:0:0:0:
224,192,62935,1,0,0:0:0:0:
256,192,62998,12,0,63028,0:0:0:0:
128,160,62998,5,0,0:0:0:0:
256,192,62998,12,0,63073,0:0:0:0:
192,192,62998,5,0,0:0:0:0:
64,352,62998,1,0,0:0:0:0:
160,224,63123,5,0,0:0:0:0:
384,192,63123,1,0,0:0:0:0:
192,96,63123,1,0,0:0:0:0:
256,192,63185,12,0,63283,0:0:0:0:
224,96,63248,5,0,0:0:0:0:
224,160,63248,1,0,0:0:0:0:
128,160,63248,1,0,0:0:0:0:
96,160,63310,2,0,B|-32:160|192:192,2,160
128,192,63373,5,0,0:0:0:0:
256,192,63373,12,0,63463,0:0:0:0:
384,160,63435,5,0,0:0:0:0:
192,192,63498,5,0,0:0:0:0:
288,128,63498,1,0,0:0:0:0:
128,160,63498,1,0,0:0:0:0:
192,192,63498,1,0,0:0:0:0:
256,192,63560,12,0,63695,0:0:0:0:
224,96,63560,5,0,0:0:0:0:
64,256,63623,5,0,0:0:0:0:
224,192,63623,1,0,0:0:0:0:
384,192,63623,1,0,0:0:0:0:
256,192,63685,12,0,63776,0:0:0:0:
256,192,63685,5,0,0:0:0:0:
64,352,63748,5,0,0:0:0:0:
128,160,63748,1,0,0:0:0:0:
384,320,63810,5,0,0:0:0:0:
256,192,63810,12,0,63863,0:0:0:0:
96,160,63810,6,0,B|-32:160|192:192,2,160
160,224,63810,1,0,0:0:0:0:
384,160,63873,5,0,0:0:0:0:
224,192,63935,5,0,0:0:0:0:
256,192,63935,12,0,64048,0:0:0:0:
224,96,63935,5,0,0:0:0:0:
128,160,63935,1,0,0:0:0:0:
224,160,63935,1,0,0:0:0:0:
192,192,63998,1,0,0:0:0:0:
448,256,64060,5,0,0:0:0:0:
224,96,64060,1,0,0:0:0:0:
256,192,64123,12,0,64266,0:0:0:0:
384,192,64123,5,0,0:0:0:0:
256,128,64185,5,0,0:0:0:0:
192,192,64185,1,0,0:0:0:0:
64,352,64185,1,0,0:0:0:0:
128,160,64248,1,0,0:0:0:0:
128,192,64310,5,0,0:0:0:0:
256,192,64310,12,0,64445,0:0:0:0:
160,224,64310,5,0,0:0:0:0:
384,160,64373,5,0,0:0:0:0:
320,288,64435,1,0,0:0:0:0:
224,96,64435,1,0,0:0:0:0:
160,128,64435,1,0,0:0:0:0:
160,128,64435,1,0,0:0:0:0:
160,128,64435,1,0,0:0:0:0:
192,192,64435,1,0,0:0:0:0:
224,128,64498,5,0,0:0:0:0:
192,128,64498,1,0,0:0:0:0:
224,128,64498,1,0,0:0:0:0:
224,128,64498,1,0,0:0:0:0:
224,96,64498,1,0,0:0:0:0:
224,160,64498,1,0,0:0:0:0:
256,192,64560,12,0,64688,0:0:0:0:
160,128,64560,5,0,0:0:0:0:
256,192,64560,1,0,0:0:0:0:
224,192,64560,1,0,0:0:0:0:
224,224,64560,1,0,0:0:0:0:
256,256,64623,5,0,0:0:0:0:
256,256,64623,1,0,0:0:0:0:
256,256,64623,1,0,0:0:0:0:
288,224,64623,1,0,0:0:0:0:
320,224,64623,1,0,0:0:0:0:
352,256,64623,1,0,0:0:0:0:
256,192,64685,12,0,64707,0:0:0:0:
352,224,64685,5,0,0:0:0:0:
352,224,64685,1,0,0:0:0:0:
64,352,64685,1,0,0:0:0:0:
352,192,64685,1,0,0:0:0:0:
352,192,64685,1,0,0:0:0:0:
352,192,64685,1,0,0:0:0:0:
384,192,64748,5,0,0:0:0:0:
384,192,64748,5,0,0:0:0:0:
256,192,64748,12,0,65266,0:0:0:0:
160,224,64748,5,0,0:0:0:0:
384,192,64748,1,0,0:0:0:0:
384,192,64748,1,0,0:0:0:0:
384,224,64748,1,0,0:0:0:0:
224,320,64748,1,0,0:0:0:0:
384,256,64748,1,0,0:0:0:0:
416,256,64810,1,0,0:0:0:0:
416,256,64810,1,0,0:0:0:0:
416,224,64810,1,0,0:0:0:0:
416,192,64810,1,0,0:0:0:0:
416,160,64873,1,0,0:0:0:0:
384,128,64873,1,0,0:0:0:0:
352,128,64873,1,0,0:0:0:0:
224,96,64873,1,0,0:0:0:0:
192,96,64873,1,0,0:0:0:0:
128,160,64873,1,0,0:0:0:0:
320,160,64873,1,0,0:0:0:0:
288,160,64935,1,0,0:0:0:0:
224,160,64935,1,0,0:0:0:0:
288,160,64935,1,0,0:0:0:0:
288,160,64935,1,0,0:0:0:0:
288,160,64935,1,0,0:0:0:0:
288,128,64935,1,0,0:0:0:0:
288,96,64935,1,0,0:0:0:0:
256,96,64998,1,0,0:0:0:0:
224,96,64998,1,0,0:0:0:0:
192,96,64998,1,0,0:0:0:0:
160,96,64998,1,0,0:0:0:0:
64,320,65060,1,0,0:0:0:0:
128,96,65060,1,0,0:0:0:0:
384,192,65060,1,0,0:0:0:0:
128,128,65060,1,0,0:0:0:0:
96,160,65060,1,0,0:0:0:0:
96,192,65123,1,0,0:0:0:0:
128,224,65123,1,0,0:0:0:0:
160,256,65123,1,0,0:0:0:0:
192,288,65123,1,0,0:0:0:0:
192,192,65185,1,0,0:0:0:0:
224,320,65185,1,0,0:0:0:0:
256,320,65185,1,0,0:0:0:0:
128,160,65185,1,0,0:0:0:0:
288,288,65185,1,0,0:0:0:0:
256,256,65185,1,0,0:0:0:0:
384,160,65310,5,0,0:0:0:0:
128,160,65373,1,0,0:0:0:0:
64,352,65373,1,0,0:0:0:0:
192,192,65435,1,0,0:0:0:0:
224,96,65498,1,0,0:0:0:0:
160,224,65498,1,0,0:0:0:0:
224,192,65498,1,0,0:0:0:0:
192,96,65498,1,0,0:0:0:0:
224,96,65623,1,0,0:0:0:0:
128,160,65623,1,0,0:0:0:0:
224,160,65623,1,0,0:0:0:0:
64,352,65623,1,0,0:0:0:0:
128,160,65623,1,0,0:0:0:0:
160,224,65685,1,0,0:0:0:0:
128,192,65748,1,0,0:0:0:0:
384,192,65748,1,0,0:0:0:0:
384,160,65748,1,0,0:0:0:0:
224,96,65810,1,0,0:0:0:0:
288,128,65810,1,0,0:0:0:0:
192,192,65873,1,0,0:0:0:0:
224,160,65873,1,0,0:0:0:0:
192,192,65873,1,0,0:0:0:0:
128,160,65873,1,0,0:0:0:0:
224,96,65935,1,0,0:0:0:0:
256,192,65998,12,0,66095,0:0:0:0:
224,192,65998,5,0,0:0:0:0:
64,256,65998,1,0,0:0:0:0:
384,160,65998,1,0,0:0:0:0:
128,160,66060,5,0,0:0:0:0:
256,192,66060,12,0,66217,0:0:0:0:
256,192,66060,5,0,0:0:0:0:
192,192,66123,5,0,0:0:0:0:
192,192,66123,1,0,0:0:0:0:
224,96,66185,1,0,0:0:0:0:
384,320,66185,1,0,0:0:0:0:
160,224,66185,1,0,0:0:0:0:
224,192,66248,1,0,0:0:0:0:
256,192,66310,12,0,66513,0:0:0:0:
224,192,66310,5,0,0:0:0:0:
224,96,66310,1,0,0:0:0:0:
224,160,66310,1,0,0:0:0:0:
64,352,66373,1,0,0:0:0:0:
128,160,66373,1,0,0:0:0:0:
96,160,66373,2,0,B|-32:160|192:192,2,160
448,256,66435,1,0,0:0:0:0:
160,224,66435,1,0,0:0:0:0:
384,160,66498,5,0,0:0:0:0:
256,192,66560,12,0,66590,0:0:0:0:
224,96,66560,5,0,0:0:0:0:
256,192,66560,12,0,66635,0:0:0:0:
224,160,66560,5,0,0:0:0:0:
256,128,66560,1,0,0:0:0:0:
128,160,66560,1,0,0:0:0:0:
64,352,66560,1,0,0:0:0:0:
192,192,66560,1,0,0:0:0:0:
224,96,66623,5,0,0:0:0:0:
224,96,66623,1,0,0:0:0:0:
128,192,66685,1,0,0:0:0:0:
160,224,66685,1,0,0:0:0:0:
224,192,66685,1,0,0:0:0:0:
224,192,66685,1,0,0:0:0:0:
384,192,66685,1,0,0:0:0:0:
256,192,66748,12,0,66846,0:0:0:0:
320,288,66810,5,0,0:0:0:0:
256,192,66810,12,0,66862,0:0:0:0:
192,192,66810,5,0,0:0:0:0:
224,96,66810,1,0,0:0:0:0:
128,160,66810,1,0,0:0:0:0:
224,160,66810,1,0,0:0:0:0:
128,160,66810,1,0,0:0:0:0:
160,224,66873,5,0,0:0:0:0:
96,160,66873,2,0,B|-32:160|192:192,2,160
160,224,66873,1,0,0:0:0:0:
160,128,66873,1,0,0:0:0:0:
256,192,66935,12,0,67032,0:0:0:0:
384,192,66935,5,0,0:0:0:0:
256,192,66935,12,0,67025,0:0:0:0:
384,192,66935,5,0,0:0:0:0:
384,160,66935,1,0,0:0:0:0:
224,96,66998,5,0,0:0:0:0:
224,96,66998,1,0,0:0:0:0:
128,160,66998,1,0,0:0:0:0:
256,192,67060,12,0,67217,0:0:0:0:
384,288,67060,5,0,0:0:0:0:
224,160,67060,1,0,0:0:0:0:
224,160,67060,1,0,0:0:0:0:
192,192,67060,1,0,0:0:0:0:
128,160,67060,1,0,0:0:0:0:
192,192,67060,1,0,0:0:0:0:
128,160,67060,1,0,0:0:0:0:
256,192,67123,12,0,67258,0:0:0:0:
224,96,67123,5,0,0:0:0:0:
96,160,67123,2,0,B|-32:160|192:192,2,160
224,320,67123,1,0,0:0:0:0:
384,160,67185,5,0,0:0:0:0:
384,192,67185,1,0,0:0:0:0:
384,160,67185,1,0,0:0:0:0:
256,192,67248,12,0,67451,0:0:0:0:
192,96,67248,5,0,0:0:0:0:
256,192,67248,12,0,67339,0:0:0:0:
128,160,67248,5,0,0:0:0:0:
128,160,67248,1,0,0:0:0:0:
256,192,67310,12,0,67362,0:0:0:0:
160,128,67310,5,0,0:0:0:0:
192,192,67310,1,0,0:0:0:0:
192,192,67310,1,0,0:0:0:0:
160,128,67310,1,0,0:0:0:0:
192,192,67310,1,0,0:0:0:0:
160,128,67310,1,0,0:0:0:0:
128,160,67310,1,0,0:0:0:0:
192,192,67310,1,0,0:0:0:0:
192,128,67310,1,0,0:0:0:0:
224,128,67310,1,0,0:0:0:0:
224,128,67373,5,0,0:0:0:0:
224,96,67373,5,0,0:0:0:0:
256,192,67373,12,0,67426,0:0:0:0:
256,192,67373,5,0,0:0:0:0:
256,192,67373,12,0,67470,0:0:0:0:
64,320,67373,5,0,0:0:0:0:
224,128,67373,1,0,0:0:0:0:
224,96,67373,1,0,0:0:0:0:
224,160,67373,1,0,0:0:0:0:
160,224,67373,1,0,0:0:0:0:
224,192,67373,1,0,0:0:0:0:
384,160,67435,5,0,0:0:0:0:
256,256,67435,5,0,0:0:0:0:
384,192,67435,1,0,0:0:0:0:
224,192,67435,1,0,0:0:0:0:
224,224,67435,1,0,0:0:0:0:
256,256,67435,1,0,0:0:0:0:
256,256,67435,1,0,0:0:0:0:
256,192,67498,12,0,67611,0:0:0:0:
320,224,67498,5,0,0:0:0:0:
256,192,67498,12,0,67528,0:0:0:0:
224,96,67498,5,0,0:0:0:0:
256,192,67498,12,0,67655,0:0:0:0:
352,224,67498,5,0,0:0:0:0:
256,192,67498,12,0,67573,0:0:0:0:
64,352,67498,5,0,0:0:0:0:
288,224,67498,1,0,0:0:0:0:
352,256,67498,1,0,0:0:0:0:
352,224,67498,1,0,0:0:0:0:
224,160,67498,1,0,0:0:0:0:
64,352,67560,1,0,0:0:0:0:
352,192,67560,1,0,0:0:0:0:
192,192,67560,1,0,0:0:0:0:
352,192,67560,1,0,0:0:0:0:
128,160,67560,1,0,0:0:0:0:
128,160,67560,1,0,0:0:0:0:
352,192,67560,1,0,0:0:0:0:
384,192,67560,1,0,0:0:0:0:
96,160,67560,2,0,B|-32:160|192:192,2,160
384,192,67560,1,0,0:0:0:0:
384,192,67560,1,0,0:0:0:0:
384,192,67560,1,0,0:0:0:0:
224,96,67623,5,0,0:0:0:0:
384,224,67623,1,0,0:0:0:0:
160,224,67623,1,0,0:0:0:0:
160,224,67623,1,0,0:0:0:0:
384,256,67623,1,0,0:0:0:0:
416,256,67623,1,0,0:0:0:0:
224,192,67623,1,0,0:0:0:0:
416,256,67623,1,0,0:0:0:0:
256,192,67685,12,0,67828,0:0:0:0:
384,160,67685,5,0,0:0:0:0:
256,192,67685,12,0,67783,0:0:0:0:
384,128,67685,5,0,0:0:0:0:
256,192,67685,12,0,67888,0:0:0:0:
416,224,67685,5,0,0:0:0:0:
384,160,67685,1,0,0:0:0:0:
416,192,67685,1,0,0:0:0:0:
416,160,67685,1,0,0:0:0:0:
352,128,67748,5,0,0:0:0:0:
224,96,67748,1,0,0:0:0:0:
128,160,67748,1,0,0:0:0:0:
224,96,67748,1,0,0:0:0:0:
320,160,67748,1,0,0:0:0:0:
224,160,67748,1,0,0:0:0:0:
288,160,67748,1,0,0:0:0:0:
64,352,67748,1,0,0:0:0:0:
224,160,67748,1,0,0:0:0:0:
288,160,67748,1,0,0:0:0:0:
288,160,67748,1,0,0:0:0:0:
192,192,67748,1,0,0:0:0:0:
192,192,67748,1,0,0:0:0:0:
288,96,67810,5,0,0:0:0:0:
288,160,67810,1,0,0:0:0:0:
288,128,67810,1,0,0:0:0:0:
256,96,67810,1,0,0:0:0:0:
224,96,67810,1,0,0:0:0:0:
224,96,67810,1,0,0:0:0:0:
256,192,67873,12,0,67963,0:0:0:0:
128,128,67873,5,0,0:0:0:0:
224,96,67873,1,0,0:0:0:0:
192,96,67873,1,0,0:0:0:0:
160,96,67873,1,0,0:0:0:0:
384,192,67873,1,0,0:0:0:0:
224,192,67873,1,0,0:0:0:0:
128,96,67873,1,0,0:0:0:0:
96,160,67935,5,0,0:0:0:0:
96,192,67935,1,0,0:0:0:0:
128,224,67935,1,0,0:0:0:0:
256,192,67998,12,0,68028,0:0:0:0:
128,160,67998,5,0,0:0:0:0:
192,288,67998,5,0,0:0:0:0:
256,192,67998,12,0,68073,0:0:0:0:
64,352,67998,5,0,0:0:0:0:
192,192,67998,5,0,0:0:0:0:
160,256,67998,1,0,0:0:0:0:
192,192,67998,1,0,0:0:0:0:
224,320,67998,1,0,0:0:0:0:
128,160,67998,1,0,0:0:0:0:
256,320,67998,1,0,0:0:0:0:
256,192,68060,12,0,68195,0:0:0:0:
160,224,68060,5,0,0:0:0:0:
288,288,68060,1,0,0:0:0:0:
256,256,68060,1,0,0:0:0:0:
160,224,68060,1,0,0:0:0:0:
256,192,68123,12,0,68251,0:0:0:0:
384,160,68123,5,0,0:0:0:0:
384,192,68123,1,0,0:0:0:0:
256,192,68185,12,0,68283,0:0:0:0:
224,96,68185,5,0,0:0:0:0:
256,192,68185,12,0,68276,0:0:0:0:
224,96,68185,5,0,0:0:0:0:
224,160,68248,5,0,0:0:0:0:
256,192,68248,12,0,68270,0:0:0:0:
128,160,68248,5,0,0:0:0:0:
224,160,68248,1,0,0:0:0:0:
192,192,68248,1,0,0:0:0:0:
96,160,68310,6,0,B|-32:160|192:192,2,160
224,96,68310,5,0,0:0:0:0:
256,192,68310,12,0,68828,0:0:0:0:
256,192,68310,12,0,68363,0:0:0:0:
224,192,68373,5,0,0:0:0:0:
256,192,68373,12,0,68463,0:0:0:0:
384,160,68373,5,0,0:0:0:0:
192,96,68373,1,0,0:0:0:0:
256,192,68435,12,0,68548,0:0:0:0:
128,160,68435,5,0,0:0:0:0:
64,352,68498,5,0,0:0:0:0:
192,192,68498,1,0,0:0:0:0:
192,192,68498,1,0,0:0:0:0:
224,96,68560,5,0,0:0:0:0:
256,192,68560,12,0,68695,0:0:0:0:
224,192,68623,5,0,0:0:0:0:
256,192,68623,12,0,68766,0:0:0:0:
128,192,68623,5,0,0:0:0:0:
384,192,68623,1,0,0:0:0:0:
288,128,68685,5,0,0:0:0:0:
256,192,68685,12,0,68776,0:0:0:0:
64,352,68685,5,0,0:0:0:0:
128,160,68748,1,0,0:0:0:0:
96,160,68748,2,0,B|-32:160|192:192,2,160
160,224,68810,5,0,0:0:0:0:
256,192,68810,12,0,68863,0:0:0:0:
256,192,68810,12,0,68945,0:0:0:0:
64,256,68810,5,0,0:0:0:0:
384,160,68873,5,0,0:0:0:0:
256,192,68935,12,0,69048,0:0:0:0:
224,96,68935,5,0,0:0:0:0:
256,192,68935,12,0,68987,0:0:0:0:
192,192,68935,5,0,0:0:0:0:
128,160,68935,1,0,0:0:0:0:
256,192,68935,1,0,0:0:0:0:
224,160,68935,1,0,0:0:0:0:
224,96,68998,5,0,0:0:0:0:
256,192,69060,12,0,69157,0:0:0:0:
384,192,69060,5,0,0:0:0:0:
256,192,69060,12,0,69188,0:0:0:0:
384,320,69060,5,0,0:0:0:0:
256,192,69123,12,0,69266,0:0:0:0:
224,192,69123,5,0,0:0:0:0:
256,192,69185,12,0,69342,0:0:0:0:
192,192,69185,5,0,0:0:0:0:
256,192,69185,12,0,69207,0:0:0:0:
128,160,69185,5,0,0:0:0:0:
64,352,69185,1,0,0:0:0:0:
448,256,69248,5,0,0:0:0:0:
256,192,69248,12,0,69766,0:0:0:0:
160,224,69248,5,0,0:0:0:0:
256,192,69310,12,0,69445,0:0:0:0:
384,160,69310,5,0,0:0:0:0:
256,192,69373,12,0,69576,0:0:0:0:
256,128,69373,5,0,0:0:0:0:
224,96,69373,1,0,0:0:0:0:
224,160,69435,1,0,0:0:0:0:
192,192,69435,1,0,0:0:0:0:
224,96,69498,5,0,0:0:0:0:
128,192,69498,1,0,0:0:0:0:
256,192,69560,12,0,69688,0:0:0:0:
224,192,69560,5,0,0:0:0:0:
320,288,69623,5,0,0:0:0:0:
256,192,69623,12,0,69653,0:0:0:0:
64,352,69685,5,0,0:0:0:0:
256,192,69685,12,0,69760,0:0:0:0:
256,192,69685,12,0,69707,0:0:0:0:
256,192,69748,12,0,70266,0:0:0:0:
160,128,69748,5,0,0:0:0:0:
256,192,69810,12,0,69908,0:0:0:0:
384,288,69873,5,0,0:0:0:0:
64,352,69873,1,0,0:0:0:0:
224,320,69998,5,0,0:0:0:0:
256,192,69998,12,0,70088,0:0:0:0:
160,224,69998,5,0,0:0:0:0:
224,96,70123,5,0,0:0:0:0:
224,160,70123,5,0,0:0:0:0:
256,192,70123,12,0,70258,0:0:0:0:
64,320,70123,5,0,0:0:0:0:
384,192,70123,5,0,0:0:0:0:
256,192,70123,12,0,70214,0:0:0:0:
256,192,70123,12,0,70214,0:0:0:0:
256,192,70123,12,0,70214,0:0:0:0:
192,192,70123,5,0,0:0:0:0:
256,192,70123,12,0,70176,0:0:0:0:
256,192,70123,12,0,70176,0:0:0:0:
256,192,70123,12,0,70176,0:0:0:0:
384,160,70123,5,0,0:0:0:0:
192,96,70123,1,0,0:0:0:0:
128,160,70123,1,0,0:0:0:0:
128,160,70123,1,0,0:0:0:0:
256,192,70185,12,0,70298,0:0:0:0:
256,192,70185,12,0,70298,0:0:0:0:
256,192,70185,12,0,70298,0:0:0:0:
128,160,70185,5,0,0:0:0:0:
192,192,70248,1,0,0:0:0:0:
224,96,70310,5,0,0:0:0:0:
256,192,70373,12,0,70516,0:0:0:0:
256,192,70373,12,0,70516,0:0:0:0:
256,192,70373,12,0,70516,0:0:0:0:
224,192,70373,5,0,0:0:0:0:
160,128,70498,5,0,0:0:0:0:
224,128,70498,5,0,0:0:0:0:
160,128,70498,1,0,0:0:0:0:
64,352,70498,1,0,0:0:0:0:
160,128,70498,1,0,0:0:0:0:
128,160,70498,1,0,0:0:0:0:
192,128,70498,1,0,0:0:0:0:
224,128,70498,1,0,0:0:0:0:
224,128,70498,1,0,0:0:0:0:
224,160,70560,1,0,0:0:0:0:
160,224,70560,1,0,0:0:0:0:
256,192,70560,1,0,0:0:0:0:
256,192,70623,12,0,70758,0:0:0:0:
256,192,70623,12,0,70758,0:0:0:0:
256,192,70623,12,0,70758,0:0:0:0:
256,256,70623,5,0,0:0:0:0:
224,224,70623,1,0,0:0:0:0:
384,160,70623,1,0,0:0:0:0:
256,256,70623,1,0,0:0:0:0:
256,256,70623,1,0,0:0:0:0:
288,224,70623,1,0,0:0:0:0:
320,224,70685,1,0,0:0:0:0:
352,256,70685,1,0,0:0:0:0:
224,96,70685,1,0,0:0:0:0:
352,224,70685,1,0,0:0:0:0:
352,224,70685,1,0,0:0:0:0:
224,160,70685,1,0,0:0:0:0:
352,192,70685,1,0,0:0:0:0:
384,192,70748,5,0,0:0:0:0:
352,192,70748,1,0,0:0:0:0:
192,192,70748,1,0,0:0:0:0:
352,192,70748,1,0,0:0:0:0:
384,192,70748,1,0,0:0:0:0:
384,192,70748,1,0,0:0:0:0:
384,192,70748,1,0,0:0:0:0:
384,224,70748,1,0,0:0:0:0:
256,192,70810,12,0,70938,0:0:0:0:
256,192,70810,12,0,70938,0:0:0:0:
256,192,70810,12,0,70938,0:0:0:0:
224,96,70810,5,0,0:0:0:0:
384,256,70810,1,0,0:0:0:0:
416,256,70810,1,0,0:0:0:0:
416,256,70810,1,0,0:0:0:0:
224,192,70810,1,0,0:0:0:0:
416,224,70810,1,0,0:0:0:0:
416,192,70873,5,0,0:0:0:0:
416,160,70873,1,0,0:0:0:0:
384,128,70873,1,0,0:0:0:0:
352,128,70873,1,0,0:0:0:0:
128,160,70935,1,0,0:0:0:0:
320,160,70935,1,0,0:0:0:0:
288,160,70935,1,0,0:0:0:0:
288,160,70935,1,0,0:0:0:0:
192,192,70935,1,0,0:0:0:0:
288,160,70935,1,0,0:0:0:0:
288,160,70935,1,0,0:0:0:0:
256,192,70998,12,0,71020,0:0:0:0:
256,192,70998,12,0,71020,0:0:0:0:
256,192,70998,12,0,71020,0:0:0:0:
288,128,70998,5,0,0:0:0:0:
256,96,70998,5,0,0:0:0:0:
256,192,70998,12,0,71516,0:0:0:0:
256,192,70998,12,0,71516,0:0:0:0:
256,192,70998,12,0,71516,0:0:0:0:
160,224,70998,5,0,0:0:0:0:
288,96,70998,1,0,0:0:0:0:
224,96,70998,1,0,0:0:0:0:
192,96,71060,1,0,0:0:0:0:
160,96,71060,1,0,0:0:0:0:
128,96,71060,1,0,0:0:0:0:
384,192,71060,1,0,0:0:0:0:
128,128,71060,1,0,0:0:0:0:
96,160,71123,1,0,0:0:0:0:
96,192,71123,1,0,0:0:0:0:
128,224,71123,1,0,0:0:0:0:
224,96,71123,1,0,0:0:0:0:
160,256,71123,1,0,0:0:0:0:
192,288,71185,1,0,0:0:0:0:
224,160,71185,1,0,0:0:0:0:
224,320,71185,1,0,0:0:0:0:
256,320,71185,1,0,0:0:0:0:
128,160,71185,1,0,0:0:0:0:
288,288,71185,1,0,0:0:0:0:
256,256,71248,1,0,0:0:0:0:
96,160,71248,2,0,B|-32:160|192:192,2,160
384,160,71310,1,0,0:0:0:0:
128,160,71373,1,0,0:0:0:0:
192,192,71435,1,0,0:0:0:0:
192,192,71435,1,0,0:0:0:0:
224,96,71498,1,0,0:0:0:0:
224,192,71560,1,0,0:0:0:0:
192,96,71560,1,0,0:0:0:0:
384,192,71560,1,0,0:0:0:0:
160,128,71685,5,0,0:0:0:0:
160,128,71685,1,0,0:0:0:0:
160,128,71685,1,0,0:0:0:0:
128,160,71685,1,0,0:0:0:0:
192,128,71685,1,0,0:0:0:0:
224,128,71685,1,0,0:0:0:0:
96,160,71685,2,0,B|-32:160|192:192,2,160
224,128,71685,1,0,0:0:0:0:
224,128,71685,1,0,0:0:0:0:
224,160,71748,1,0,0:0:0:0:
160,224,71748,1,0,0:0:0:0:
256,192,71748,1,0,0:0:0:0:
128,192,71748,1,0,0:0:0:0:
224,224,71810,1,0,0:0:0:0:
256,256,71810,1,0,0:0:0:0:
384,160,71810,1,0,0:0:0:0:
256,256,71810,1,0,0:0:0:0:
256,256,71810,1,0,0:0:0:0:
288,224,71810,1,0,0:0:0:0:
320,224,71873,1,0,0:0:0:0:
224,96,71873,1,0,0:0:0:0:
352,256,71873,1,0,0:0:0:0:
128,160,71873,1,0,0:0:0:0:
352,224,71873,1,0,0:0:0:0:
352,224,71873,1,0,0:0:0:0:
224,160,71873,1,0,0:0:0:0:
352,192,71873,1,0,0:0:0:0:
352,192,71935,1,0,0:0:0:0:
192,192,71935,1,0,0:0:0:0:
352,192,71935,1,0,0:0:0:0:
384,192,71935,1,0,0:0:0:0:
384,192,71935,1,0,0:0:0:0:
384,192,71935,1,0,0:0:0:0:
384,192,71935,1,0,0:0:0:0:
384,224,71998,1,0,0:0:0:0:
224,96,71998,1,0,0:0:0:0:
384,256,71998,1,0,0:0:0:0:
416,256,71998,1,0,0:0:0:0:
416,256,71998,1,0,0:0:0:0:
384,192,71998,1,0,0:0:0:0:
416,224,71998,1,0,0:0:0:0:
416,192,72060,1,0,0:0:0:0:
416,160,72060,1,0,0:0:0:0:
384,128,72060,1,0,0:0:0:0:
352,128,72060,1,0,0:0:0:0:
256,192,72123,1,0,0:0:0:0:
320,160,72123,1,0,0:0:0:0:
288,160,72123,1,0,0:0:0:0:
192,192,72123,1,0,0:0:0:0:
288,160,72123,1,0,0:0:0:0:
64,352,72123,1,0,0:0:0:0:
288,160,72123,1,0,0:0:0:0:
288,160,72123,1,0,0:0:0:0:
128,160,72123,1,0,0:0:0:0:
288,128,72185,1,0,0:0:0:0:
288,96,72185,1,0,0:0:0:0:
256,96,72185,1,0,0:0:0:0:
384,320,72185,1,0,0:0:0:0:
224,96,72185,1,0,0:0:0:0:
160,224,72185,1,0,0:0:0:0:
192,96,72248,1,0,0:0:0:0:
160,96,72248,1,0,0:0:0:0:
128,96,72248,1,0,0:0:0:0:
128,128,72248,1,0,0:0:0:0:
384,160,72248,1,0,0:0:0:0:
96,160,72310,1,0,0:0:0:0:
96,192,72310,1,0,0:0:0:0:
128,224,72310,1,0,0:0:0:0:
224,96,72310,1,0,0:0:0:0:
160,256,72310,1,0,0:0:0:0:
192,288,72373,1,0,0:0:0:0:
224,160,72373,1,0,0:0:0:0:
224,320,72373,1,0,0:0:0:0:
192,192,72373,1,0,0:0:0:0:
256,320,72373,1,0,0:0:0:0:
288,288,72373,1,0,0:0:0:0:
256,256,72435,1,0,0:0:0:0:
448,256,72435,1,0,0:0:0:0:
224,96,72435,1,0,0:0:0:0:
224,192,72498,1,0,0:0:0:0:
256,128,72560,1,0,0:0:0:0:
64,352,72623,1,0,0:0:0:0:
128,192,72685,1,0,0:0:0:0:
192,96,72748,1,0,0:0:0:0:
320,288,72810,1,0,0:0:0:0:
64,352,72873,1,0,0:0:0:0:
160,128,72935,1,0,0:0:0:0:
160,224,72935,1,0,0:0:0:0:
128,192,72935,1,0,0:0:0:0:
224,96,73060,1,0,0:0:0:0:
288,128,73060,1,0,0:0:0:0:
128,160,73060,1,0,0:0:0:0:
384,288,73060,1,0,0:0:0:0:
224,160,73060,1,0,0:0:0:0:
224,320,73185,1,0,0:0:0:0:
64,256,73185,1,0,0:0:0:0:
384,192,73185,1,0,0:0:0:0:
192,96,73310,1,0,0:0:0:0:
256,192,73310,1,0,0:0:0:0:
192,192,73310,1,0,0:0:0:0:
128,160,73310,1,0,0:0:0:0:
384,320,73373,1,0,0:0:0:0:
64,320,73435,1,0,0:0:0:0:
384,160,73435,1,0,0:0:0:0:
224,192,73498,1,0,0:0:0:0:
128,160,73498,1,0,0:0:0:0:
192,192,73560,1,0,0:0:0:0:
448,256,73623,1,0,0:0:0:0:
224,96,73623,1,0,0:0:0:0:
224,192,73685,1,0,0:0:0:0:
256,128,73748,1,0,0:0:0:0:
64,352,73810,1,0,0:0:0:0:
128,160,73810,1,0,0:0:0:0:
128,192,73873,1,0,0:0:0:0:
160,224,73873,1,0,0:0:0:0:
384,160,73935,1,0,0:0:0:0:
320,288,73998,1,0,0:0:0:0:
224,96,73998,1,0,0:0:0:0:
224,160,73998,1,0,0:0:0:0:
192,192,74060,1,0,0:0:0:0:
224,96,74123,1,0,0:0:0:0:
160,128,74123,1,0,0:0:0:0:
224,192,74123,1,0,0:0:0:0:
128,160,74248,1,0,0:0:0:0:
384,288,74248,1,0,0:0:0:0:
192,192,74248,1,0,0:0:0:0:
224,320,74373,1,0,0:0:0:0:
160,224,74373,1,0,0:0:0:0:
384,192,74373,1,0,0:0:0:0:
224,96,74435,1,0,0:0:0:0:
192,96,74498,1,0,0:0:0:0:
224,160,74498,1,0,0:0:0:0:
128,160,74498,1,0,0:0:0:0:
96,160,74560,2,0,B|-32:160|192:192,2,160
64,320,74623,1,0,0:0:0:0:
384,160,74623,1,0,0:0:0:0:
128,160,74685,1,0,0:0:0:0:
192,192,74748,1,0,0:0:0:0:
192,192,74748,1,0,0:0:0:0:
224,96,74810,1,0,0:0:0:0:
224,192,74873,1,0,0:0:0:0:
384,192,74873,1,0,0:0:0:0:
160,128,74998,1,0,0:0:0:0:
160,128,74998,1,0,0:0:0:0:
160,128,74998,1,0,0:0:0:0:
128,160,74998,1,0,0:0:0:0:
192,128,74998,1,0,0:0:0:0:
224,128,74998,1,0,0:0:0:0:
96,160,74998,2,0,B|-32:160|192:192,2,160
224,128,74998,1,0,0:0:0:0:
224,128,75060,1,0,0:0:0:0:
224,160,75060,1,0,0:0:0:0:
160,224,75060,1,0,0:0:0:0:
256,192,75060,1,0,0:0:0:0:
224,224,75123,1,0,0:0:0:0:
256,256,75123,1,0,0:0:0:0:
384,160,75123,1,0,0:0:0:0:
256,256,75123,1,0,0:0:0:0:
256,256,75123,1,0,0:0:0:0:
288,224,75123,1,0,0:0:0:0:
320,224,75185,1,0,0:0:0:0:
224,96,75185,1,0,0:0:0:0:
352,256,75185,1,0,0:0:0:0:
128,160,75185,1,0,0:0:0:0:
352,224,75185,1,0,0:0:0:0:
352,224,75185,1,0,0:0:0:0:
224,160,75185,1,0,0:0:0:0:
352,192,75248,1,0,0:0:0:0:
352,192,75248,1,0,0:0:0:0:
192,192,75248,1,0,0:0:0:0:
352,192,75248,1,0,0:0:0:0:
384,192,75248,1,0,0:0:0:0:
384,192,75248,1,0,0:0:0:0:
384,192,75248,1,0,0:0:0:0:
384,192,75248,1,0,0:0:0:0:
384,224,75310,1,0,0:0:0:0:
224,96,75310,1,0,0:0:0:0:
384,256,75310,1,0,0:0:0:0:
416,256,75310,1,0,0:0:0:0:
416,256,75310,1,0,0:0:0:0:
384,192,75310,1,0,0:0:0:0:
416,224,75373,1,0,0:0:0:0:
416,192,75373,1,0,0:0:0:0:
416,160,75373,1,0,0:0:0:0:
384,128,75373,1,0,0:0:0:0:
352,128,75435,1,0,0:0:0:0:
320,160,75435,1,0,0:0:0:0:
288,160,75435,1,0,0:0:0:0:
192,192,75435,1,0,0:0:0:0:
288,160,75435,1,0,0:0:0:0:
64,352,75435,1,0,0:0:0:0:
288,160,75435,1,0,0:0:0:0:
288,160,75435,1,0,0:0:0:0:
128,160,75435,1,0,0:0:0:0:
288,128,75498,1,0,0:0:0:0:
288,96,75498,1,0,0:0:0:0:
256,96,75498,1,0,0:0:0:0:
224,96,75498,1,0,0:0:0:0:
160,224,75560,1,0,0:0:0:0:
192,96,75560,1,0,0:0:0:0:
160,96,75560,1,0,0:0:0:0:
128,96,75560,1,0,0:0:0:0:
128,128,75560,1,0,0:0:0:0:
384,160,75623,1,0,0:0:0:0:
96,160,75623,1,0,0:0:0:0:
96,192,75623,1,0,0:0:0:0:
128,224,75623,1,0,0:0:0:0:
224,96,75623,1,0,0:0:0:0:
160,256,75685,1,0,0:0:0:0:
192,288,75685,1,0,0:0:0:0:
224,160,75685,1,0,0:0:0:0:
224,320,75685,1,0,0:0:0:0:
192,192,75685,1,0,0:0:0:0:
256,320,75685,1,0,0:0:0:0:
288,288,75748,1,0,0:0:0:0:
256,256,75748,1,0,0:0:0:0:
224,96,75748,1,0,0:0:0:0:
224,192,75810,1,0,0:0:0:0:
64,352,75935,1,0,0:0:0:0:
192,96,76060,1,0,0:0:0:0:
128,192,76310,1,0,0:0:0:0:
288,128,76373,1,0,0:0:0:0:
64,256,76498,1,0,0:0:0:0:
256,192,76623,1,0,0:0:0:0:
256,160,76623,2,0,B|320:352|288:160|192:256|160:224|416:256|160:128|288:288|192:224|224:256|224:160|96:256|96:256|64:160|352:192|352:192|224:288|256:96|192:160,5,800
384,320,76685,1,0,0:0:0:0:
224,192,76810,1,0,0:0:0:0:
448,256,76935,1,0,0:0:0:0:
256,128,77060,1,0,0:0:0:0:
160,128,77123,1,0,0:0:0:0:
160,128,77123,1,0,0:0:0:0:
160,128,77123,1,0,0:0:0:0:
192,128,77123,1,0,0:0:0:0:
224,128,77123,1,0,0:0:0:0:
224,128,77185,1,0,0:0:0:0:
224,128,77185,1,0,0:0:0:0:
224,160,77185,1,0,0:0:0:0:
256,192,77185,1,0,0:0:0:0:
224,224,77248,1,0,0:0:0:0:
256,256,77248,1,0,0:0:0:0:
256,256,77248,1,0,0:0:0:0:
256,256,77248,1,0,0:0:0:0:
288,224,77310,1,0,0:0:0:0:
320,224,77310,1,0,0:0:0:0:
320,288,77310,1,0,0:0:0:0:
352,256,77310,1,0,0:0:0:0:
352,224,77310,1,0,0:0:0:0:
352,224,77310,1,0,0:0:0:0:
352,192,77373,1,0,0:0:0:0:
352,192,77373,1,0,0:0:0:0:
352,192,77373,1,0,0:0:0:0:
384,192,77373,1,0,0:0:0:0:
384,192,77373,1,0,0:0:0:0:
384,192,77373,1,0,0:0:0:0:
384,192,77435,1,0,0:0:0:0:
384,224,77435,1,0,0:0:0:0:
160,128,77435,1,0,0:0:0:0:
384,256,77435,1,0,0:0:0:0:
416,256,77435,1,0,0:0:0:0:
416,256,77498,1,0,0:0:0:0:
416,224,77498,1,0,0:0:0:0:
416,192,77498,1,0,0:0:0:0:
416,160,77498,1,0,0:0:0:0:
384,128,77498,1,0,0:0:0:0:
352,128,77560,1,0,0:0:0:0:
320,160,77560,1,0,0:0:0:0:
384,288,77560,1,0,0:0:0:0:
288,160,77560,1,0,0:0:0:0:
288,160,77560,1,0,0:0:0:0:
288,160,77623,1,0,0:0:0:0:
288,160,77623,1,0,0:0:0:0:
288,128,77623,1,0,0:0:0:0:
288,96,77623,1,0,0:0:0:0:
256,96,77623,1,0,0:0:0:0:
224,96,77685,1,0,0:0:0:0:
192,96,77685,1,0,0:0:0:0:
160,96,77685,1,0,0:0:0:0:
128,96,77685,1,0,0:0:0:0:
128,128,77748,1,0,0:0:0:0:
96,160,77748,1,0,0:0:0:0:
96,192,77748,1,0,0:0:0:0:
128,224,77748,1,0,0:0:0:0:
192,96,77810,1,0,0:0:0:0:
160,256,77810,1,0,0:0:0:0:
192,288,77810,1,0,0:0:0:0:
224,320,77810,1,0,0:0:0:0:
256,320,77873,1,0,0:0:0:0:
288,288,77873,1,0,0:0:0:0:
256,256,77873,1,0,0:0:0:0:
64,320,77935,1,0,0:0:0:0:
192,96,78185,1,0,0:0:0:0:
128,192,78435,1,0,0:0:0:0:
416,256,78435,2,0,B|192:160,1,240
288,128,78498,1,0,0:0:0:0:
190,159,78623,2,0,B|128:224|224:128,6,80
64,256,78623,1,0,0:0:0:0:
256,192,78748,1,0,0:0:0:0:
384,320,78873,1,0,0:0:0:0:
256,128,78935,2,0,B|192:256|224:192|32:192|96:160,6,200
224,192,78935,1,0,0:0:0:0:
448,256,79060,1,0,0:0:0:0:
256,128,79185,1,0,0:0:0:0:
128,192,79310,1,0,0:0:0:0:
320,288,79435,1,0,0:0:0:0:
160,128,79498,1,0,0:0:0:0:
160,128,79498,1,0,0:0:0:0:
160,128,79498,1,0,0:0:0:0:
192,128,79498,1,0,0:0:0:0:
224,128,79498,1,0,0:0:0:0:
224,128,79560,1,0,0:0:0:0:
224,128,79560,1,0,0:0:0:0:
224,160,79560,1,0,0:0:0:0:
160,128,79560,1,0,0:0:0:0:
256,192,79560,1,0,0:0:0:0:
160,64,79623,2,0,B|192:224|192:160|256:160|192:192,11,160
224,224,79623,1,0,0:0:0:0:
256,256,79623,1,0,0:0:0:0:
256,256,79623,1,0,0:0:0:0:
256,256,79623,1,0,0:0:0:0:
288,224,79685,1,0,0:0:0:0:
320,224,79685,1,0,0:0:0:0:
352,256,79685,1,0,0:0:0:0:
352,224,79685,1,0,0:0:0:0:
352,224,79685,1,0,0:0:0:0:
352,192,79748,1,0,0:0:0:0:
352,192,79748,1,0,0:0:0:0:
352,192,79748,1,0,0:0:0:0:
384,192,79748,1,0,0:0:0:0:
384,192,79748,1,0,0:0:0:0:
384,192,79748,1,0,0:0:0:0:
384,192,79748,1,0,0:0:0:0:
384,224,79810,1,0,0:0:0:0:
224,320,79810,1,0,0:0:0:0:
384,256,79810,1,0,0:0:0:0:
416,256,79810,1,0,0:0:0:0:
416,256,79810,1,0,0:0:0:0:
416,224,79873,1,0,0:0:0:0:
416,192,79873,1,0,0:0:0:0:
416,160,79873,1,0,0:0:0:0:
384,128,79873,1,0,0:0:0:0:
352,128,79935,1,0,0:0:0:0:
192,96,79935,1,0,0:0:0:0:
320,160,79935,1,0,0:0:0:0:
288,160,79935,1,0,0:0:0:0:
288,160,79935,1,0,0:0:0:0:
288,160,79935,1,0,0:0:0:0:
288,160,79998,1,0,0:0:0:0:
288,128,79998,1,0,0:0:0:0:
288,96,79998,1,0,0:0:0:0:
256,96,79998,1,0,0:0:0:0:
224,96,80060,1,0,0:0:0:0:
192,96,80060,1,0,0:0:0:0:
160,96,80060,1,0,0:0:0:0:
64,320,80060,1,0,0:0:0:0:
128,96,80060,1,0,0:0:0:0:
128,128,80123,1,0,0:0:0:0:
96,160,80123,1,0,0:0:0:0:
96,192,80123,1,0,0:0:0:0:
128,224,80123,1,0,0:0:0:0:
160,256,80185,1,0,0:0:0:0:
192,288,80185,1,0,0:0:0:0:
224,320,80185,1,0,0:0:0:0:
256,320,80185,1,0,0:0:0:0:
288,288,80248,1,0,0:0:0:0:
256,256,80248,1,0,0:0:0:0:
288,320,80435,2,0,B|224:192|160:128|128:160|128:192|160:256,5,280
192,96,80560,1,0,0:0:0:0:
128,192,80810,1,0,0:0:0:0:
288,128,80873,1,0,0:0:0:0:
64,256,80998,1,0,0:0:0:0:
192,256,81060,2,0,B|320:32|288:224|128:224|192:192,6,240
256,192,81123,1,0,0:0:0:0:
384,320,81248,1,0,0:0:0:0:
224,192,81310,1,0,0:0:0:0:
160,128,81373,1,0,0:0:0:0:
160,128,81373,1,0,0:0:0:0:
160,128,81373,1,0,0:0:0:0:
192,128,81435,1,0,0:0:0:0:
224,128,81435,1,0,0:0:0:0:
224,128,81435,1,0,0:0:0:0:
224,128,81435,1,0,0:0:0:0:
448,256,81435,1,0,0:0:0:0:
224,160,81435,1,0,0:0:0:0:
256,192,81498,1,0,0:0:0:0:
224,224,81498,1,0,0:0:0:0:
256,256,81498,1,0,0:0:0:0:
256,256,81560,1,0,0:0:0:0:
256,256,81560,1,0,0:0:0:0:
288,224,81560,1,0,0:0:0:0:
320,224,81560,1,0,0:0:0:0:
256,128,81560,1,0,0:0:0:0:
352,256,81560,1,0,0:0:0:0:
352,224,81623,1,0,0:0:0:0:
352,224,81623,1,0,0:0:0:0:
352,192,81623,1,0,0:0:0:0:
352,192,81623,1,0,0:0:0:0:
352,192,81623,1,0,0:0:0:0:
384,192,81623,1,0,0:0:0:0:
384,192,81685,1,0,0:0:0:0:
384,192,81685,1,0,0:0:0:0:
384,192,81685,1,0,0:0:0:0:
384,224,81685,1,0,0:0:0:0:
128,192,81685,1,0,0:0:0:0:
384,256,81685,1,0,0:0:0:0:
416,256,81748,1,0,0:0:0:0:
416,256,81748,1,0,0:0:0:0:
256,192,81748,2,0,B|224:224,7,40
416,224,81748,1,0,0:0:0:0:
416,192,81748,1,0,0:0:0:0:
416,160,81810,1,0,0:0:0:0:
384,128,81810,1,0,0:0:0:0:
352,128,81810,1,0,0:0:0:0:
320,288,81810,1,0,0:0:0:0:
320,160,81810,1,0,0:0:0:0:
288,160,81873,1,0,0:0:0:0:
288,160,81873,1,0,0:0:0:0:
288,160,81873,1,0,0:0:0:0:
288,160,81873,1,0,0:0:0:0:
288,128,81873,1,0,0:0:0:0:
288,96,81873,1,0,0:0:0:0:
256,96,81935,1,0,0:0:0:0:
224,96,81935,1,0,0:0:0:0:
160,128,81935,1,0,0:0:0:0:
192,96,81935,1,0,0:0:0:0:
160,96,81935,1,0,0:0:0:0:
32,192,81935,2,0,B|192:160,1,160
128,96,81998,1,0,0:0:0:0:
128,128,81998,1,0,0:0:0:0:
96,160,81998,1,0,0:0:0:0:
96,192,81998,1,0,0:0:0:0:
128,224,82060,1,0,0:0:0:0:
160,256,82060,1,0,0:0:0:0:
192,288,82060,1,0,0:0:0:0:
224,320,82123,1,0,0:0:0:0:
256,320,82123,1,0,0:0:0:0:
288,256,82123,2,0,B|192:256,4,80
288,288,82123,1,0,0:0:0:0:
256,256,82123,1,0,0:0:0:0:
224,320,82185,1,0,0:0:0:0:
192,96,82310,1,0,0:0:0:0:
192,320,82310,2,0,B|224:192,3,120
64,320,82435,1,0,0:0:0:0:
192,96,82435,1,0,0:0:0:0:
192,160,82560,2,0,B|352:192|256:352,3,240
128,192,82685,1,0,0:0:0:0:
288,128,82748,1,0,0:0:0:0:
160,128,82810,1,0,0:0:0:0:
160,128,82810,1,0,0:0:0:0:
160,128,82810,1,0,0:0:0:0:
192,128,82810,1,0,0:0:0:0:
224,128,82810,1,0,0:0:0:0:
224,128,82873,1,0,0:0:0:0:
224,128,82873,1,0,0:0:0:0:
224,160,82873,1,0,0:0:0:0:
256,192,82873,1,0,0:0:0:0:
64,256,82873,1,0,0:0:0:0:
224,224,82935,1,0,0:0:0:0:
224,320,82935,2,0,B|384:96|416:128|448:224|352:288,3,360
256,256,82935,1,0,0:0:0:0:
256,256,82935,1,0,0:0:0:0:
256,256,82935,1,0,0:0:0:0:
288,224,82998,1,0,0:0:0:0:
320,224,82998,1,0,0:0:0:0:
352,256,82998,1,0,0:0:0:0:
256,192,82998,1,0,0:0:0:0:
352,224,82998,1,0,0:0:0:0:
352,224,82998,1,0,0:0:0:0:
352,192,83060,1,0,0:0:0:0:
352,192,83060,1,0,0:0:0:0:
352,192,83060,1,0,0:0:0:0:
384,192,83060,1,0,0:0:0:0:
384,192,83060,1,0,0:0:0:0:
384,192,83060,1,0,0:0:0:0:
384,192,83123,1,0,0:0:0:0:
384,224,83123,1,0,0:0:0:0:
384,320,83123,1,0,0:0:0:0:
384,256,83123,1,0,0:0:0:0:
416,256,83123,1,0,0:0:0:0:
416,256,83185,1,0,0:0:0:0:
416,224,83185,1,0,0:0:0:0:
416,192,83185,1,0,0:0:0:0:
416,160,83185,1,0,0:0:0:0:
384,128,83185,1,0,0:0:0:0:
352,128,83248,1,0,0:0:0:0:
224,192,83248,1,0,0:0:0:0:
320,160,83248,1,0,0:0:0:0:
288,160,83248,1,0,0:0:0:0:
288,160,83248,1,0,0:0:0:0:
288,160,83310,1,0,0:0:0:0:
288,160,83310,1,0,0:0:0:0:
288,128,83310,1,0,0:0:0:0:
288,96,83310,1,0,0:0:0:0:
256,96,83310,1,0,0:0:0:0:
224,96,83373,1,0,0:0:0:0:
192,96,83373,1,0,0:0:0:0:
160,96,83373,1,0,0:0:0:0:
128,96,83373,1,0,0:0:0:0:
128,128,83435,1,0,0:0:0:0:
96,160,83435,1,0,0:0:0:0:
320,288,83435,2,0,B|224:32|320:192|192:256|320:256|96:64|288:256|128:320|352:320,7,400
96,192,83435,1,0,0:0:0:0:
128,224,83435,1,0,0:0:0:0:
256,128,83498,1,0,0:0:0:0:
160,256,83498,1,0,0:0:0:0:
192,288,83498,1,0,0:0:0:0:
224,320,83498,1,0,0:0:0:0:
256,320,83560,1,0,0:0:0:0:
288,288,83560,1,0,0:0:0:0:
256,256,83560,1,0,0:0:0:0:
128,192,83623,1,0,0:0:0:0:
320,288,83685,1,0,0:0:0:0:
160,128,83810,1,0,0:0:0:0:
192,96,83873,1,0,0:0:0:0:
384,288,83998,1,0,0:0:0:0:
224,320,84060,1,0,0:0:0:0:
128,192,84123,1,0,0:0:0:0:
192,96,84185,1,0,0:0:0:0:
288,128,84185,1,0,0:0:0:0:
64,256,84310,1,0,0:0:0:0:
64,320,84310,1,0,0:0:0:0:
256,192,84435,1,0,0:0:0:0:
384,320,84560,1,0,0:0:0:0:
224,192,84623,1,0,0:0:0:0:
448,256,84748,1,0,0:0:0:0:
320,320,84810,2,0,B|224:192,3,160
256,128,84873,1,0,0:0:0:0:
128,192,84998,1,0,0:0:0:0:
225,194,85060,2,0,B|32:128|256:288|96:288,6,200
320,288,85123,1,0,0:0:0:0:
160,128,85248,1,0,0:0:0:0:
384,288,85373,1,0,0:0:0:0:
224,320,85498,1,0,0:0:0:0:
192,96,85623,1,0,0:0:0:0:
128,224,85623,2,0,B|384:288,1,240
64,320,85748,1,0,0:0:0:0:
192,320,85873,2,0,B|256:160|256:160|320:96|352:192,7,280
160,128,86560,1,0,0:0:0:0:
160,128,86623,1,0,0:0:0:0:
160,128,86623,1,0,0:0:0:0:
192,128,86623,1,0,0:0:0:0:
224,128,86623,1,0,0:0:0:0:
224,128,86623,1,0,0:0:0:0:
224,128,86623,1,0,0:0:0:0:
224,160,86685,1,0,0:0:0:0:
256,192,86685,1,0,0:0:0:0:
224,224,86685,1,0,0:0:0:0:
256,256,86748,1,0,0:0:0:0:
256,256,86748,1,0,0:0:0:0:
256,256,86748,1,0,0:0:0:0:
288,224,86748,1,0,0:0:0:0:
320,224,86810,1,0,0:0:0:0:
352,256,86810,1,0,0:0:0:0:
352,224,86810,1,0,0:0:0:0:
352,224,86810,1,0,0:0:0:0:
352,192,86810,1,0,0:0:0:0:
352,192,86810,1,0,0:0:0:0:
352,192,86873,1,0,0:0:0:0:
384,192,86873,1,0,0:0:0:0:
384,192,86873,1,0,0:0:0:0:
384,192,86873,1,0,0:0:0:0:
384,192,86873,1,0,0:0:0:0:
384,224,86873,1,0,0:0:0:0:
384,256,86935,1,0,0:0:0:0:
416,256,86935,1,0,0:0:0:0:
416,256,86935,1,0,0:0:0:0:
416,224,86935,1,0,0:0:0:0:
416,192,86998,1,0,0:0:0:0:
416,160,86998,1,0,0:0:0:0:
384,128,86998,1,0,0:0:0:0:
352,128,86998,1,0,0:0:0:0:
320,160,87060,1,0,0:0:0:0:
288,160,87060,1,0,0:0:0:0:
288,160,87060,1,0,0:0:0:0:
288,160,87060,1,0,0:0:0:0:
288,160,87060,1,0,0:0:0:0:
288,128,87123,1,0,0:0:0:0:
288,96,87123,1,0,0:0:0:0:
256,96,87123,1,0,0:0:0:0:
224,96,87123,1,0,0:0:0:0:
192,96,87185,1,0,0:0:0:0:
160,96,87185,1,0,0:0:0:0:
128,96,87185,1,0,0:0:0:0:
256,224,87185,2,0,B|192:192|320:224|192:288|256:288|128:288,13,160
128,128,87185,1,0,0:0:0:0:
96,160,87185,1,0,0:0:0:0:
96,192,87248,1,0,0:0:0:0:
128,224,87248,1,0,0:0:0:0:
160,256,87248,1,0,0:0:0:0:
192,288,87310,1,0,0:0:0:0:
224,320,87310,1,0,0:0:0:0:
256,320,87310,1,0,0:0:0:0:
288,288,87310,1,0,0:0:0:0:
256,256,87310,1,0,0:0:0:0:
192,96,87685,1,0,0:0:0:0:
128,192,87873,1,0,0:0:0:0:
288,128,87998,1,0,0:0:0:0:
64,256,88123,1,0,0:0:0:0:
96,96,88248,6,0,B|192:224,3,160
256,192,88248,1,0,0:0:0:0:
384,320,88310,1,0,0:0:0:0:
224,192,88435,1,0,0:0:0:0:
128,192,88498,2,0,B|192:192|64:192|96:160,24,80
448,256,88560,1,0,0:0:0:0:
256,128,88685,1,0,0:0:0:0:
128,192,88810,1,0,0:0:0:0:
320,288,88935,1,0,0:0:0:0:
160,128,89060,1,0,0:0:0:0:
384,288,89185,1,0,0:0:0:0:
224,320,89248,1,0,0:0:0:0:
192,96,89373,1,0,0:0:0:0:
352,160,89498,1,0,0:0:0:0:
64,320,89560,1,0,0:0:0:0:
192,160,89623,1,0,0:0:0:0:
384,192,89685,1,0,0:0:0:0:
192,160,89810,1,0,0:0:0:0:
256,160,89810,1,0,0:0:0:0:
256,160,89935,1,0,0:0:0:0:
256,160,90060,1,0,0:0:0:0:
224,160,90310,1,0,0:0:0:0:
224,160,90373,1,0,0:0:0:0:
224,160,90560,1,0,0:0:0:0:
224,160,90623,1,0,0:0:0:0:
224,160,90748,1,0,0:0:0:0:
96,352,90873,1,0,0:0:0:0:
320,288,90998,1,0,0:0:0:0:
96,160,91123,1,0,0:0:0:0:
256,224,91248,1,0,0:0:0:0:
448,96,91373,1,0,0:0:0:0:
288,192,91435,1,0,0:0:0:0:
192,224,91685,1,0,0:0:0:0:
416,256,91810,1,0,0:0:0:0:
160,192,92060,1,0,0:0:0:0:
384,256,92185,1,0,0:0:0:0:
256,224,92310,1,0,0:0:0:0:
448,224,92373,1,0,0:0:0:0:
224,256,92498,1,0,0:0:0:0:
416,128,92623,1,0,0:0:0:0:
256,256,92748,1,0,0:0:0:0:
448,128,92873,1,0,0:0:0:0:
224,224,92998,1,0,0:0:0:0:
416,256,93123,1,0,0:0:0:0:
224,224,93185,1,0,0:0:0:0:
224,256,93435,1,0,0:0:0:0:
416,128,93560,1,0,0:0:0:0:
256,256,93685,1,0,0:0:0:0:
224,128,93685,1,0,0:0:0:0:
448,128,93810,1,0,0:0:0:0:
224,224,93935,1,0,0:0:0:0:
128,192,93935,1,0,0:0:0:0:
416,256,94060,1,0,0:0:0:0:
256,32,94060,1,0,0:0:0:0:
224,224,94123,1,0,0:0:0:0:
160,224,94185,1,0,0:0:0:0:
224,128,94310,1,0,0:0:0:0:
352,352,94435,1,0,0:0:0:0:
160,192,94560,1,0,0:0:0:0:
224,128,94623,1,0,0:0:0:0:
384,128,94685,1,0,0:0:0:0:
384,224,94748,1,0,0:0:0:0:
160,224,94810,1,0,0:0:0:0:
128,192,94873,1,0,0:0:0:0:
352,32,94935,1,0,0:0:0:0:
256,32,94998,1,0,0:0:0:0:
256,256,95060,1,0,0:0:0:0:
160,224,95123,1,0,0:0:0:0:
160,0,95248,1,0,0:0:0:0:
224,128,95248,1,0,0:0:0:0:
288,160,95310,1,0,0:0:0:0:
352,352,95373,1,0,0:0:0:0:
192,352,95435,1,0,0:0:0:0:
160,192,95498,1,0,0:0:0:0:
256,256,95560,1,0,0:0:0:0:
384,128,95623,1,0,0:0:0:0:
448,96,95685,1,0,0:0:0:0:
160,224,95748,1,0,0:0:0:0:
256,192,95810,1,0,0:0:0:0:
352,32,95873,1,0,0:0:0:0:
128,384,95935,1,0,0:0:0:0:
256,256,95998,1,0,0:0:0:0:
224,224,96060,1,0,0:0:0:0:
160,0,96185,1,0,0:0:0:0:
288,160,96248,1,0,0:0:0:0:
192,352,96373,1,0,0:0:0:0:
256,256,96498,1,0,0:0:0:0:
192,160,96498,1,0,0:0:0:0:
160,128,96560,1,0,0:0:0:0:
160,128,96560,1,0,0:0:0:0:
160,128,96560,1,0,0:0:0:0:
192,128,96560,1,0,0:0:0:0:
224,128,96560,1,0,0:0:0:0:
224,128,96623,1,0,0:0:0:0:
224,128,96623,1,0,0:0:0:0:
224,160,96623,1,0,0:0:0:0:
256,192,96623,1,0,0:0:0:0:
448,96,96623,1,0,0:0:0:0:
224,224,96685,1,0,0:0:0:0:
256,256,96685,1,0,0:0:0:0:
256,256,96685,1,0,0:0:0:0:
256,256,96685,1,0,0:0:0:0:
224,160,96685,1,0,0:0:0:0:
288,224,96748,1,0,0:0:0:0:
320,224,96748,1,0,0:0:0:0:
352,256,96748,1,0,0:0:0:0:
256,192,96748,1,0,0:0:0:0:
352,224,96748,1,0,0:0:0:0:
352,224,96748,1,0,0:0:0:0:
352,192,96810,1,0,0:0:0:0:
352,192,96810,1,0,0:0:0:0:
352,192,96810,1,0,0:0:0:0:
384,192,96810,1,0,0:0:0:0:
384,192,96810,1,0,0:0:0:0:
384,192,96810,1,0,0:0:0:0:
160,352,96810,1,0,0:0:0:0:
384,192,96810,1,0,0:0:0:0:
384,224,96873,1,0,0:0:0:0:
384,256,96873,1,0,0:0:0:0:
128,384,96873,1,0,0:0:0:0:
416,256,96873,1,0,0:0:0:0:
416,256,96873,1,0,0:0:0:0:
416,224,96935,1,0,0:0:0:0:
416,192,96935,1,0,0:0:0:0:
416,160,96935,1,0,0:0:0:0:
384,128,96935,1,0,0:0:0:0:
352,128,96998,1,0,0:0:0:0:
224,224,96998,1,0,0:0:0:0:
320,160,96998,1,0,0:0:0:0:
288,160,96998,1,0,0:0:0:0:
288,160,96998,1,0,0:0:0:0:
288,160,96998,1,0,0:0:0:0:
288,160,96998,1,0,0:0:0:0:
288,160,97060,1,0,0:0:0:0:
288,128,97060,1,0,0:0:0:0:
288,96,97060,1,0,0:0:0:0:
256,96,97060,1,0,0:0:0:0:
224,160,97060,1,0,0:0:0:0:
224,96,97123,1,0,0:0:0:0:
192,96,97123,1,0,0:0:0:0:
160,96,97123,1,0,0:0:0:0:
128,96,97123,1,0,0:0:0:0:
416,128,97123,1,0,0:0:0:0:
128,128,97185,1,0,0:0:0:0:
96,160,97185,1,0,0:0:0:0:
96,192,97185,1,0,0:0:0:0:
224,160,97185,1,0,0:0:0:0:
128,224,97185,1,0,0:0:0:0:
160,256,97248,1,0,0:0:0:0:
192,288,97248,1,0,0:0:0:0:
256,256,97248,1,0,0:0:0:0:
224,320,97248,1,0,0:0:0:0:
256,320,97248,1,0,0:0:0:0:
288,288,97310,1,0,0:0:0:0:
256,256,97310,1,0,0:0:0:0:
288,352,97310,1,0,0:0:0:0:
448,128,97373,1,0,0:0:0:0:
224,64,97435,1,0,0:0:0:0:
192,160,97435,1,0,0:0:0:0:
224,256,97435,1,0,0:0:0:0:
224,224,97435,1,0,0:0:0:0:
224,160,97435,1,0,0:0:0:0:
416,128,97435,1,0,0:0:0:0:
192,96,97435,1,0,0:0:0:0:
224,160,97435,1,0,0:0:0:0:
224,192,97435,1,0,0:0:0:0:
224,224,97435,1,0,0:0:0:0:
256,256,97435,1,0,0:0:0:0:
160,352,97435,1,0,0:0:0:0:
448,128,97560,1,0,0:0:0:0:
128,192,97560,1,0,0:0:0:0:
128,192,97560,1,0,0:0:0:0:
128,192,97560,1,0,0:0:0:0:
288,128,97560,1,0,0:0:0:0:
288,128,97560,1,0,0:0:0:0:
288,128,97560,1,0,0:0:0:0:
224,224,97685,1,0,0:0:0:0:
224,160,97685,1,0,0:0:0:0:
64,256,97685,1,0,0:0:0:0:
64,256,97685,1,0,0:0:0:0:
64,256,97685,1,0,0:0:0:0:
416,256,97685,1,0,0:0:0:0:
224,160,97748,1,0,0:0:0:0:
256,192,97810,1,0,0:0:0:0:
256,192,97810,1,0,0:0:0:0:
256,192,97810,1,0,0:0:0:0:
224,224,97810,1,0,0:0:0:0:
224,128,97810,1,0,0:0:0:0:
288,352,97873,1,0,0:0:0:0:
384,320,97935,1,0,0:0:0:0:
384,320,97935,1,0,0:0:0:0:
384,320,97935,1,0,0:0:0:0:
384,224,97935,1,0,0:0:0:0:
224,64,97998,1,0,0:0:0:0:
224,192,97998,1,0,0:0:0:0:
224,192,97998,1,0,0:0:0:0:
224,192,97998,1,0,0:0:0:0:
128,192,98060,1,0,0:0:0:0:
224,160,98123,1,0,0:0:0:0:
448,256,98123,1,0,0:0:0:0:
448,256,98123,1,0,0:0:0:0:
448,256,98123,1,0,0:0:0:0:
256,32,98185,1,0,0:0:0:0:
224,192,98248,1,0,0:0:0:0:
256,128,98248,1,0,0:0:0:0:
256,128,98248,1,0,0:0:0:0:
256,128,98248,1,0,0:0:0:0:
224,128,98310,1,0,0:0:0:0:
224,256,98310,1,0,0:0:0:0:
160,224,98310,1,0,0:0:0:0:
128,192,98373,1,0,0:0:0:0:
128,192,98373,1,0,0:0:0:0:
128,192,98373,1,0,0:0:0:0:
384,224,98435,1,0,0:0:0:0:
416,128,98435,1,0,0:0:0:0:
224,128,98435,1,0,0:0:0:0:
320,288,98498,1,0,0:0:0:0:
320,288,98498,1,0,0:0:0:0:
320,288,98498,1,0,0:0:0:0:
256,256,98560,1,0,0:0:0:0:
224,256,98560,1,0,0:0:0:0:
128,192,98560,1,0,0:0:0:0:
352,352,98560,1,0,0:0:0:0:
160,128,98623,1,0,0:0:0:0:
160,128,98623,1,0,0:0:0:0:
160,128,98623,1,0,0:0:0:0:
448,128,98685,1,0,0:0:0:0:
416,128,98685,1,0,0:0:0:0:
256,32,98685,1,0,0:0:0:0:
160,192,98685,1,0,0:0:0:0:
384,288,98748,1,0,0:0:0:0:
384,288,98748,1,0,0:0:0:0:
384,288,98748,1,0,0:0:0:0:
256,256,98748,1,0,0:0:0:0:
224,224,98810,1,0,0:0:0:0:
384,128,98810,1,0,0:0:0:0:
224,320,98873,1,0,0:0:0:0:
224,320,98873,1,0,0:0:0:0:
224,320,98873,1,0,0:0:0:0:
448,128,98873,1,0,0:0:0:0:
416,256,98873,1,0,0:0:0:0:
224,128,98935,1,0,0:0:0:0:
160,224,98935,1,0,0:0:0:0:
192,96,98998,1,0,0:0:0:0:
192,96,98998,1,0,0:0:0:0:
192,96,98998,1,0,0:0:0:0:
224,224,98998,1,0,0:0:0:0:
224,224,98998,1,0,0:0:0:0:
352,352,99060,1,0,0:0:0:0:
352,32,99060,1,0,0:0:0:0:
64,320,99123,1,0,0:0:0:0:
64,320,99123,1,0,0:0:0:0:
64,320,99123,1,0,0:0:0:0:
416,256,99123,1,0,0:0:0:0:
160,192,99185,1,0,0:0:0:0:
256,256,99185,1,0,0:0:0:0:
224,224,99248,1,0,0:0:0:0:
224,256,99248,1,0,0:0:0:0:
384,128,99310,1,0,0:0:0:0:
160,0,99373,1,0,0:0:0:0:
416,128,99373,1,0,0:0:0:0:
160,224,99435,1,0,0:0:0:0:
288,160,99435,1,0,0:0:0:0:
256,256,99498,1,0,0:0:0:0:
224,128,99498,1,0,0:0:0:0:
352,32,99560,1,0,0:0:0:0:
192,352,99560,1,0,0:0:0:0:
384,224,99623,1,0,0:0:0:0:
448,128,99623,1,0,0:0:0:0:
256,256,99685,1,0,0:0:0:0:
256,256,99685,1,0,0:0:0:0:
224,128,99748,1,0,0:0:0:0:
224,224,99748,1,0,0:0:0:0:
128,192,99748,1,0,0:0:0:0:
160,0,99810,1,0,0:0:0:0:
384,224,99810,1,0,0:0:0:0:
448,96,99810,1,0,0:0:0:0:
416,256,99873,1,0,0:0:0:0:
256,32,99873,1,0,0:0:0:0:
288,160,99935,1,0,0:0:0:0:
224,224,99935,1,0,0:0:0:0:
224,256,99935,1,0,0:0:0:0:
128,192,99935,1,0,0:0:0:0:
160,224,99998,1,0,0:0:0:0:
192,352,100060,1,0,0:0:0:0:
128,384,100060,1,0,0:0:0:0:
416,128,100060,1,0,0:0:0:0:
256,32,100060,1,0,0:0:0:0:
224,128,100123,1,0,0:0:0:0:
256,256,100185,1,0,0:0:0:0:
224,224,100185,1,0,0:0:0:0:
256,256,100185,1,0,0:0:0:0:
160,224,100185,1,0,0:0:0:0:
352,352,100248,1,0,0:0:0:0:
448,96,100310,1,0,0:0:0:0:
448,128,100310,1,0,0:0:0:0:
224,128,100310,1,0,0:0:0:0:
160,192,100373,1,0,0:0:0:0:
256,192,100435,1,0,0:0:0:0:
224,224,100435,1,0,0:0:0:0:
352,352,100435,1,0,0:0:0:0:
384,128,100498,1,0,0:0:0:0:
128,384,100560,1,0,0:0:0:0:
384,224,100560,1,0,0:0:0:0:
384,224,100560,1,0,0:0:0:0:
416,256,100560,1,0,0:0:0:0:
160,192,100560,1,0,0:0:0:0:
160,224,100623,1,0,0:0:0:0:
224,224,100623,1,0,0:0:0:0:
192,160,100623,1,0,0:0:0:0:
224,224,100623,1,0,0:0:0:0:
128,192,100685,1,0,0:0:0:0:
128,192,100685,1,0,0:0:0:0:
384,128,100748,1,0,0:0:0:0:
352,32,100748,1,0,0:0:0:0:
256,32,100810,1,0,0:0:0:0:
256,32,100810,1,0,0:0:0:0:
160,224,100810,1,0,0:0:0:0:
224,160,100810,1,0,0:0:0:0:
256,256,100873,1,0,0:0:0:0:
160,224,100935,1,0,0:0:0:0:
160,224,100935,1,0,0:0:0:0:
160,352,100935,1,0,0:0:0:0:
352,32,100998,1,0,0:0:0:0:
160,0,100998,1,0,0:0:0:0:
224,128,101060,1,0,0:0:0:0:
224,128,101060,1,0,0:0:0:0:
256,256,101123,1,0,0:0:0:0:
192,160,101123,1,0,0:0:0:0:
288,160,101123,1,0,0:0:0:0:
224,128,101123,1,0,0:0:0:0:
352,352,101185,1,0,0:0:0:0:
352,352,101185,1,0,0:0:0:0:
224,160,101185,1,0,0:0:0:0:
192,352,101248,1,0,0:0:0:0:
160,0,101248,1,0,0:0:0:0:
384,224,101248,1,0,0:0:0:0:
160,192,101310,1,0,0:0:0:0:
160,192,101310,1,0,0:0:0:0:
224,160,101310,1,0,0:0:0:0:
224,160,101310,1,0,0:0:0:0:
288,160,101373,1,0,0:0:0:0:
256,256,101373,1,0,0:0:0:0:
128,192,101373,1,0,0:0:0:0:
288,352,101435,1,0,0:0:0:0:
160,352,101435,1,0,0:0:0:0:
384,128,101435,1,0,0:0:0:0:
384,128,101435,1,0,0:0:0:0:
192,352,101435,1,0,0:0:0:0:
448,96,101498,1,0,0:0:0:0:
256,32,101498,1,0,0:0:0:0:
160,224,101560,1,0,0:0:0:0:
160,224,101560,1,0,0:0:0:0:
224,64,101560,1,0,0:0:0:0:
256,256,101623,1,0,0:0:0:0:
256,192,101623,1,0,0:0:0:0:
160,224,101623,1,0,0:0:0:0:
224,160,101685,1,0,0:0:0:0:
224,160,101685,1,0,0:0:0:0:
352,32,101685,1,0,0:0:0:0:
352,32,101685,1,0,0:0:0:0:
448,96,101748,1,0,0:0:0:0:
128,384,101748,1,0,0:0:0:0:
224,128,101748,1,0,0:0:0:0:
224,160,101810,1,0,0:0:0:0:
224,192,101810,1,0,0:0:0:0:
256,256,101810,1,0,0:0:0:0:
256,256,101810,1,0,0:0:0:0:
256,192,101810,1,0,0:0:0:0:
224,224,101810,1,0,0:0:0:0:
224,256,101873,1,0,0:0:0:0:
352,352,101873,1,0,0:0:0:0:
288,352,101873,1,0,0:0:0:0:
160,0,101935,1,0,0:0:0:0:
160,0,101935,1,0,0:0:0:0:
128,384,101935,1,0,0:0:0:0:
416,128,101998,1,0,0:0:0:0:
160,192,101998,1,0,0:0:0:0:
224,64,102060,1,0,0:0:0:0:
288,160,102060,1,0,0:0:0:0:
288,160,102060,1,0,0:0:0:0:
224,224,102060,1,0,0:0:0:0:
256,256,102060,1,0,0:0:0:0:
224,160,102123,1,0,0:0:0:0:
384,128,102123,1,0,0:0:0:0:
192,352,102185,1,0,0:0:0:0:
192,352,102185,1,0,0:0:0:0:
448,128,102185,1,0,0:0:0:0:
160,224,102248,1,0,0:0:0:0:
224,192,102248,1,0,0:0:0:0:
192,160,102310,1,0,0:0:0:0:
256,256,102310,1,0,0:0:0:0:
256,256,102310,1,0,0:0:0:0:
224,224,102310,1,0,0:0:0:0:
352,32,102373,1,0,0:0:0:0:
448,96,102435,1,0,0:0:0:0:
448,96,102435,1,0,0:0:0:0:
416,256,102435,1,0,0:0:0:0:
224,160,102498,1,0,0:0:0:0:
256,256,102498,1,0,0:0:0:0:
192,160,102560,1,0,0:0:0:0:
224,224,102560,1,0,0:0:0:0:
256,192,102560,1,0,0:0:0:0:
256,192,102560,1,0,0:0:0:0:
160,352,102623,1,0,0:0:0:0:
160,0,102685,1,0,0:0:0:0:
128,384,102685,1,0,0:0:0:0:
128,384,102685,1,0,0:0:0:0:
224,160,102748,1,0,0:0:0:0:
288,160,102748,1,0,0:0:0:0:
224,224,102810,1,0,0:0:0:0:
224,224,102810,1,0,0:0:0:0:
160,352,102873,1,0,0:0:0:0:
224,160,102873,1,0,0:0:0:0:
192,352,102873,1,0,0:0:0:0:
224,160,102998,1,0,0:0:0:0:
256,256,102998,1,0,0:0:0:0:
224,128,103060,1,0,0:0:0:0:
288,352,103060,1,0,0:0:0:0:
224,160,103123,1,0,0:0:0:0:
384,224,103123,1,0,0:0:0:0:
448,96,103123,1,0,0:0:0:0:
224,160,103185,1,0,0:0:0:0:
224,64,103248,1,0,0:0:0:0:
192,160,103248,1,0,0:0:0:0:
192,160,103248,1,0,0:0:0:0:
256,192,103248,1,0,0:0:0:0:
128,192,103310,1,0,0:0:0:0:
288,352,103310,1,0,0:0:0:0:
224,160,103310,1,0,0:0:0:0:
128,384,103373,1,0,0:0:0:0:
256,32,103373,1,0,0:0:0:0:
224,160,103435,1,0,0:0:0:0:
224,160,103435,1,0,0:0:0:0:
224,64,103435,1,0,0:0:0:0:
224,192,103435,1,0,0:0:0:0:
224,224,103498,1,0,0:0:0:0:
160,224,103498,1,0,0:0:0:0:
224,160,103560,1,0,0:0:0:0:
160,352,103560,1,0,0:0:0:0:
160,352,103560,1,0,0:0:0:0:
224,128,103623,1,0,0:0:0:0:
224,192,103685,1,0,0:0:0:0:
352,352,103748,1,0,0:0:0:0:
224,160,103810,1,0,0:0:0:0:
224,160,103810,1,0,0:0:0:0:
160,192,103935,1,0,0:0:0:0:
224,160,103935,1,0,0:0:0:0:
224,160,103935,1,0,0:0:0:0:
192,160,103935,1,0,0:0:0:0:
288,352,104060,1,0,0:0:0:0:
288,352,104060,1,0,0:0:0:0:
384,128,104060,1,0,0:0:0:0:
160,224,104123,1,0,0:0:0:0:
224,160,104185,1,0,0:0:0:0:
224,64,104185,1,0,0:0:0:0:
224,64,104185,1,0,0:0:0:0:
160,352,104248,1,0,0:0:0:0:
224,160,104248,1,0,0:0:0:0:
224,160,104248,1,0,0:0:0:0:
352,32,104310,1,0,0:0:0:0:
224,192,104435,1,0,0:0:0:0:
256,256,104435,1,0,0:0:0:0:
224,192,104435,1,0,0:0:0:0:
224,160,104498,1,0,0:0:0:0:
160,0,104560,1,0,0:0:0:0:
224,160,104623,1,0,0:0:0:0:
288,160,104685,1,0,0:0:0:0:
288,352,104748,1,0,0:0:0:0:
192,352,104748,1,0,0:0:0:0:
224,64,104873,1,0,0:0:0:0:
256,256,104935,1,0,0:0:0:0:
224,160,104998,1,0,0:0:0:0:
448,96,105060,1,0,0:0:0:0:
224,192,105123,1,0,0:0:0:0:
256,192,105123,1,0,0:0:0:0:
128,384,105248,1,0,0:0:0:0:
224,224,105373,1,0,0:0:0:0:
224,256,105435,1,0,0:0:0:0:
416,128,105560,1,0,0:0:0:0:
256,256,105623,1,0,0:0:0:0:
448,128,105748,1,0,0:0:0:0:
192,160,105873,1,0,0:0:0:0:
224,224,105873,1,0,0:0:0:0:
416,256,105998,1,0,0:0:0:0:
224,160,106060,1,0,0:0:0:0:
224,224,106123,1,0,0:0:0:0:
160,128,106123,1,0,0:0:0:0:
160,128,106123,1,0,0:0:0:0:
160,128,106123,1,0,0:0:0:0:
192,128,106123,1,0,0:0:0:0:
224,128,106185,1,0,0:0:0:0:
160,352,106185,1,0,0:0:0:0:
224,128,106185,1,0,0:0:0:0:
224,128,106185,1,0,0:0:0:0:
224,160,106185,1,0,0:0:0:0:
256,192,106248,1,0,0:0:0:0:
224,224,106248,1,0,0:0:0:0:
256,256,106248,1,0,0:0:0:0:
256,256,106310,1,0,0:0:0:0:
256,256,106310,1,0,0:0:0:0:
288,224,106310,1,0,0:0:0:0:
320,224,106310,1,0,0:0:0:0:
352,256,106310,1,0,0:0:0:0:
352,224,106373,1,0,0:0:0:0:
352,224,106373,1,0,0:0:0:0:
352,192,106373,1,0,0:0:0:0:
352,192,106373,1,0,0:0:0:0:
352,192,106373,1,0,0:0:0:0:
384,192,106373,1,0,0:0:0:0:
384,192,106435,1,0,0:0:0:0:
384,192,106435,1,0,0:0:0:0:
224,160,106435,1,0,0:0:0:0:
384,192,106435,1,0,0:0:0:0:
384,224,106435,1,0,0:0:0:0:
384,256,106435,1,0,0:0:0:0:
416,256,106498,1,0,0:0:0:0:
416,256,106498,1,0,0:0:0:0:
416,224,106498,1,0,0:0:0:0:
416,192,106498,1,0,0:0:0:0:
416,160,106498,1,0,0:0:0:0:
224,160,106498,1,0,0:0:0:0:
384,128,106560,1,0,0:0:0:0:
352,128,106560,1,0,0:0:0:0:
320,160,106560,1,0,0:0:0:0:
288,160,106623,1,0,0:0:0:0:
288,160,106623,1,0,0:0:0:0:
224,256,106623,1,0,0:0:0:0:
288,160,106623,1,0,0:0:0:0:
288,160,106623,1,0,0:0:0:0:
288,128,106623,1,0,0:0:0:0:
288,352,106623,1,0,0:0:0:0:
288,96,106623,1,0,0:0:0:0:
256,96,106685,1,0,0:0:0:0:
224,96,106685,1,0,0:0:0:0:
192,96,106685,1,0,0:0:0:0:
160,96,106685,1,0,0:0:0:0:
128,96,106748,1,0,0:0:0:0:
416,128,106748,1,0,0:0:0:0:
128,128,106748,1,0,0:0:0:0:
96,160,106748,1,0,0:0:0:0:
96,192,106748,1,0,0:0:0:0:
224,64,106810,1,0,0:0:0:0:
128,224,106810,1,0,0:0:0:0:
160,256,106810,1,0,0:0:0:0:
192,288,106810,1,0,0:0:0:0:
256,256,106810,1,0,0:0:0:0:
224,320,106810,1,0,0:0:0:0:
128,192,106810,1,0,0:0:0:0:
256,320,106873,1,0,0:0:0:0:
288,288,106873,1,0,0:0:0:0:
256,256,106873,1,0,0:0:0:0:
224,160,106873,1,0,0:0:0:0:
448,128,106935,1,0,0:0:0:0:
256,32,106935,1,0,0:0:0:0:
224,192,106998,1,0,0:0:0:0:
224,224,107060,1,0,0:0:0:0:
416,256,107185,1,0,0:0:0:0:
192,96,107185,1,0,0:0:0:0:
224,128,107185,1,0,0:0:0:0:
224,224,107310,1,0,0:0:0:0:
352,352,107310,1,0,0:0:0:0:
128,192,107435,1,0,0:0:0:0:
128,192,107435,1,0,0:0:0:0:
160,192,107435,1,0,0:0:0:0:
288,128,107498,1,0,0:0:0:0:
288,128,107498,1,0,0:0:0:0:
384,128,107623,1,0,0:0:0:0:
64,256,107623,1,0,0:0:0:0:
64,256,107623,1,0,0:0:0:0:
160,224,107685,1,0,0:0:0:0:
256,192,107748,1,0,0:0:0:0:
256,192,107748,1,0,0:0:0:0:
224,128,107810,1,0,0:0:0:0:
352,32,107873,1,0,0:0:0:0:
384,320,107873,1,0,0:0:0:0:
384,320,107873,1,0,0:0:0:0:
384,224,107873,1,0,0:0:0:0:
256,256,107998,1,0,0:0:0:0:
224,192,107998,1,0,0:0:0:0:
224,192,107998,1,0,0:0:0:0:
128,192,108060,1,0,0:0:0:0:
448,256,108123,1,0,0:0:0:0:
448,256,108123,1,0,0:0:0:0:
160,0,108123,1,0,0:0:0:0:
256,32,108123,1,0,0:0:0:0:
256,128,108248,1,0,0:0:0:0:
288,160,108248,1,0,0:0:0:0:
256,128,108248,1,0,0:0:0:0:
160,224,108248,1,0,0:0:0:0:
192,352,108310,1,0,0:0:0:0:
128,192,108373,1,0,0:0:0:0:
128,192,108373,1,0,0:0:0:0:
224,128,108373,1,0,0:0:0:0:
320,288,108435,1,0,0:0:0:0:
320,288,108435,1,0,0:0:0:0:
256,256,108498,1,0,0:0:0:0:
352,352,108498,1,0,0:0:0:0:
160,128,108560,1,0,0:0:0:0:
160,128,108560,1,0,0:0:0:0:
448,96,108623,1,0,0:0:0:0:
160,192,108623,1,0,0:0:0:0:
256,192,108685,1,0,0:0:0:0:
384,288,108748,1,0,0:0:0:0:
384,288,108748,1,0,0:0:0:0:
384,128,108810,1,0,0:0:0:0:
224,320,108810,1,0,0:0:0:0:
224,320,108810,1,0,0:0:0:0:
128,384,108810,1,0,0:0:0:0:
160,224,108873,1,0,0:0:0:0:
192,96,108935,1,0,0:0:0:0:
192,96,108935,1,0,0:0:0:0:
224,224,108935,1,0,0:0:0:0:
352,32,109060,1,0,0:0:0:0:
64,320,109060,1,0,0:0:0:0:
64,320,109060,1,0,0:0:0:0:
256,256,109185,1,0,0:0:0:0:
160,0,109310,1,0,0:0:0:0:
288,160,109435,1,0,0:0:0:0:
192,160,109435,1,0,0:0:0:0:
192,352,109498,1,0,0:0:0:0:
224,160,109623,1,0,0:0:0:0:
256,256,109685,1,0,0:0:0:0:
160,352,109748,1,0,0:0:0:0:
448,96,109810,1,0,0:0:0:0:
256,192,109873,1,0,0:0:0:0:
224,160,109998,1,0,0:0:0:0:
128,384,109998,1,0,0:0:0:0:
224,160,110060,1,0,0:0:0:0:
224,224,110123,1,0,0:0:0:0:
288,352,110185,1,0,0:0:0:0:
224,64,110310,1,0,0:0:0:0:
224,160,110435,1,0,0:0:0:0:
224,192,110560,1,0,0:0:0:0:
192,160,110623,1,0,0:0:0:0:
224,160,110810,1,0,0:0:0:0:
