osu file format v4

[General]
AudioFilename: 2-03 What A Fool Believes.mp3
AudioLeadIn: 1977
AudioHash: e87828f1ad7c569adda6351fc8fe2b65
PreviewTime: -1
SampleSet: Normal

[Metadata]
Title:What A Fool Believes
Artist:The Doobie Brothers
Creator:Maythius
Version:Normal

[Difficulty]
HPDrainRate:5
CircleSize:5
OverallDifficulty:5
SliderMultiplier: 1.4
SliderTickRate: 1

[Events]
2,33590,48190
2,62266,69491
2,103899,109374
2,126524,146874
3,0,255,255,255

[TimingPoints]
1260,501.446434840759,4,1,0

[HitObjects]
224,320,1197,2,0,B|224:320|160:160,1,157.5
320,160,2200,2,0,B|320:160|160:160,1,157.5
224,288,2952,2,0,B|224:288|384:128,1,210
224,224,4205,5,2,
224,160,4456,1,2,
224,96,4707,1,2,
224,32,5208,6,0,B|224:32|64:32,1,157.5
32,96,5961,1,0,
96,128,6211,2,0,B|96:128|256:128,1,157.5
256,192,7026,1,0,
160,128,8029,5,2,
160,128,8280,1,2,
352,128,8781,1,2,
256,96,9220,6,0,B|256:96|256:256,1,157.5
256,256,10035,1,0,
256,320,10286,2,0,B|256:320|352:192,1,157.5
352,128,11100,1,0,
256,192,12103,12,4,15363
256,160,16616,1,0,
256,160,16867,1,0,
256,160,17055,1,0,
256,160,17306,2,0,B|256:160|320:96|384:160,1,140
352,224,18309,5,0,
352,160,18559,1,2,
288,192,18810,1,0,
224,160,19061,1,2,
224,224,19312,1,0,
224,224,19562,1,2,
160,192,21317,6,0,B|160:192|208:203|320:192,1,157.5
320,128,22070,1,0,
320,128,22320,2,0,B|320:128|255:93|160:128,1,157.5
256,96,23135,5,0,
256,160,23386,2,0,B|256:160|256:288,1,122.5
352,320,24389,1,2,
352,192,24890,1,2,
352,64,25392,1,2,
96,128,27147,6,0,B|96:128|224:0|352:128,1,280
224,160,28400,1,0,
224,160,28902,1,2,
160,128,30406,5,0,
160,128,31158,2,0,B|160:128|256:96|352:128,1,192.5
416,160,32098,1,0,
352,192,32349,2,2,B|352:192|320:224|288:192,1,70
224,192,32851,2,2,B|224:192|192:224|160:192,1,70
96,192,33415,1,6,
64,192,49273,6,0,B|64:192|267:24|416:288,1,420
256,128,51341,1,0,
256,288,51843,1,0,
256,288,52094,1,2,
64,96,53347,6,0,B|64:96|96:224|288:256,1,280
416,192,55102,1,2,
352,128,55353,2,0,B|352:128|222:76|64:160,1,280
256,352,57359,6,0,B|256:352|256:64,1,280
256,128,58612,1,4,
256,192,58863,1,0,
256,256,59114,1,4,
256,320,59365,2,2,B|256:320|131:185|192:64,1,280
192,192,60806,5,0,
320,192,61308,1,0,
256,128,61809,1,0,
256,128,62060,1,0,
256,192,70647,5,4,
256,32,71149,1,0,
96,192,71650,1,2,
416,192,72151,1,0,
256,352,72590,1,2,
256,192,73092,5,4,
128,320,73593,1,2,
128,64,74095,1,0,
416,64,74659,1,2,
416,320,75097,2,6,B|416:320|364:112|224:320,1,280
256,288,76602,5,0,
256,192,77103,1,2,
256,96,77605,1,2,
256,192,78232,12,0,80049
32,192,82243,1,0,
32,192,82494,1,0,
32,192,82995,2,4,B|32:192|166:56|416:224,1,402.5
256,320,84688,5,2,
256,320,84938,1,2,
256,256,85440,1,0,
320,224,85941,1,0,
192,224,86443,1,2,
192,224,86693,1,2,
256,160,87446,2,0,B|256:160|0:32|408:52|692:-33|32:352,1,805
256,192,92335,5,2,
448,288,92836,1,0,
384,256,93087,1,0,
320,224,93338,1,0,
256,192,93589,1,2,
128,256,94779,6,0,B|128:256|45:308|64:128|469:7|256:224,2,420
256,288,98289,1,0,
352,288,98791,6,0,B|352:288|352:96|160:160|128:288,1,350
256,64,100483,1,0,
192,128,100671,2,0,B|192:128|352:128,1,157.5
320,192,101674,2,0,B|320:192|160:192,1,157.5
64,192,102677,1,0,
256,192,103680,1,6,
192,192,110575,5,0,
192,192,111014,2,0,B|192:192|229:48|352:128,1,210
160,128,112267,1,0,
512,128,112769,2,0,B|512:128|480:224|256:256,1,280
192,256,114022,1,0,
192,256,114273,1,0,
96,256,114524,2,0,B|96:256|-64:128|416:32,2,472.5
256,192,118473,1,6,
128,96,119413,6,0,B|128:96|416:96,1,280
256,128,120917,2,0,B|256:128|256:352,1,210
256,288,122421,1,0,
256,224,122860,1,0,
256,224,123111,1,0,
256,224,123362,1,0,
160,224,124114,1,0,
96,192,124615,5,0,
96,128,124866,1,0,
96,64,125117,1,0,
160,64,125305,2,4,B|160:64|208:-10|352:96,1,210
352,160,126370,1,2,
192,96,148058,5,0,
192,96,148246,1,0,
320,96,148497,1,2,
256,128,148998,1,0,
192,192,149500,5,2,
320,192,150001,1,0,
320,192,150252,1,0,
320,192,150502,1,2,
224,192,150753,2,6,B|224:192|192:64|96:32,1,210
64,64,152007,5,0,
64,64,152195,1,0,
128,96,152446,1,2,
192,128,152947,1,0,
192,224,153448,5,2,
320,224,153950,1,0,
320,224,154201,1,0,
256,192,154451,1,2,
256,192,155517,12,4,156959
352,192,157899,1,0,
352,192,158150,1,2,
256,192,158401,1,2,
160,192,158651,1,6,
256,192,159090,12,0,161346
256,96,162349,1,0,
128,192,162851,1,0,
224,192,163352,1,2,
288,192,163603,1,2,
384,192,164104,1,6,
256,192,164856,12,4,170435
