osu file format v12

[General]
AudioFilename: happytheme.ogg
AudioLeadIn: 0
PreviewTime: 77126
Countdown: 2
SampleSet: Normal
StackLeniency: 0.2
Mode: 0
LetterboxInBreaks: 1

[Editor]
Bookmarks: 10676,21324,31986,42648,53323,64221,74633,77298,98616
DistanceSpacing: 0.8
BeatDivisor: 2
GridSize: 16

[Metadata]
Title:Happy Theme (Trancebound Remix)
TitleUnicode:Happy Theme (Trancebound Remix)
Artist:The Cynic Project
ArtistUnicode:The Cynic Project
Creator:GabrielRKF
Version:Heavy
Source:Mixed And Remixed Volume 3
Tags:trance
BeatmapID:236693
BeatmapSetID:86406

[Difficulty]
HPDrainRate:7
CircleSize:4
OverallDifficulty:8
ApproachRate:8
SliderMultiplier:2
SliderTickRate:1

[Events]
//Background and Video events
0,0,"background.jpg",1,1
//Break Periods
2,21518,31230
//Storyboard Layer 0 (Background)
//Storyboard Layer 1 (Fail)
//Storyboard Layer 2 (Pass)
//Storyboard Layer 3 (Foreground)
//Storyboard Sound Samples
//Background Colour Transformations
3,100,0,0,0

[TimingPoints]
-5,333.18064516129,4,2,1,100,1,0
30653,-100,4,2,0,100,0,0
42564,-100,4,1,1,100,0,0
42642,-100,4,1,1,100,0,1
42808,-100,4,1,1,100,0,0
53309,-100,4,1,1,100,0,1
53476,-100,4,1,1,100,0,0
77298,-100,4,1,1,100,0,1
98616,-100,4,1,1,100,0,0

[Colours]
Combo1 : 255,255,255
Combo2 : 255,89,89
Combo3 : 255,255,0
Combo4 : 78,88,224

[HitObjects]
96,48,10656,5,0,0:0:0:0:
256,48,10989,1,8,0:0:0:0:
416,48,11323,2,0,B|496:48|496:48|496:128,2,150,0|0|0,0:0|0:0|0:0,0:0:0:0:
416,128,11989,5,0,0:0:0:0:
256,128,12322,1,8,0:0:0:0:
96,128,12655,1,0,0:0:0:0:
96,128,12822,1,0,0:0:0:0:
24,168,12989,1,0,0:0:0:0:
24,168,13155,1,0,0:0:0:0:
96,208,13322,5,0,0:0:0:0:
256,208,13655,1,8,0:0:0:0:
416,208,13988,2,0,B|496:208|496:208|496:288,2,150
416,288,14654,5,0,0:0:0:0:
256,288,14987,1,8,0:0:0:0:
96,288,15321,1,0,0:0:0:0:
96,288,15487,1,0,0:0:0:0:
32,328,15654,1,0,0:0:0:0:
32,328,15821,1,0,0:0:0:0:
96,368,15987,5,0,0:0:0:0:
96,208,16320,1,8,0:0:0:0:
96,48,16654,2,0,B|176:48|176:48|176:128,2,150
96,128,17320,5,0,0:0:0:0:
256,128,17653,1,8,0:0:0:0:
416,128,17986,1,0,0:0:0:0:
464,192,18153,1,0,0:0:0:0:
464,224,18236,1,0,0:0:0:0:
464,256,18319,1,0,0:0:0:0:
416,320,18486,1,0,0:0:0:0:
336,320,18653,5,0,0:0:0:0:
256,176,18986,1,8,0:0:0:0:
176,320,19319,2,0,B|120:272|120:272|56:320,2,150
256,352,19985,5,0,0:0:0:0:
256,192,20319,1,8,0:0:0:0:
320,48,20652,2,0,B|256:8|256:8|192:48,2,150
256,96,21318,1,4,0:0:0:0:
480,32,31980,5,0,0:0:0:0:
32,64,32313,1,8,0:0:0:0:
480,96,32646,1,0,0:0:0:0:
32,128,32979,1,8,0:0:0:0:
256,144,33146,1,0,0:0:0:0:
480,160,33313,1,0,0:0:0:0:
32,192,33646,1,8,0:0:0:0:
480,224,33979,5,4,0:0:0:0:
368,272,34229,1,0,0:0:0:0:
480,320,34479,1,4,0:0:0:0:
416,368,34645,5,0,0:0:0:0:
384,16,34978,1,8,0:0:0:0:
352,368,35311,1,0,0:0:0:0:
320,16,35644,1,8,0:0:0:0:
304,192,35811,1,0,0:0:0:0:
288,368,35978,1,0,0:0:0:0:
256,16,36311,1,8,0:0:0:0:
224,368,36644,5,4,0:0:0:0:
160,272,36894,1,0,0:0:0:0:
80,368,37144,1,4,0:0:0:0:
32,304,37311,5,0,0:0:0:0:
480,272,37644,1,8,0:0:0:0:
32,240,37977,1,0,0:0:0:0:
480,208,38310,1,8,0:0:0:0:
256,192,38477,1,0,0:0:0:0:
32,176,38644,1,0,0:0:0:0:
480,144,38977,1,8,0:0:0:0:
32,112,39310,5,4,0:0:0:0:
112,32,39560,1,0,0:0:0:0:
192,112,39810,1,4,0:0:0:0:
256,64,39976,5,0,0:0:0:0:
352,320,40310,1,8,0:0:0:0:
128,176,40642,1,0,0:0:0:0:
384,176,40975,1,8,0:0:0:0:
384,176,41142,1,0,0:0:0:0:
384,176,41309,1,0,0:0:0:0:
176,320,41642,1,8,0:0:0:0:
256,200,41975,5,4,0:0:0:0:
256,200,42225,1,0,0:0:0:0:
256,200,42475,1,4,0:0:0:0:
256,112,42642,5,0,0:0:0:0:
192,64,42808,1,0,0:0:0:0:
128,16,42975,1,8,0:0:0:0:
64,64,43141,1,0,0:0:0:0:
0,112,43308,2,0,B|0:224,1,100
80,208,43641,2,0,B|80:336,1,100,8|8,0:0|0:0,0:0:0:0:
160,336,43974,5,0,0:0:0:0:
224,288,44141,1,0,0:0:0:0:
288,240,44308,1,8,0:0:0:0:
352,288,44474,1,0,0:0:0:0:
416,240,44641,2,0,B|496:320,2,100,0|8|8,0:0|0:0|0:0,0:0:0:0:
416,160,45140,1,0,0:0:0:0:
416,80,45307,5,0,0:0:0:0:
416,80,45474,1,0,0:0:0:0:
352,128,45640,1,8,0:0:0:0:
352,128,45807,1,0,0:0:0:0:
288,80,45973,1,0,0:0:0:0:
288,80,46140,1,0,0:0:0:0:
224,128,46307,1,8,0:0:0:0:
224,128,46473,1,8,0:0:0:0:
160,176,46640,6,0,B|160:304,1,100
352,280,46973,2,0,B|352:168,1,100,8|0,0:0|0:0,0:0:0:0:
256,184,47306,1,0,0:0:0:0:
256,272,47473,5,8,0:0:0:0:
256,272,47639,1,8,0:0:0:0:
256,272,47806,1,0,0:0:0:0:
48,336,47973,5,0,0:0:0:0:
112,288,48139,1,0,0:0:0:0:
48,240,48306,2,0,B|48:128,1,100,8|0,0:0|0:0,0:0:0:0:
128,160,48639,2,0,B|160:48,1,100
224,128,48972,2,8,B|320:48,1,100
320,160,49305,2,0,B|432:144,1,100
400,224,49638,2,0,B|496:256,1,100,8|0,0:0|0:0,0:0:0:0:
448,320,49972,5,0,0:0:0:0:
368,320,50138,1,8,0:0:0:0:
288,320,50305,1,8,0:0:0:0:
208,320,50471,1,0,0:0:0:0:
128,320,50638,5,0,0:0:0:0:
272,32,50971,1,8,0:0:0:0:
464,224,51304,5,0,0:0:0:0:
32,128,51637,1,8,0:0:0:0:
448,80,51971,5,0,0:0:0:0:
48,256,52304,1,8,0:0:0:0:
288,336,52637,5,0,0:0:0:0:
368,112,52970,1,12,0:0:0:0:
128,48,53303,5,2,0:0:0:0:
128,48,53637,1,2,0:0:0:0:
128,48,53970,1,0,0:0:0:0:
128,48,54136,1,0,0:0:0:0:
128,48,54470,1,0,0:0:0:0:
128,48,54803,1,2,0:0:0:0:
128,48,55136,1,2,0:0:0:0:
128,48,55469,1,0,0:0:0:0:
208,80,55636,1,4,0:0:0:0:
288,112,55802,1,4,0:0:0:0:
368,144,55969,5,2,0:0:0:0:
368,144,56302,1,2,0:0:0:0:
368,144,56635,1,0,0:0:0:0:
368,144,56802,1,0,0:0:0:0:
368,144,57135,1,0,0:0:0:0:
368,144,57468,1,2,0:0:0:0:
368,144,57801,1,2,0:0:0:0:
368,144,58135,1,0,0:0:0:0:
320,208,58301,1,4,0:0:0:0:
272,272,58468,1,4,0:0:0:0:
224,336,58634,5,2,0:0:0:0:
224,336,58967,1,2,0:0:0:0:
224,336,59301,1,0,0:0:0:0:
224,336,59467,1,0,0:0:0:0:
224,336,59800,1,0,0:0:0:0:
224,336,60134,1,2,0:0:0:0:
224,336,60467,1,2,0:0:0:0:
224,336,60800,1,0,0:0:0:0:
176,272,60967,1,4,0:0:0:0:
128,208,61133,1,4,0:0:0:0:
80,144,61300,5,2,0:0:0:0:
80,144,61633,1,2,0:0:0:0:
80,144,61966,1,0,0:0:0:0:
160,128,62133,1,4,0:0:0:0:
240,112,62299,1,4,0:0:0:0:
320,96,62466,5,2,0:0:0:0:
320,96,62799,1,2,0:0:0:0:
320,96,63132,1,0,0:0:0:0:
320,96,63465,1,0,0:0:0:0:
368,160,63632,1,4,0:0:0:0:
416,224,63799,1,4,0:0:0:0:
464,288,63965,1,0,0:0:0:0:
352,352,64215,5,0,0:0:0:0:
320,320,64298,1,8,0:0:0:0:
208,320,64548,1,0,0:0:0:0:
176,352,64632,1,0,0:0:0:0:
64,352,64881,1,0,0:0:0:0:
32,320,64965,1,8,0:0:0:0:
32,208,65215,5,0,0:0:0:0:
64,176,65298,1,0,0:0:0:0:
176,176,65548,1,0,0:0:0:0:
208,208,65631,1,8,0:0:0:0:
320,208,65881,1,0,0:0:0:0:
352,176,65964,1,0,0:0:0:0:
384,96,66131,6,0,B|496:96,2,100,0|8|0,0:0|0:0|0:0,0:0:0:0:
336,32,66631,1,0,0:0:0:0:
208,32,66881,5,0,0:0:0:0:
176,32,66964,1,8,0:0:0:0:
64,96,67214,1,0,0:0:0:0:
96,96,67297,1,0,0:0:0:0:
208,160,67547,1,0,0:0:0:0:
176,160,67630,1,8,0:0:0:0:
64,224,67880,5,0,0:0:0:0:
96,224,67963,1,0,0:0:0:0:
208,288,68213,1,0,0:0:0:0:
176,288,68297,1,8,0:0:0:0:
64,352,68546,1,0,0:0:0:0:
96,352,68630,1,0,0:0:0:0:
176,368,68796,5,0,0:0:0:0:
256,368,68963,1,8,0:0:0:0:
336,368,69129,1,0,0:0:0:0:
416,368,69296,1,0,0:0:0:0:
480,272,69546,6,0,B|480:208,1,50,0|8,0:0|0:0,0:0:0:0:
480,32,69879,2,0,B|480:96,1,50
400,304,70212,2,0,B|400:240,1,50,0|8,0:0|0:0,0:0:0:0:
400,64,70546,2,0,B|400:144,1,50
320,272,70879,2,0,B|320:192,1,50,0|8,0:0|0:0,0:0:0:0:
320,32,71212,2,8,B|320:96,1,50,0|0,0:0|0:0,0:0:0:0:
272,144,71462,5,0,0:0:0:0:
224,80,71628,1,8,0:0:0:0:
176,16,71795,1,0,0:0:0:0:
96,16,71962,1,0,0:0:0:0:
96,128,72211,1,0,0:0:0:0:
64,160,72295,1,8,0:0:0:0:
64,272,72545,1,0,0:0:0:0:
96,304,72628,5,0,0:0:0:0:
144,368,72794,1,0,0:0:0:0:
224,368,72961,1,8,0:0:0:0:
304,368,73128,1,0,0:0:0:0:
304,208,73461,5,0,0:0:0:0:
304,208,73544,1,0,0:0:0:0:
304,208,73627,1,8,0:0:0:0:
368,160,73794,1,0,0:0:0:0:
432,112,73961,1,0,0:0:0:0:
496,64,74127,5,4,0:0:0:0:
336,64,74294,1,4,0:0:0:0:
176,64,74460,1,4,0:0:0:0:
16,64,74627,1,4,0:0:0:0:
256,192,74794,12,0,76959,0:0:0:0:
256,320,77292,5,0,0:0:0:0:
192,272,77459,1,0,0:0:0:0:
256,224,77626,2,0,B|368:224,1,100,8|0,0:0|0:0,0:0:0:0:
416,176,77959,1,0,0:0:0:0:
480,128,78125,1,0,0:0:0:0:
464,48,78292,1,8,0:0:0:0:
400,96,78459,1,8,0:0:0:0:
336,48,78625,6,0,B|224:48,1,100
256,128,78958,2,0,B|128:128,1,100,8|0,0:0|0:0,0:0:0:0:
80,128,79291,1,0,0:0:0:0:
64,160,79375,1,0,0:0:0:0:
48,192,79458,1,8,0:0:0:0:
64,224,79541,1,0,0:0:0:0:
80,256,79625,1,8,0:0:0:0:
80,336,79791,1,0,0:0:0:0:
160,352,79958,6,0,B|240:272,1,100
176,224,80291,1,8,0:0:0:0:
224,160,80458,1,0,0:0:0:0:
288,208,80624,2,0,B|400:208,1,100
368,128,80957,2,8,B|480:128,1,100
480,208,81291,1,0,0:0:0:0:
432,272,81457,1,0,0:0:0:0:
480,336,81624,1,8,0:0:0:0:
400,352,81790,1,0,0:0:0:0:
336,304,81957,5,0,0:0:0:0:
336,304,82040,1,0,0:0:0:0:
336,304,82124,1,8,0:0:0:0:
272,352,82290,1,8,0:0:0:0:
272,352,82373,1,0,0:0:0:0:
272,352,82457,1,0,0:0:0:0:
208,304,82623,5,0,0:0:0:0:
208,224,82790,1,0,0:0:0:0:
208,144,82956,1,8,0:0:0:0:
208,64,83123,1,0,0:0:0:0:
128,64,83290,1,0,0:0:0:0:
128,144,83456,1,0,0:0:0:0:
128,224,83623,1,8,0:0:0:0:
128,304,83789,1,8,0:0:0:0:
48,304,83956,5,0,0:0:0:0:
48,224,84123,1,0,0:0:0:0:
48,144,84289,1,8,0:0:0:0:
48,64,84456,1,0,0:0:0:0:
128,32,84622,2,0,B|192:32,2,50,0|0|8,0:0|0:0|0:0,0:0:0:0:
160,112,84956,2,0,B|208:160,2,50,8|0|0,0:0|0:0|0:0,0:0:0:0:
128,192,85289,6,0,B|224:288,3,100,0|0|8|0,0:0|0:0|0:0|0:0,0:0:0:0:
256,320,85955,2,0,B|336:240,3,100,0|0|8|8,0:0|0:0|0:0|0:0,0:0:0:0:
352,176,86621,2,0,B|224:176,3,100,0|0|8|0,0:0|0:0|0:0|0:0,0:0:0:0:
192,128,87288,6,0,B|144:176|192:240,1,100,0|8,0:0|0:0,0:0:0:0:
224,288,87621,1,8,0:0:0:0:
240,304,87704,1,0,0:0:0:0:
256,320,87788,1,0,0:0:0:0:
336,320,87954,5,0,0:0:0:0:
336,320,88121,1,0,0:0:0:0:
400,272,88287,1,8,0:0:0:0:
400,272,88454,1,0,0:0:0:0:
464,224,88621,1,0,0:0:0:0:
464,224,88787,1,0,0:0:0:0:
400,176,88954,1,8,0:0:0:0:
400,176,89120,1,8,0:0:0:0:
336,128,89287,1,0,0:0:0:0:
336,128,89454,1,0,0:0:0:0:
272,176,89620,1,8,0:0:0:0:
272,176,89787,1,0,0:0:0:0:
208,224,89953,5,0,0:0:0:0:
208,224,90037,1,0,0:0:0:0:
208,224,90120,1,8,0:0:0:0:
272,272,90286,1,8,0:0:0:0:
272,272,90370,1,0,0:0:0:0:
272,272,90453,1,0,0:0:0:0:
352,272,90620,6,0,B|432:192,1,100
480,144,90953,1,8,0:0:0:0:
432,80,91119,1,0,0:0:0:0:
384,16,91286,2,0,B|272:16,3,100,0|0|8|8,0:0|0:0|0:0|0:0,0:0:0:0:
208,16,91952,6,0,B|160:64|208:112,1,100
288,96,92286,2,0,B|336:144|288:192,1,100,8|0,0:0|0:0,0:0:0:0:
208,192,92619,2,0,B|160:240|208:288,3,100,0|8|8|0,0:0|0:0|0:0|0:0,0:0:0:0:
272,336,93285,6,0,B|480:336,1,200,0|8,0:0|0:0,0:0:0:0:
472,296,93702,1,0,0:0:0:0:
472,264,93785,1,0,0:0:0:0:
472,232,93868,1,0,0:0:0:0:
472,200,93951,6,0,B|264:200,1,200,0|8,0:0|0:0,0:0:0:0:
272,160,94368,1,0,0:0:0:0:
272,120,94451,1,8,0:0:0:0:
272,80,94535,1,0,0:0:0:0:
272,40,94618,6,0,B|488:40,1,200,0|8,0:0|0:0,0:0:0:0:
472,80,95034,1,0,0:0:0:0:
472,120,95118,1,0,0:0:0:0:
472,160,95201,1,0,0:0:0:0:
472,200,95284,6,0,B|352:200,1,100,0|8,0:0|0:0,0:0:0:0:
288,200,95617,2,0,B|160:200,1,100,8|0,0:0|0:0,0:0:0:0:
104,200,95951,5,0,0:0:0:0:
384,40,96284,1,4,0:0:0:0:
456,328,96617,5,0,0:0:0:0:
200,48,96950,1,4,0:0:0:0:
160,336,97283,5,0,0:0:0:0:
448,160,97616,1,4,0:0:0:0:
72,80,97950,5,0,0:0:0:0:
304,336,98283,1,4,0:0:0:0:
256,192,98616,12,0,101281,0:0:0:0:
