osu file format v6

[General]
AudioFilename: Long Night.mp3
AudioLeadIn: 0
PreviewTime: 95501
Countdown: 0
SampleSet: Soft
StackLeniency: 0.7
Mode: 0
LetterboxInBreaks: 1
SkinPreference:Default

[Editor]
DistanceSpacing: 1.29999995231628
BeatDivisor: 4
GridSize: 8

[Metadata]
Title:Long Night
Artist:The Corrs
Creator:alvisto
Version:Long Night
Source:Borrowed Heaven
Tags:

[Difficulty]
HPDrainRate:8
CircleSize:4
OverallDifficulty:6
SliderMultiplier:1.3
SliderTickRate:1

[Events]
//Background and Video events
0,0,"the_corrs_2.jpg"
//Break Periods
2,83231,94465
2,158936,172183
//Storyboard Layer 0 (Background)
//Storyboard Layer 1 (Fail)
//Storyboard Layer 2 (Pass)
//Storyboard Layer 3 (Foreground)
//Storyboard Sound Samples
//Background Colour Transformations
3,100,163,162,255

[TimingPoints]
12965,402.684563758389,4,2,1,27,1,0
38735,-200,4,2,1,20,0,0
40749,-100,4,2,1,24,0,0
50010,-100,4,1,1,8,0,0
50514,-100,4,1,1,15,0,0
50715,-100,4,1,1,23,0,0
51104,-100,4,1,1,31,0,0
51320,-100,4,1,1,34,0,0
51823,-100,4,2,2,41,0,0
63298,-100,4,2,1,42,0,0
65010,-100,4,2,2,42,0,0
69239,-100,4,2,1,48,0,0
69943,-100,4,1,1,19,0,0
70346,-100,4,2,1,29,0,0
95816,-100,4,1,1,28,0,0
96522,-100,4,1,1,21,0,1
96622,-100,4,1,1,27,0,0
97326,-100,4,2,2,40,0,0
115850,-100,4,2,2,25,0,0
120682,-100,4,2,0,44,0,0
120884,-200,4,2,0,21,0,0
121486,-200,4,2,0,35,0,0
122444,-200,4,2,0,68,0,1
122494,-100,4,1,0,35,0,0
122695,-100,4,2,2,39,0,0
123902,-100,4,2,1,34,0,0
124305,-100,4,2,2,33,0,0
126522,-200,4,2,2,33,0,0
128937,-100,4,2,2,35,0,0
132964,-200,4,2,2,34,0,0
135279,-100,4,1,0,42,0,0
135380,-100,4,1,0,42,0,0
139407,-200,4,1,0,41,0,0
141823,-100,4,1,0,40,0,0
145850,-200,4,1,0,40,0,0
148165,-200,4,2,2,29,0,0
150480,-100,4,2,2,29,0,0
157729,-100,4,2,1,35,0,0
158131,-100,4,2,1,26,0,0
158533,-100,4,2,1,21,0,0
173031,-100,4,2,0,0,0,0
173433,-100,4,2,0,4,0,0
173635,-100,4,2,0,11,0,0
173836,-100,4,2,0,15,0,0
174037,-100,4,2,0,20,0,0
174239,-100,4,2,0,24,0,0
174440,-100,4,2,0,31,0,0
174793,-100,4,2,2,44,0,1
174944,-100,4,2,2,41,0,0
187629,-100,4,1,0,38,0,1
193567,-100,4,2,0,40,0,1
194172,-100,4,1,0,40,0,1
195178,-100,4,2,0,42,0,1
195782,-100,4,1,0,40,0,1
199005,-100,4,1,0,50,0,0
199105,-100,4,1,0,50,0,1
199307,-100,4,1,0,50,0,0
199407,-100,4,1,0,50,0,1
199709,-100,4,1,0,42,0,1
200514,-100,4,1,1,41,0,0
219843,-100,4,2,0,24,0,0
220547,-100,4,2,0,43,0,0
221352,-100,4,2,0,24,0,0
222157,-100,4,2,0,41,0,0
222963,-100,4,2,0,23,0,0
223970,-200,4,2,1,26,0,0
225480,-200,4,2,0,23,0,0
226286,-200,4,2,0,0,0,0

[Colours]
Combo1 : 255,173,91
Combo2 : 201,148,148
Combo3 : 146,146,254

[HitObjects]
112,104,13569,1,2
176,40,13770,1,0
256,80,13971,1,2
336,40,14173,1,0
400,104,14374,1,2
321,154,14575,2,0,B|287:176|230:187|179:138,1,130,0|0
120,112,15179,2,0,B|97:145|84:202|131:254,1,130,2|0
179,306,15783,1,2
179,306,15985,2,0,B|213:328|271:339|321:290,1,130
376,264,16589,5,0
448,208,16790,1,10
216,64,17394,1,8
136,24,17595,1,2
160,296,18199,1,0
344,296,18602,1,4
256,136,19005,2,0,B|272:96|240:96|256:40,2,65,2|0|10
80,192,19810,1,0
112,280,20011,5,10
176,344,20213,1,0
256,304,20414,1,2
336,344,20616,1,0
400,280,20817,1,2
321,237,21018,2,0,B|287:215|230:204|180:253,2,130,0|0|8
400,280,22025,1,2
456,208,22226,1,0
456,208,22428,2,0,B|480:176|480:104|448:72,1,130
384,32,23032,5,0
296,48,23233,1,10
64,200,23837,1,8
120,272,24038,1,2
344,112,24642,1,0
168,112,25045,1,4
256,264,25448,2,0,B|232:304|280:304|248:344,2,65,2|0|10
256,80,26253,1,0
256,80,26454,1,10
344,48,26656,5,0
408,112,26857,1,2
368,192,27058,1,8
408,272,27260,1,2
344,336,27461,1,0
240,192,27864,2,0,B|168:208|168:176|104:192,2,130,0|8|0
312,136,28871,2,0,B|344:168|344:232|296:272,1,130
248,312,29475,2,0,B|216:344|152:344|112:296,1,130,2|0
64,136,30280,2,0,B|64:48|160:48,2,130,0|2|0
64,136,31488,1,4
176,280,31891,5,0
256,320,32092,1,0
336,280,32293,1,8
256,120,32696,1,0
176,160,32897,5,8
176,72,33099,1,0
256,32,33300,1,2
336,72,33501,1,0
336,160,33703,1,2
256,208,33904,2,0,B|240:272|272:272|256:344,2,130,0|2|4
256,24,35112,1,0
256,112,35313,1,0
256,128,35414,1,0
256,144,35515,2,0,B|240:208|272:208|256:288,1,130,8|2
256,360,36119,5,8
136,88,36723,1,8
136,88,36924,2,0,B|192:32|320:32|384:96,1,260,2|0
456,136,37931,5,4
376,176,38132,2,0,B|392:216|424:232|464:240|496:216,1,130
424,296,38736,2,0,B|256:320|256:264|72:296,1,325,8|0
72,208,40951,6,0,B|48:160|56:104|96:56|168:64,1,195
147,63,41958,1,8
328,64,42360,1,0
328,64,42562,2,0,B|400:71|429:126|425:182|391:224,1,195,8|0
403,207,43367,1,0
160,264,43971,1,0
88,224,44173,1,0
88,136,44374,5,4
136,64,44575,2,0,B|183:99|176:169|136:190,1,130,0|0
88,224,45179,2,0,B|56:240|40:288|64:336|96:352,1,130,8|0
160,344,45783,2,0,B|256:374|367:340,1,195,8|0
424,288,46589,2,0,B|454:191|420:80,1,195,2|0
352,48,47394,2,0,B|255:17|144:51,1,195,2|0
159,47,48199,1,0
88,96,48401,2,0,B|57:192|91:303,1,195,8|8
256,72,49609,2,0,B|256:152,1,65,8|0
256,344,50414,5,4
256,344,50616,1,4
240,264,50817,1,4
240,264,51018,1,4
256,184,51220,1,4
256,184,51421,1,4
240,104,51622,1,0
256,24,52025,6,0,B|336:24,1,65,8|8
392,64,52428,1,0
400,80,52528,1,0
408,96,52629,2,0,B|408:176,2,65,0|8|0
152,168,53636,5,0
168,88,53837,1,0
232,32,54038,1,8
312,16,54240,1,0
392,40,54441,1,0
456,96,54642,2,0,B|496:168|448:232,2,130,0|2|0
376,120,55649,1,2
296,96,55850,2,0,B|232:120|160:96,2,130,0|2|0
376,56,56857,5,2
440,112,57058,1,0
440,112,57260,1,8
464,192,57461,1,0
464,192,57662,1,0
440,272,57864,2,0,B|376:305|295:266,1,130,2|0
232,272,58468,1,0
216,272,58569,1,0
200,272,58669,2,0,B|112:272,1,65,0|8
136,272,59273,1,8
56,288,59475,6,0,B|16:224|64:144,1,130
88,88,60079,1,2
136,160,60280,1,0
176,88,60481,2,0,B|232:48|312:88,1,130,8|0
256,208,61287,12,0,62897
56,240,63501,5,0
80,160,63703,2,0,B|112:80,1,65,4|0
168,48,64105,2,0,B|256:72,1,65,4|0
312,88,64508,2,0,B|376:136|368:224,1,130,8|0
384,280,65112,1,8
448,224,65313,1,0
456,208,65414,1,0
464,192,65515,2,0,B|480:152|472:112,1,65
312,160,66119,1,8
144,40,66522,5,0
232,56,66723,2,0,B|272:56|288:16,2,65,0|8|0
152,104,67327,1,2
240,120,67528,1,2
160,168,67730,2,0,B|128:216|136:272,2,130,0|2|0
248,184,68736,2,0,B|264:256|216:320,1,130,2|2
152,352,69340,5,8
304,280,69743,1,8
392,136,70146,1,4
256,32,70548,5,0
256,32,70750,1,0
256,32,70951,2,0,B|224:96|288:96|248:184,1,130,8|0
288,240,71555,5,8
296,328,71756,1,2
352,256,71958,1,2
360,344,72159,1,8
416,272,72360,1,0
424,360,72562,2,0,B|456:376|488:352|496:312|480:264,1,130,2|0
464,192,73166,1,0
480,104,73367,2,0,B|472:56|416:24|368:40,2,130,4|0|8
328,192,74575,5,0
328,192,74777,1,8
256,136,74978,1,0
256,136,75079,1,0
256,136,75179,1,0
184,192,75381,1,8
184,192,75582,1,0
256,240,75783,1,0
256,240,75884,1,0
256,240,75985,1,0
256,240,76186,2,2,B|256:384,1,130,8|4
376,232,76991,5,0
384,144,77193,1,0
296,112,77394,2,0,B|216:104|176:144|176:176,1,130,8|0
224,240,77998,5,8
216,328,78199,1,2
160,256,78401,1,2
152,344,78602,1,8
96,272,78803,1,0
88,360,79005,2,0,B|56:376|24:352|16:312|32:264,1,130,2|0
48,192,79609,1,0
32,104,79810,2,0,B|40:56|96:24|144:40,2,130,4|0|8
184,192,81018,6,0,B|112:128,1,65,0|8
224,136,81421,2,0,B|211:116,2,32.5,0|0|0
328,192,81824,2,0,B|400:128,1,65,8|0
288,136,82226,2,0,B|300:116,2,32.5,0|0|0
256,224,82629,2,2,B|248:288|264:288|256:360,1,130,8|4
208,40,95515,5,0
288,88,95716,1,0
208,128,95918,2,0,B|192:176|136:184,1,65
88,136,96320,1,4
88,224,96522,1,4
160,280,96723,2,0,B|232:304|320:272,1,130,4|4
288,281,97528,1,4
368,240,97730,1,0
368,240,97830,1,0
368,240,97931,2,0,B|432:192|426:116,2,130,8|2|8
288,281,98938,5,0
200,304,99139,1,4
112,280,99340,1,0
64,208,99542,1,0
72,128,99743,2,0,B|76:71|118:32|167:35,1,130
296,128,100548,1,0
328,48,100750,1,4
416,48,100951,2,0,B|480:48|504:88|504:144,2,130,0|2|0
328,40,101958,5,8
328,40,102159,1,8
240,48,102360,1,4
160,80,102562,1,8
160,80,102763,1,8
104,144,102964,2,0,B|68:176|65:232|86:281,1,130,8|0
144,328,103569,1,8
160,336,103669,1,8
176,344,103770,2,0,B|217:370|259:353,2,65,0|8|0
472,40,104575,6,0,B|408:0|328:48,1,130,2|0
344,120,105179,1,2
272,80,105381,1,2
264,160,105582,2,0,B|208:200|128:160,1,130,4|0
112,88,106186,1,2
56,152,106387,2,0,B|40:184|40:256|64:288,1,130
144,264,106991,1,2
120,344,107193,2,0,B|184:360|272:344,2,130,4|0|0
40,336,108199,1,8
40,320,108300,1,0
40,304,108401,1,8
56,224,108602,5,8
88,144,108803,2,0,B|96:64|192:56,1,130,4|4
256,96,109407,1,4
340,61,109609,2,0,B|419:63|438:163,1,130,12|8
256,200,110414,1,4
194,264,110616,1,0
194,264,110716,1,8
194,264,110817,2,0,B|234:287|282:287|322:262,2,130,8|0|8
112,224,111824,5,0
184,176,112025,1,4
176,88,112226,1,0
256,128,112428,1,2
336,88,112629,1,2
328,176,112830,2,0,B|335:229|374:256|440:216,2,130,8|0|4
256,128,113837,1,8
256,128,114240,1,8
256,312,114642,5,0
256,312,114743,1,0
256,312,114844,2,0,B|272:248|240:240|256:160,2,130,0|4|0
64,96,116052,6,0,B|104:48|176:32|240:64|272:112|272:176,1,260
376,296,117260,1,0
376,296,117662,2,0,B|432:288|464:240|464:184,2,130
256,176,118871,1,0
48,296,119273,6,0,B|88:344|160:360|224:328|256:280|256:216,1,260
256,64,120481,1,0
256,64,120884,2,0,B|336:112|176:112|280:184,2,130,4|4|0
48,240,123099,5,0
72,328,123300,1,4
144,280,123501,1,0
152,272,123602,1,0
160,264,123703,1,8
256,152,124105,1,4
464,240,124508,5,8
440,328,124709,1,0
368,280,124911,1,8
360,272,125011,1,0
352,264,125112,1,0
288,208,125313,2,0,B|248:200|256:136,2,65,8|0|8
408,88,126119,1,8
224,32,126522,6,0,B|256:80|224:96|256:144,1,97.5,4|0
264,136,127226,1,0
280,152,127327,2,0,B|264:200|296:192|272:248,1,97.5,8|0
256,256,128032,1,0
240,264,128132,2,0,B|256:312|216:320|240:368,1,97.5,4|0
320,344,128938,6,0,B|393:315|416:247,1,130,8|0
424,168,129542,1,0
384,88,129743,1,4
304,72,129944,1,0
288,64,130045,1,8
272,56,130146,2,0,B|200:24|146:72,2,130,8|8|8
352,72,131152,5,0
424,128,131354,1,4
336,152,131555,1,8
488,184,131756,1,8
320,232,131958,1,8
488,264,132159,2,0,B|437:304|364:322,1,130,8|8
256,336,132964,6,0,B|224:288|256:272|224:224,1,97.5,4|0
216,232,133669,1,0
200,224,133770,2,0,B|171:182|204:181|165:133,1,97.5,8|0
176,120,134475,1,0
184,104,134575,2,0,B|137:84|157:49|105:35,1,97.5,4|0
72,152,135381,6,0,B|67:205|81:260|112:316|157:341,1,195,4|0
224,328,136186,1,8
248,328,136287,1,0
272,328,136387,1,0
360,328,136589,2,0,B|408:288|432:216|432:136,1,195
424,136,137293,1,0
416,120,137394,5,0
360,56,137595,1,0
280,40,137797,1,8
264,40,137897,1,0
248,40,137998,1,0
160,56,138199,1,0
96,112,138401,1,0
72,192,138602,2,0,B|72:248|120:288|176:280,1,130,0|0
304,248,139407,6,0,B|336:232|360:200|344:152,1,97.5,8|0
336,152,140112,1,0
352,128,140213,2,0,B|344:80|304:56|264:64,1,97.5,0|0
272,72,140918,1,0
256,64,141018,2,0,B|216:64|184:96|184:136,1,97.5,8|0
168,200,141824,5,0
168,200,142226,1,0
248,224,142428,1,0
280,304,142629,2,0,B|280:344|328:360,2,65,8|0|0
88,240,143434,1,0
88,240,143636,1,0
56,160,143837,5,0
136,112,144038,1,0
168,32,144240,1,8
256,56,144441,1,0
344,32,144642,1,0
384,112,144844,1,0
456,160,145045,2,0,B|456:232|400:296,1,130
160,160,145850,6,0,B|144:200|152:240|184:272,1,97.5,8|0
192,248,146555,1,0
216,240,146656,2,0,B|224:282|252:311|297:320,1,97.5,0|0
288,296,147360,1,0
304,272,147461,2,0,B|330:305|369:318|412:307,1,97.5,8|0
440,216,148267,6,0,B|470:197|482:156|462:109|421:97,2,130,8|4|8
152,280,150481,6,0,B|99:267|62:225|50:163|103:113,1,195,2|2
256,200,151488,1,8
424,136,151891,1,2
424,136,152092,2,0,B|464:184|448:256|395:286|341:287,1,195,2|0
256,136,153099,1,8
256,136,153501,1,8
256,136,153904,6,0,B|240:208|272:208|256:272,2,130,4|8|4
416,48,155112,1,8
488,216,155515,1,12
344,328,155918,1,8
160,328,156320,1,8
24,216,156723,1,8
96,48,157126,1,12
256,128,157528,1,8
192,296,157931,2,8,B|232:320|272:320|328:296,2,130
256,120,173233,6,4,B|256:168|256:176,14,32.5
256,208,174844,1,8
256,208,175246,2,0,B|272:272|328:304|368:304,1,130,8|4
360,120,176052,1,8
360,120,176454,1,8
256,208,176857,6,8,B|240:272|184:304|144:304,2,130,8|4|8
256,208,178065,2,8,B|272:144|328:112|368:112,2,130,0|0|4
384,320,179273,2,8,B|448:304|480:248|480:208,1,130
480,64,180079,1,8
312,64,180481,5,4
256,136,180683,1,8
256,136,180884,1,8
256,136,181085,2,0,B|248:208|208:232|176:240,1,130,8|0
120,176,181689,1,8
120,176,181790,1,8
120,176,181891,2,0,B|72:176|72:232,2,65,8|4|8
192,120,182495,6,0,B|240:104|264:72|272:16,2,130,8|8|8
112,168,183501,1,0
56,240,183703,2,0,B|16:272|8:328|32:376,2,130,4|8|8
176,104,184911,1,8
320,208,185313,1,4
224,56,185716,1,8
256,232,186119,1,8
288,56,186522,1,8
192,216,186924,5,12
192,216,187126,1,0
192,216,187327,1,0
192,216,187528,1,0
192,216,187730,1,4
336,104,188132,1,0
160,160,188535,1,8
344,168,188938,1,0
176,96,189340,1,0
304,224,189743,5,0
240,72,190146,1,8
320,56,190347,1,0
400,80,190548,1,0
456,144,190750,1,0
472,224,190951,2,0,B|474:292|410:345,2,130,0|0|8
456,144,191958,1,0
400,80,192159,1,0
320,56,192360,1,0
232,48,192562,2,0,B|149:36|75:80,1,130
104,65,193367,1,8
48,224,193770,5,2
64,240,193871,1,0
80,256,193971,1,2
96,272,194072,1,0
112,288,194173,2,0,B|249:342|376:283,1,260,0|8
472,152,195381,5,2
456,136,195481,1,0
440,120,195582,1,2
424,104,195683,1,0
408,88,195783,2,0,B|271:34|144:93,1,260,0|8
96,144,196790,1,0
64,224,196991,1,0
80,304,197193,1,0
80,304,197293,1,0
80,304,197394,6,0,B|139:344|264:344|336:304,1,260,0|8
256,88,198602,2,0,B|264:152|248:152|256:240,1,130
224,304,199206,2,0,B|264:320|296:296,2,65
144,224,199810,5,8
192,120,200011,1,8
312,120,200213,1,0
368,224,200414,1,0
256,272,200616,6,0,B|200:224|184:168|184:144,1,130
184,72,201220,1,0
256,16,201421,1,8
328,72,201622,1,0
328,163,201824,2,0,B|329:198|272:272|230:284,2,130,0|0|0
328,72,202830,6,0,B|352:32|408:24,2,65,0|8|0
256,128,203434,1,0
256,216,203636,1,0
256,216,203736,1,0
256,216,203837,2,8,B|248:280|264:280|256:360,1,130,0|0
424,336,204642,6,0,B|457:288|429:239|393:210|345:220|321:246,1,195,8|0
344,256,205347,1,0
368,248,205448,2,0,B|401:200|373:151|337:122|289:132|265:158,1,195,0|0
288,168,206152,1,0
304,160,206253,2,0,B|337:112|309:63|273:34|225:44|201:70,1,195,8|0
120,64,207058,6,0,B|90:137|123:201,1,130
56,248,207662,1,0
136,288,207864,1,8
152,296,207965,1,0
168,304,208065,1,0
248,320,208267,2,0,B|312:360|376:312,2,130
168,304,209273,5,0
152,216,209475,1,8
240,248,209676,1,0
136,128,209877,1,0
312,192,210079,1,0
120,48,210280,2,8,B|160:16|216:24|248:80,1,130,0|0
240,328,211085,6,0,B|287:361|336:333|365:297|355:249|329:225,1,195,8|0
312,232,211790,1,0
312,256,211891,2,0,B|359:289|408:261|437:225|427:177|401:153,1,195,0|0
384,152,212595,1,0
376,184,212696,2,0,B|423:217|472:189|501:153|491:105|465:81,1,195,8|0
392,56,213501,6,0,B|339:51|284:65|228:96|203:141,1,195
168,192,214307,1,8
168,192,214407,1,0
168,192,214508,1,0
176,280,214709,2,0,B|216:328|288:352|368:352,1,195
408,272,215515,5,0
368,192,215716,1,0
408,112,215918,1,8
352,40,216119,1,0
256,48,216320,1,0
160,40,216522,1,0
160,40,216723,2,0,B|80:56|72:128,1,130
320,112,217528,6,0,B|280:168|232:184|200:200|160:200|136:200,1,195,8|0
136,192,218233,1,0
120,176,218334,2,0,B|160:232|208:248|240:264|280:264|304:264,1,195,0|0
304,256,219038,1,0
320,240,219139,2,0,B|280:296|232:312|200:328|160:328|136:328,1,195,8|0
56,328,219944,5,0
256,32,220347,1,0
456,328,220750,1,2
200,64,221152,1,2
256,352,221555,1,0
312,64,221958,5,0
200,320,222360,1,2
256,96,222763,1,2
312,320,223166,1,0
256,160,223569,1,0
256,16,223971,6,0,B|240:72|272:72|248:128,1,97.5,2|0
256,136,224676,1,0
256,160,224777,2,0,B|288:208|208:208|264:256,1,97.5,2|0
256,272,225481,1,0
256,296,225582,2,0,B|152:344|368:336|232:376,1,130,2|0
