osu file format v6

[General]
AudioFilename: Long Night.mp3
AudioLeadIn: 0
PreviewTime: 95501
Countdown: 0
SampleSet: Soft
StackLeniency: 0.7
Mode: 0
LetterboxInBreaks: 1
SkinPreference:Default

[Editor]
DistanceSpacing: 1
BeatDivisor: 4
GridSize: 8

[Metadata]
Title:Long Night
Artist:The Corrs
Creator:alvisto
Version:Beginner
Source:Borrowed Heaven
Tags:

[Difficulty]
HPDrainRate:2
CircleSize:3
OverallDifficulty:3
SliderMultiplier:1.2
SliderTickRate:1

[Events]
//Background and Video events
0,0,"the_corrs_2.jpg"
//Break Periods
2,70345,82397
//Storyboard Layer 0 (Background)
//Storyboard Layer 1 (Fail)
//Storyboard Layer 2 (Pass)
//Storyboard Layer 3 (Foreground)
//Storyboard Sound Samples
//Background Colour Transformations
3,100,163,162,255

[TimingPoints]
12965,402.684563758389,4,2,1,26,1,0
50017,-100,4,1,1,10,0,0
50722,-100,4,1,1,21,0,0
51125,-100,4,1,1,31,0,0
51830,-100,4,2,2,42,0,0
69246,-100,4,2,1,29,0,0
69950,-100,4,1,1,17,0,0
70353,-100,4,2,1,31,0,0
89278,-100,4,2,1,30,0,0
95823,-100,4,1,1,23,0,0
96522,-100,4,1,1,26,0,1
97333,-100,4,2,2,41,0,1
115850,-100,4,2,2,26,0,0
121292,-100,4,2,2,36,0,0
121694,-100,4,2,2,31,0,0
122097,-100,4,2,2,24,0,0
122433,-100,4,1,0,41,0,1
122702,-100,4,2,2,36,0,0
123908,-100,4,2,0,34,0,0
124311,-100,4,2,2,31,0,0
135184,-100,4,1,0,40,0,0
135788,-100,4,1,0,41,0,0
146660,-100,4,1,0,37,0,0
148166,-100,4,1,0,41,0,1

[Colours]
Combo1 : 255,173,91
Combo2 : 201,148,148
Combo3 : 146,146,254

[HitObjects]
192,136,13770,2,0,B|168:200|200:280,1,120
312,256,14575,2,0,B|336:192|304:112,2,120,2|2|8
256,360,15783,1,2
256,240,16186,1,0
320,136,16589,6,0,B|376:96,1,60,2|8
192,136,17394,2,0,B|136:96,1,60,8|2
200,272,18199,2,0,B|264:304|336:256,2,120,0|4|0
256,168,19407,1,8
208,56,19810,1,2
328,72,20213,5,2
432,128,20616,1,0
432,248,21018,1,0
312,248,21421,2,4,B|247:262|176:245,1,120,0|4
72,248,22226,1,0
72,128,22629,1,0
184,88,23032,6,0,B|208:144|240:144,1,60,2|8
184,304,23837,2,0,B|208:248|248:248,1,60,8|2
400,248,24642,2,0,B|432:184|392:120,2,120,0|4|0
280,224,25850,1,8
256,104,26253,1,2
136,88,26656,6,0,B|128:160|200:200,2,120,2|0|0
256,104,27864,1,0
256,104,28267,1,8
376,88,28669,2,0,B|384:160|312:200,2,120,0|2|0
256,56,29877,1,0
256,176,30280,2,0,B|240:240|272:240|256:312,2,120,0|2|0
256,56,31488,1,4
360,112,31891,2,0,B|428:131|456:220,1,120,0|8
368,288,32696,1,0
256,256,33099,5,0
256,256,33501,1,0
256,136,33904,2,0,B|240:72|272:72|256:0,2,120,0|2|4
200,240,35112,2,0,B|264:256|344:232,2,120,0|2|0
112,160,36320,1,2
176,56,36723,2,0,B|248:88|256:176|264:248|336:336|376:344,1,360,0|4
256,208,38736,12,0,40750
256,80,41555,5,8
256,80,41958,1,8
152,144,42360,2,0,B|256:240|376:136,1,240
304,40,43569,1,2
184,40,43971,1,2
80,104,44374,6,4,B|56:160|64:208|96:248|152:272|200:272,1,240,4|8
312,272,45582,2,0,B|372:272|416:248|440:208|456:152|432:96,1,240,0|8
256,208,47394,12,0,49810
256,48,50414,5,4
256,48,50817,1,4
256,48,51220,2,4,B|272:104|240:104|256:192,2,120,4|4|8
256,288,52830,1,2
320,56,53636,6,0,B|384:48|448:56,2,120,0|8|0
200,56,54844,2,0,B|136:48|72:56,2,120,0|0|8
256,160,56052,2,0,B|256:296,1,120
32,192,57260,1,8
248,96,58065,6,0,B|312:72|416:112,2,120,2|0|2
152,168,59273,2,0,B|120:248|168:320,1,120,0|2
264,328,60079,1,0
264,328,60481,2,0,B|343:359|416:311,1,120,8|0
256,208,61287,12,8,63703
256,352,65313,5,2
256,112,66119,1,2
424,152,66924,5,8
320,216,67327,1,0
256,320,67730,1,2
192,216,68132,1,0
96,152,68535,1,2
152,48,68938,1,0
256,104,69340,2,0,B|200:192|304:272|248:352,1,240,0|4
256,208,83837,12,4,86253
256,176,87461,6,0,B|248:240|264:240|256:320,2,120,0|2|0
256,56,88669,1,0
256,56,89072,1,0
256,176,89475,6,0,B|256:312,1,120,4|8
144,336,90280,1,8
64,240,90683,1,8
112,128,91085,1,4
200,48,91488,1,0
256,152,91891,5,8
312,48,92293,1,8
400,128,92696,1,4
448,240,93099,1,0
376,336,93501,2,8,B|304:312|216:312|128:336,2,240,8|4|0
296,248,95515,5,0
192,192,95918,1,4
296,128,96320,1,4
192,64,96723,2,0,B|120:73|79:8,2,120,0|0|4
296,128,97931,2,0,B|364:137|401:207,2,120,8|0|8
192,64,99139,5,4
72,80,99542,2,0,B|24:192|80:344,1,240
192,336,100750,1,4
312,312,101152,2,0,B|448:312,1,120
440,192,101958,5,8
352,112,102360,1,4
256,192,102763,1,8
160,112,103166,1,8
64,192,103569,1,8
160,272,103971,1,4
256,192,104374,6,0,B|320:184|360:128,1,120,2|0
464,80,105179,1,2
464,80,105582,2,0,B|504:136|456:200,1,120,4|0
256,208,106387,12,8,108803
256,120,110414,5,4
256,120,110817,2,4,B|184:128|152:200|176:288|288:280,1,240
376,280,112025,5,4
456,192,112428,1,2
376,104,112830,2,0,B|256:112|256:80|112:104,2,240,8|4|8
360,224,114844,1,8
256,280,115246,1,4
152,224,115649,1,8
40,176,116052,6,0,B|48:120|128:80|200:88|256:152,1,240
352,160,117260,1,0
352,160,117662,2,0,B|416:184|440:248,2,120
232,176,118871,1,0
120,224,119273,6,0,B|128:280|208:320|280:312|336:248,1,240
360,152,120481,1,0
256,208,120884,12,0,122495
88,128,123300,5,4
184,56,123703,1,8
184,56,124105,1,4
184,56,124508,1,8
256,152,124911,5,4
336,56,125313,1,8
336,56,125716,1,8
432,128,126119,1,8
256,208,126522,12,0,128938
256,216,129743,5,4
328,312,130146,2,0,B|392:280|408:216,2,120,8|8|8
216,256,131354,5,4
256,144,131756,1,8
296,256,132159,2,8,B|320:296|376:304|400:296|408:296,1,120
256,208,132964,12,4,135381
256,192,136186,5,8
192,296,136589,2,0,B|136:304|64:264,1,120,0|0
120,160,137394,1,0
240,144,137797,5,8
336,72,138199,1,0
448,112,138602,2,0,B|456:176|448:256,1,120
368,320,139407,6,0,B|312:336|240:312,1,120,8|0
352,248,140213,2,0,B|295:233|248:184,1,120
368,176,141018,2,0,B|320:144|304:72,1,120,8|0
184,72,141824,6,0,B|120:65|57:74,1,120
144,168,142629,1,8
224,256,143032,2,0,B|288:263|351:254,1,120
368,136,143837,5,0
256,88,144240,1,8
144,136,144642,1,0
256,168,145045,2,0,B|256:328,1,120
256,208,145850,12,4,148267
