osu file format v6

[General]
AudioFilename: Long Night.mp3
AudioLeadIn: 0
PreviewTime: 95501
Countdown: 0
SampleSet: Soft
StackLeniency: 0.7
Mode: 0
LetterboxInBreaks: 1
SkinPreference:Default

[Editor]
DistanceSpacing: 1.5
BeatDivisor: 4
GridSize: 8

[Metadata]
Title:Long Night
Artist:The Corrs
Creator:alvisto
Version:Advanced
Source:Borrowed Heaven
Tags:

[Difficulty]
HPDrainRate:7
CircleSize:3
OverallDifficulty:6
SliderMultiplier:1.2
SliderTickRate:1

[Events]
//Background and Video events
0,0,"the_corrs_2.jpg"
//Break Periods
2,83231,94465
2,158936,172183
//Storyboard Layer 0 (Background)
//Storyboard Layer 1 (Fail)
//Storyboard Layer 2 (Pass)
//Storyboard Layer 3 (Foreground)
//Storyboard Sound Samples
//Background Colour Transformations
3,100,163,162,255

[TimingPoints]
12965,402.684563758389,4,2,1,26,1,0
40549,-100,4,2,1,8,0,0
41153,-100,4,2,1,25,0,0
50012,-100,4,1,1,11,0,0
50717,-100,4,1,1,21,0,0
50918,-100,4,1,1,28,0,0
51120,-100,4,1,1,38,0,0
51825,-100,4,2,2,43,0,0
62697,-100,4,2,1,43,0,0
63402,-100,4,2,1,42,0,0
65012,-100,4,2,2,43,0,0
69241,-100,4,2,1,37,0,0
69945,-100,4,1,1,26,0,0
70348,-100,4,2,1,24,0,0
95818,-100,4,1,1,22,0,0
96522,-100,4,1,1,19,0,1
96622,-100,4,1,1,25,0,0
97328,-100,4,2,2,41,0,0
115850,-100,4,2,2,24,0,0
120684,-100,4,2,0,44,0,0
120884,-200,4,2,0,22,0,0
121488,-200,4,2,0,37,0,0
121891,-200,4,2,0,29,0,0
122444,-200,4,2,0,41,0,1
122496,-100,4,1,0,39,0,0
122697,-100,4,2,2,33,0,0
123904,-100,4,2,0,39,0,0
124307,-100,4,2,2,34,0,0
126522,-200,4,2,2,33,0,0
128938,-100,4,2,2,32,0,0
132964,-200,4,2,2,34,0,0
135281,-100,4,1,0,39,0,0
135382,-100,4,1,0,41,0,0
139407,-200,4,1,0,40,0,0
141824,-100,4,1,0,41,0,0
145850,-200,4,1,0,39,0,0
148166,-200,4,2,2,25,0,0
150481,-100,4,2,2,29,0,0
157730,-100,4,2,1,29,0,0
158132,-100,4,2,1,21,0,0
158534,-100,4,2,1,12,0,0
173032,-100,4,2,0,0,0,0
173434,-100,4,2,0,4,0,0
173636,-100,4,2,0,11,0,0
173837,-100,4,2,0,15,0,0
174038,-100,4,2,0,20,0,0
174240,-100,4,2,0,24,0,0
174441,-100,4,2,0,31,0,0
174793,-100,4,2,2,45,0,1
174944,-100,4,2,2,46,0,0
187629,-100,4,1,0,45,0,1
193568,-100,4,2,0,39,0,1
194173,-100,4,1,0,46,0,1
195179,-100,4,2,0,40,0,1
195783,-100,4,1,0,45,0,1
199005,-100,4,1,0,65,0,0
199105,-100,4,1,0,65,0,1
199307,-100,4,1,0,65,0,0
199407,-100,4,1,0,45,0,1
200515,-100,4,1,1,46,0,0
219844,-100,4,2,0,26,0,0
220548,-100,4,2,0,39,0,0
221353,-100,4,2,0,25,0,0
222158,-100,4,2,0,41,0,0
222964,-100,4,2,0,24,0,0
223971,-200,4,2,1,39,0,0
225481,-200,4,2,0,39,0,0
226287,-200,4,2,0,0,0,0

[Colours]
Combo1 : 255,173,91
Combo2 : 201,148,148
Combo3 : 146,146,254

[HitObjects]
128,56,13569,1,0
192,120,13770,2,0,B|256:96|336:128,1,120,0|0
376,56,14374,1,0
440,120,14575,2,0,B|472:176|440:240,2,120,0|0|8
272,48,15783,1,0
272,48,15985,2,0,B|256:104|272:112|256:184,1,120,0|0
256,256,16589,5,2
256,256,16790,1,8
464,88,17394,1,8
392,32,17595,1,2
120,32,18199,2,4,B|48:24|16:96,1,120,0|4
112,240,19005,1,0
112,240,19206,1,0
112,240,19407,2,0,B|176:256|176:224|256:240,2,120,8|2|8
16,256,20414,5,0
80,328,20616,1,0
168,352,20817,1,0
256,336,21018,2,0,B|306:340|345:331|384:289,1,120
368,305,21824,1,8
472,160,22226,1,0
472,160,22428,2,0,B|494:127|492:55|459:24,1,120
384,64,23032,5,2
296,48,23233,1,8
88,216,23837,1,8
8,184,24038,1,2
256,72,24642,1,0
256,72,25045,1,4
256,256,25448,2,0,B|232:296|280:296|248:336,2,60,0|2|8
256,72,26253,1,0
256,72,26454,1,10
344,48,26656,5,0
416,104,26857,2,0,B|440:168|408:240,1,120
360,296,27461,1,0
360,296,27864,2,0,B|296:320|232:296,1,120,0|8
72,256,28669,1,0
72,256,28871,2,0,B|56:200|56:176|80:112,1,120
128,64,29475,2,0,B|192:50|263:68,1,120
408,144,30280,2,0,B|440:208|400:280,2,120
408,144,31488,1,4
256,48,31891,5,0
256,48,32092,1,0
256,48,32293,2,0,B|256:184,1,120,8|0
176,216,32897,5,8
176,304,33099,1,0
256,344,33300,1,2
336,304,33501,1,0
336,216,33703,1,2
256,168,33904,2,0,B|240:104|272:104|256:32,2,120,0|2|4
200,336,35112,2,0,B|264:352|344:328,2,120,0|2|0
112,312,36119,5,8
176,48,36723,1,8
256,80,36924,2,0,B|320:112|392:72,2,120
208,152,37931,5,4
288,184,38132,2,0,B|336:192|352:240|360:296|320:344,1,180,0|8
256,208,38938,12,8,41152
144,96,41555,5,0
144,96,41958,1,8
304,184,42360,1,0
304,96,42562,2,0,B|376:103|405:158|401:214|360:240,1,180,8|0
232,328,43569,1,0
80,232,43971,1,0
184,80,44374,5,4
248,16,44575,2,0,B|296:16|344:56|360:96,1,120
264,112,45179,2,0,B|232:160|192:168|152:168,1,120
104,104,45783,2,8,B|56:160|80:224|112:248|160:256,1,180
224,280,46589,1,0
312,264,46790,1,2
400,280,46991,1,0
488,264,47193,1,2
256,208,47394,12,0,49810
256,48,50414,5,4
256,48,50616,1,4
256,48,50817,1,4
256,48,51018,1,4
256,48,51220,2,4,B|272:104|240:104|256:192,2,120,4|4|8
344,32,52226,2,0,B|384:40|424:64|440:104|440:152|416:192,2,180,0|8|0
256,56,53636,5,0
168,32,53837,2,0,B|96:32|56:104,1,120
104,168,54441,1,2
24,208,54642,2,0,B|-16:280|24:344,2,120
104,168,55649,1,2
192,192,55850,2,0,B|256:216|320:184,2,120
104,168,56857,5,2
80,80,57058,1,0
168,64,57260,1,8
256,96,57461,1,0
344,64,57662,1,0
432,80,57864,1,0
432,80,58065,2,0,B|464:168|424:280,2,180,0|8|0
344,64,59475,6,0,B|280:24|208:72,1,120
160,112,60079,1,0
72,104,60280,1,0
72,104,60481,2,0,B|32:160|80:224,1,120,8|0
240,280,61287,2,0,B|240:200|304:184|304:96,2,180,0|8|0
64,280,62897,1,8
64,96,63300,1,8
144,56,63501,5,0
224,96,63703,2,0,B|304:40,1,65,4|0
360,56,64105,2,0,B|440:112,1,65,4|0
464,160,64508,2,0,B|480:200|472:240|424:256|392:240,1,120
344,184,65112,2,0,B|248:164|151:185,2,180,0|2|0
416,128,66522,5,0
344,72,66723,2,0,B|384:72|400:24,2,60,0|8|0
256,40,67327,1,2
168,72,67528,1,2
96,128,67730,2,0,B|64:176|72:248,2,120,0|2|0
168,72,68736,1,2
344,72,69139,1,2
256,320,69743,5,8
256,320,70146,1,4
136,192,70548,5,0
136,192,70750,1,0
136,192,70951,2,0,B|200:208|200:176|280:192,1,120,8|0
344,192,71555,5,8
432,224,71756,2,8,B|440:168|416:128|384:112,1,120,2|8
392,117,72360,1,0
304,112,72562,2,0,B|256:112|264:56|200:32,2,120,2|0|4
392,117,73569,1,0
392,117,73770,2,0,B|424:184|384:256,1,120,0|8
256,344,74575,5,0
256,344,74777,1,8
256,256,74978,1,0
256,168,75179,1,0
256,80,75381,1,8
256,80,75582,1,0
168,112,75783,1,0
128,192,75985,1,0
168,272,76186,2,0,B|176:312|208:344|264:344,1,120,8|4
352,192,76991,1,0
352,192,77193,1,0
352,192,77394,2,0,B|288:208|288:176|208:192,1,120,8|0
144,192,77998,5,8
56,224,78199,2,8,B|48:168|72:128|104:112,1,120,2|8
95,117,78803,1,0
184,112,79005,2,0,B|232:112|224:56|288:32,2,120,2|0|4
95,117,80011,1,0
95,117,80213,2,0,B|64:184|104:256,1,120,0|8
264,192,81018,6,0,B|328:128,1,60,0|8
344,72,81421,2,0,B|368:96,2,30,0|0|0
256,64,81824,2,0,B|192:128,1,60,8|0
168,184,82226,2,0,B|144:160,2,30,0|0|0
256,184,82629,2,0,B|264:248|248:248|256:312,1,120,8|4
216,40,95515,5,0
296,80,95716,1,0
216,112,95918,1,4
296,152,96119,1,4
216,184,96320,1,4
296,224,96522,1,4
216,256,96723,2,0,B|154:293|162:369,2,120,0|0|8
304,280,97730,1,0
392,304,97931,2,0,B|448:264|448:184,2,120,8|0|8
312,352,98938,5,0
232,312,99139,1,4
152,352,99340,1,0
72,312,99542,1,0
32,232,99743,2,0,B|24:176|56:128|96:120,2,120,0|0|0
72,312,100750,1,4
152,352,100951,2,0,B|200:360|240:328|256:280,2,120
72,312,101958,5,8
120,240,102159,1,8
40,192,102360,1,4
120,144,102562,1,8
72,64,102763,1,8
160,40,102964,2,8,B|216:40|304:40,1,120,8|0
368,40,103569,1,8
368,40,103770,2,0,B|416:32|448:64,2,60,0|4|0
200,112,104575,6,0,B|136:72|64:128,1,120,2|0
48,192,105179,1,2
48,192,105381,1,2
88,272,105582,2,0,B|144:312|208:264,1,120,4|0
256,192,106186,1,2
312,112,106387,2,0,B|376:72|448:128,1,120
464,192,106991,1,2
424,272,107193,2,0,B|368:312|304:264,2,120,4|0|0
464,192,108199,1,8
464,192,108401,1,8
464,192,108602,5,8
392,136,108803,2,0,B|368:56|288:56,1,120,4|4
256,128,109407,1,4
200,56,109609,2,0,B|136:64|112:144,1,120,12|8
256,248,110414,1,4
312,320,110616,1,0
312,320,110817,2,0,B|272:343|224:343|186:312,2,120,8|0|8
384,264,111824,5,0
456,208,112025,1,4
440,120,112226,2,0,B|416:56|336:48,1,120,0|0
256,40,112830,2,8,B|248:160|264:160|256:304,1,240,8|0
257,279,113837,1,8
104,192,114240,1,8
256,96,114642,1,0
256,96,114844,2,0,B|272:160|240:168|256:232,2,120,8|4|8
80,80,116052,6,0,B|16:200|80:320,1,240
200,184,117260,1,0
200,184,117662,2,0,B|256:176|288:144|288:88,2,120
256,352,118871,1,0
424,304,119273,6,0,B|488:184|424:64,1,240
256,128,120481,1,0
256,128,120884,2,4,B|240:192|272:176|256:264,2,120,4|4|4
72,48,123099,5,0
56,136,123300,1,4
144,104,123501,1,0
144,104,123703,1,8
256,248,124105,1,4
368,104,124508,5,8
440,48,124709,1,0
456,136,124911,1,4
456,136,125112,1,8
368,104,125313,2,0,B|337:76|304:112,2,60,8|0|8
256,248,126119,1,8
416,192,126522,6,4,B|392:136|344:128,1,90,4|0
312,120,127327,2,0,B|256:112|208:120,1,90,8|0
176,128,128132,2,0,B|128:144|104:200,1,90,4|0
56,248,128938,6,0,B|80:304|136:336,1,120,8|0
215,294,129542,1,0
296,296,129743,1,4
376,336,129944,1,0
376,336,130146,2,0,B|440:304|464:240,2,120,8|8|8
296,296,131152,5,0
216,256,131354,1,4
296,224,131555,1,8
216,184,131756,1,8
296,152,131958,1,0
216,112,132159,2,8,B|192:72|136:64|112:72|104:72,1,120
96,192,132964,6,4,B|120:248|168:256,1,90,4|0
200,264,133770,2,0,B|256:272|309:259,1,90,8|0
336,248,134575,2,0,B|392:240|416:176,1,90,4|0
408,112,135381,6,0,B|352:104|272:120|229:159,1,180,0|0
320,192,136186,1,8
320,192,136387,1,0
240,232,136589,2,0,B|200:280|128:304|64:304,1,180,0|0
96,216,137394,5,0
176,184,137595,1,0
264,152,137797,1,8
336,96,137998,1,0
400,32,138199,1,0
464,96,138401,1,0
464,96,138602,2,0,B|472:160|464:240,1,120
360,320,139407,6,0,B|304:336|264:320,1,90,8|0
280,264,140213,2,0,B|223:249|184:208,1,90
184,168,141018,2,0,B|150:128|136:77,1,90,8|0
224,40,141824,6,0,B|288:33|351:42,1,120
424,72,142428,1,0
480,144,142629,2,0,B|508:173|494:210,2,60,8|0|0
304,192,143434,1,0
304,192,143636,1,0
384,160,143837,5,0
424,80,144038,1,0
344,32,144240,1,8
256,56,144441,1,0
168,32,144642,1,0
88,80,144844,1,0
48,160,145045,2,0,B|88:224|168:184,1,120
264,128,145850,6,0,B|248:168|256:208|272:240,1,90,8|0
304,232,146656,2,0,B|312:274|340:303|368:304,1,90,0|0
384,272,147461,2,0,B|410:305|440:320|472:312,1,90,8|0
440,216,148267,6,0,B|472:192|472:136|432:104,2,120,8|4|8
176,280,150481,6,0,B|123:267|86:225|88:176|112:136,1,180,0|0
256,32,151488,1,0
400,144,151891,1,0
400,144,152092,2,0,B|432:176|448:232|411:265|376:286|352:280,1,180,0|0
256,152,153099,1,8
256,152,153501,1,8
256,152,153904,6,0,B|240:208|272:224|256:272,2,120,4|8|4
432,112,155112,1,8
256,152,155515,1,12
320,320,155918,1,8
256,152,156320,1,8
192,320,156723,1,8
256,152,157126,1,12
80,112,157528,1,8
256,152,157931,2,8,B|248:216|264:216|256:280,2,120
272,280,173233,6,4,B|252:280|232:280,14,30
256,192,174844,1,8
256,192,175246,2,8,B|216:168|208:120|160:96,1,120,8|4
344,48,176052,1,8
256,192,176454,1,8
256,192,176857,6,8,B|296:216|304:264|352:288,2,120,8|4|8
256,192,178065,2,8,B|280:152|328:144|352:96,2,120,8|8|4
352,344,179273,2,0,B|414:327|442:242,1,120,8|8
440,96,180079,1,8
440,96,180481,5,12
352,80,180683,1,8
264,96,180884,1,8
176,80,181085,2,0,B|128:64|80:80|48:112,1,120,8|0
32,184,181689,1,8
64,272,181891,2,0,B|80:312|128:328,2,60,8|4|8
32,184,182495,6,8,B|64:144|80:96|64:56,2,120
120,208,183501,1,2
208,232,183703,2,0,B|179:274|167:323|180:370,2,120,4|8|8
256,152,184709,1,2
304,232,184911,2,0,B|332:274|344:323|331:370,2,120,8|4|8
392,208,185918,1,2
480,184,186119,2,8,B|448:144|432:96|448:56,2,120,8|8|12
392,208,187126,5,0
304,232,187327,1,0
256,152,187528,1,0
208,232,187730,1,4
296,72,188132,1,0
280,248,188535,1,8
224,80,188938,1,0
344,216,189340,1,0
184,144,189743,5,0
368,144,190146,1,8
280,136,190347,2,0,B|256:184|264:208|224:272,1,120
160,288,190951,2,0,B|88:272|72:200,2,120,0|0|8
248,320,191958,1,0
288,240,192159,1,0
216,184,192360,1,0
256,104,192562,2,0,B|320:80|392:112,1,120
373,104,193166,1,0
373,104,193367,1,8
312,272,193770,5,2
232,312,193971,1,2
240,224,194173,2,0,B|264:152|232:88|152:64|80:96,1,240,0|8
280,48,195381,1,2
360,88,195582,1,2
280,136,195783,2,0,B|256:208|288:272|368:296|440:264,1,240,0|8
464,200,196790,1,0
480,112,196991,1,0
408,56,197193,1,0
320,40,197394,6,0,B|248:32|208:64|184:104|176:160|200:208,1,240,4|8
368,144,198602,2,0,B|408:192|376:248|352:272,1,120
296,200,199206,1,0
256,280,199407,1,0
216,200,199609,1,0
256,120,199810,2,8,B|256:72,3,60,8|8|0|0
344,40,200616,6,0,B|384:72|384:128|360:176,1,120
304,208,201220,1,0
256,280,201421,1,8
208,208,201622,1,0
144,144,201824,2,0,B|128:104|128:56|176:24,2,120,0|0|0
120,240,202830,5,0
168,312,203032,1,8
256,344,203233,1,0
336,312,203434,1,0
392,240,203636,1,0
312,192,203837,2,0,B|247:177|168:194,1,120
40,288,204642,6,0,B|7:240|24:192|56:160|104:160|136:176,1,180,8|0
160,96,205448,2,0,B|248:56|360:104,1,180,0|0
368,176,206253,2,0,B|425:166|461:202|477:244|460:280|446:291,1,180,8|0
368,328,207058,6,0,B|304:360|240:320,1,120
256,240,207662,1,0
256,240,207864,1,8
256,240,208065,1,0
256,328,208267,2,0,B|192:360|128:320,2,120
256,240,209273,5,0
256,240,209475,1,8
256,240,209676,1,0
256,152,209877,1,0
256,152,210079,1,0
256,152,210280,2,0,B|272:88|240:88|256:24,1,120
424,80,211085,6,0,B|457:128|440:176|408:208|360:208|328:192,1,180,8|0
344,288,211891,2,0,B|232:328|144:273,1,180,0|0
168,192,212696,2,0,B|110:201|74:165|58:123|75:87|89:76,1,180,8|0
176,56,213501,6,0,B|229:51|296:64|352:104,1,180
280,168,214307,1,8
280,168,214508,1,0
216,232,214709,2,0,B|248:280|312:312|384:304,1,180
448,256,215515,5,0
424,168,215716,2,0,B|400:144|416:104,2,60,0|8|0
344,216,216320,1,0
296,288,216522,1,0
216,320,216723,2,0,B|176:336|120:320|104:288,1,120
120,112,217528,6,0,B|160:152|216:184|272:200|304:200,1,180,8|0
352,144,218334,2,0,B|312:184|256:216|200:232|168:232,1,180
128,176,219139,2,0,B|168:216|224:248|280:264|312:264,1,180,8|0
344,192,219944,5,0
440,40,220347,1,0
344,192,220750,1,2
256,32,221152,1,2
168,192,221555,1,0
72,40,221958,5,0
168,192,222360,1,2
256,352,222763,1,2
344,192,223166,1,0
256,32,223569,1,0
256,32,223971,6,0,B|240:88|272:88|248:136,1,90,2|0
256,144,224676,1,0
256,168,224777,2,0,B|288:216|208:216|272:256,1,90,2|0
256,272,225481,1,0
256,296,225582,2,0,B|152:336|360:336|232:360,1,120,2|0
