osu file format v9

[General]
AudioFilename: The Corrs- Breathless.mp3
AudioLeadIn: 0
PreviewTime: 50072
Countdown: 0
SampleSet: Normal
StackLeniency: 0.7
Mode: 0
LetterboxInBreaks: 1

[Editor]
DistanceSpacing: 1.2
BeatDivisor: 4
GridSize: 8

[Metadata]
Title:Breathless
Artist:The Corrs
Creator:alvisto
Version:Breathless
Source:
Tags:

[Difficulty]
HPDrainRate:7
CircleSize:4
OverallDifficulty:7
ApproachRate:7
SliderMultiplier:1.6
SliderTickRate:1

[Events]
//Background and Video events
0,0,"The_Corrs.jpg"
//Break Periods
2,137996,150833
//Storyboard Layer 0 (Background)
//Storyboard Layer 1 (Fail)
//Storyboard Layer 2 (Pass)
//Storyboard Layer 3 (Foreground)
//Storyboard Sound Samples
//Background Colour Transformations
3,100,163,162,255

[TimingPoints]
5040.32098160542,472.44094488189,4,1,0,23,1,0
6687,-100,4,1,0,29,0,0
8577,-100,4,1,1,39,0,0
10467,-100,4,1,1,44,0,0
20270,-100,4,1,2,35,0,0
34443,-100,4,1,1,38,0,0
34679,-100,4,1,1,35,0,0
34916,-100,4,1,1,28,0,0
35506,-100,4,1,2,39,0,0
42475,-100,4,1,2,46,0,0
45664,-100,4,1,1,46,0,0
49207,-100,4,1,1,36,0,0
50388,-100,4,1,1,51,0,0
64561,-58.8235294117647,4,1,1,52,0,0
65506,-100,4,1,1,49,0,0
80861,-100,4,1,2,42,0,0
94916,-100,4,1,1,37,0,0
95152,-100,4,1,1,32,0,0
95388,-100,4,1,1,27,0,0
95979,-100,4,1,2,39,0,0
101648,-100,4,1,1,42,0,0
103420,-100,4,1,2,42,0,0
106136,-100,4,1,1,47,0,0
109679,-100,4,1,1,38,0,0
110861,-100,4,1,1,51,0,0
121609,-100,4,1,1,44,0,0
122199,-100,4,1,1,51,0,0
125034,-58.8235294117647,4,1,1,51,0,0
125979,-100,4,1,1,52,0,0
151491,-100,4,1,1,44,0,0
152317,-100,4,1,2,39,0,0
159994,-100,4,1,2,46,0,0
162947,-100,4,1,1,52,0,0
166372,-100,4,1,1,41,0,0
167435,-100,4,1,1,41,0,0
167672,-100,4,1,1,52,0,0
184443,-100,4,1,0,74,0,0
186333,-100,4,1,2,53,0,0

[Colours]
Combo1 : 0,128,0
Combo2 : 105,0,210
Combo3 : 0,164,82
Combo4 : 0,128,192

[HitObjects]
216,160,5040,1,0
184,264,5512,1,0
296,296,5985,1,0
328,192,6457,1,0
160,160,6930,5,0
200,320,7402,1,0
368,288,7874,1,0
328,120,8347,1,0
136,240,8819,5,0
352,296,9292,1,8
424,88,9764,1,0
208,40,10237,1,8
64,280,10709,6,0,B|120:344|216:336,1,160,0|8
360,288,11654,1,0
328,272,11772,2,0,B|320:224|336:160,1,80,8|8
368,200,12126,2,0,B|376:160|368:88,1,80
360,80,12481,1,8
328,64,12599,5,6
168,56,13071,2,0,B|112:72|88:128|120:192,2,160,8|0|8
232,104,14252,1,0
208,184,14489,5,0
256,248,14725,1,0
232,328,14961,1,8
152,352,15197,2,0,B|88:360,1,40,0|8
72,288,15552,2,0,B|64:248,1,40,8|0
120,192,15906,2,0,B|152:160|152:88,1,80,8|0
224,80,16378,6,0,B|216:136|240:240,1,160,0|8
320,216,17087,1,0
400,240,17323,2,0,B|392:288|408:328,1,80
472,272,17796,2,0,B|480:200|472:104,1,160,8|0
408,64,18504,1,0
336,96,18741,2,0,B|280:72,1,40,0|8
256,152,19095,2,0,B|304:176,1,40,0|8
256,240,19449,1,8
224,312,19685,1,8
192,336,19804,1,0
152,344,19922,1,8
152,264,20158,6,0,B|120:184|128:88,1,160,6|8
200,72,20867,1,0
272,104,21103,1,0
352,80,21339,1,0
392,152,21575,2,0,B|352:216|368:320,2,160,8|0|8
352,80,22756,1,0
280,112,22993,1,0
240,120,23111,1,8
168,88,23347,1,8
128,96,23465,1,0
80,160,23701,1,0
112,232,23937,6,0,B|176:208|272:240,1,160,6|8
336,280,24646,1,0
384,216,24882,2,0,B|416:128,1,80
448,72,25355,2,0,B|432:120|440:192|472:264,2,160,8|0|8
368,56,26536,5,0
288,40,26772,1,0
248,40,26890,1,8
176,80,27126,1,8
152,112,27245,1,0
80,152,27481,1,0
144,200,27717,6,0,B|168:272|144:360,1,160,6|8
72,328,28426,1,0
136,280,28662,1,0
208,248,28898,1,0
264,192,29134,2,0,B|304:120|296:32,2,160,8|0|8
272,272,30315,5,0
344,248,30552,2,0,B|328:216|336:184,1,40,0|8
408,192,30906,2,0,B|416:224|416:248,1,40,8|0
488,272,31260,1,0
496,192,31497,6,0,B|496:112|464:16,1,160,6|8
392,48,32205,1,0
312,56,32441,1,0
272,48,32560,1,0
232,56,32678,2,0,B|176:64|144:56,1,80,0|8
88,104,33150,1,0
128,176,33386,6,0,B|152:264|112:344,2,160,0|8|0
64,128,34567,5,8
192,80,34804,1,8
312,176,35040,1,8
472,96,35276,1,14
296,320,35748,5,8
200,296,35985,1,0
112,328,36221,2,0,B|64:256|72:184,1,120
71,216,36693,1,8
120,136,36930,1,0
200,192,37166,6,0,B|256:168|352:192,1,120
318,184,37638,1,8
408,160,37874,1,0
336,96,38111,2,0,B|312:152|320:216,1,120
319,213,38583,1,8
264,296,38819,1,0
168,280,39056,6,0,B|136:240|144:184|128:144,1,120
134,166,39528,1,8
232,184,39764,1,0
312,136,40000,2,0,B|304:80|256:32,1,120
256,32,40473,1,8
192,96,40709,1,0
96,104,40945,6,0,B|80:184,1,80
80,182,41418,1,8
120,272,41654,1,8
312,304,42126,1,8
384,240,42363,1,8
416,152,42599,1,8
408,104,42717,1,8
392,56,42835,5,6
296,48,43071,1,0
184,120,43308,5,8
184,120,43544,1,0
96,264,43780,5,0
184,296,44016,1,0
288,184,44252,5,8
288,184,44489,1,0
128,96,44725,5,0
64,168,44961,1,0
192,248,45197,5,8
192,248,45434,1,0
400,328,45906,5,8
448,248,46142,1,0
464,152,46378,1,0
448,56,46615,1,6
448,56,47087,1,8
208,32,47560,5,0
176,120,47796,1,8
80,136,48032,1,8
48,224,48268,1,0
56,320,48504,1,4
56,320,48977,1,8
256,256,49449,5,8
256,240,49567,1,8
256,224,49685,1,8
256,208,49804,1,8
256,192,49922,1,8
256,176,50040,1,8
256,160,50158,1,8
256,144,50276,1,8
256,128,50394,5,6
176,72,50630,1,0
104,136,50867,2,0,B|80:192|128:240|104:304,1,160,8|0
192,336,51575,1,0
240,320,51693,1,0
288,312,51811,1,8
376,352,52048,2,0,B|432:336|464:288|464:240|456:208,1,160
432,136,52756,1,8
432,136,52993,1,0
368,64,53229,5,0
272,40,53465,2,0,B|240:80|224:128,1,80,0|8
232,160,53819,1,0
208,192,53937,2,0,B|176:112,1,80,8|6
178,117,54646,1,8
224,32,54882,2,0,B|312:16|392:56,1,160
368,144,55591,1,8
376,240,55827,1,8
344,280,55945,1,8
304,312,56063,5,6
216,280,56300,1,0
120,264,56536,2,0,B|112:216|136:176|128:104,1,160,8|0
216,72,57245,1,0
248,104,57363,1,0
280,144,57481,1,8
376,128,57717,2,0,B|416:104,2,40
344,216,58189,1,0
344,216,58426,2,0,B|400:248|400:304|376:344|336:360,1,160,8|0
264,328,59134,6,0,B|256:280|248:224,1,80,0|8
216,216,59489,1,0
216,176,59607,2,0,B|264:208|304:216,1,80,8|6
287,211,60315,1,8
384,232,60552,1,0
440,152,60788,1,0
360,104,61024,1,0
264,104,61260,1,8
176,72,61497,1,8
176,72,61615,1,8
176,72,61733,6,0,B|160:128|176:192,1,120,6|0
200,232,62205,1,8
264,304,62441,2,0,B|304:256|352:248|384:288|432:264,1,160
464,352,63150,1,8
496,264,63386,1,0
392,264,63622,6,0,B|304:240,1,80
120,264,64095,2,0,B|208:240,1,80,8|0
440,320,64567,2,0,B|304:336,1,135.999994325638
72,320,65040,2,0,B|208:336,1,135.999994325638,8|0
216,232,65512,6,0,B|232:136|216:72,1,160,6|8
96,48,66221,2,0,B|64:104|72:176,1,120,0|8
70,163,66693,1,0
56,256,66930,1,8
48,352,67166,1,0
144,352,67402,5,0
240,328,67638,1,0
336,336,67874,1,8
432,320,68111,1,0
384,192,68347,5,6
424,64,68583,5,0
328,80,68819,1,8
232,80,69056,1,0
136,104,69292,1,0
136,104,69764,1,8
160,200,70237,5,0
240,176,70473,1,8
320,200,70709,1,0
392,168,70945,1,8
472,184,71182,5,0
312,336,71654,1,0
448,104,72126,1,0
224,344,72599,1,8
72,256,73071,6,0,B|64:176,1,80,6|0
88,136,73426,1,0
128,128,73544,1,8
184,184,73780,1,0
256,144,74016,6,0,B|296:112|344:104,1,80
376,96,74371,1,0
400,136,74489,1,8
376,216,74725,1,0
320,272,74961,5,0
248,240,75197,1,0
176,264,75434,1,8
104,224,75670,2,0,B|88:176,1,40,0|8
152,136,76024,2,0,B|184:112,1,40,8|0
256,136,76378,2,0,B|296:144|344:136,1,80,8|0
408,168,76851,5,6
392,248,77087,1,0
440,256,77205,1,0
472,224,77323,2,0,B|496:184|488:136,1,80,8|0
432,88,77796,1,0
352,104,78032,1,0
360,56,78150,1,0
376,24,78268,2,0,B|328:24|288:48,1,80,8|0
216,32,78741,6,0,B|184:112|192:208,1,160,0|8
264,160,79449,2,0,B|264:224|272:328,1,160
312,328,80040,1,0
352,328,80158,1,8
416,280,80394,1,8
424,240,80512,1,0
432,200,80630,1,6
384,48,81103,5,8
304,56,81339,1,0
224,48,81575,1,0
192,120,81811,1,0
216,200,82048,2,0,B|184:232|168:296|176:344|184:368,2,160,8|0|8
288,232,83229,5,0
360,200,83465,1,0
376,160,83583,2,0,B|368:112|376:64,1,80,8|8
392,40,83937,2,0,B|400:96|392:144,1,80
448,184,84410,6,0,B|456:256|432:344,1,160,6|8
352,320,85119,1,0
272,344,85355,2,0,B|224:352|176:344,1,80
112,328,85827,2,0,B|104:256|112:168,1,160,8|0
192,192,86536,5,0
240,128,86772,1,8
320,120,87008,2,0,B|328:160|352:208,1,80
408,144,87481,1,0
384,64,87717,2,0,B|304:24|224:32,2,160,8|0|8
328,120,88898,5,0
352,200,89134,1,0
336,280,89371,1,0
272,336,89607,2,0,B|192:360|104:352,2,160,8|0|8
256,256,90788,5,0
184,224,91024,1,0
152,200,91142,2,0,B|144:160|144:112,1,80,8|8
104,120,91497,2,0,B|112:176|96:224,1,80
80,280,91969,6,0,B|176:312,1,80,6|0
216,232,92441,2,0,B|248:280|256:336,1,80
336,328,92914,1,0
384,328,93032,1,0
432,312,93150,1,0
424,224,93386,1,8
432,144,93622,1,0
408,64,93859,6,0,B|328:88|240:72,2,160,0|8|0
432,144,95040,1,8
416,264,95276,1,8
296,352,95512,1,8
96,328,95748,1,6
72,56,96221,5,8
136,112,96457,1,0
216,88,96693,1,0
344,320,97166,5,8
320,240,97402,1,0
336,160,97638,1,0
80,168,98111,5,8
152,224,98347,1,0
176,312,98583,1,0
368,216,99056,5,8
400,136,99292,1,0
376,56,99528,1,0
184,232,100000,5,8
104,272,100237,1,0
48,336,100473,1,0
288,48,100945,5,8
272,128,101182,1,0
280,208,101418,1,0
176,320,101890,5,8
176,320,102126,1,8
48,176,102599,1,0
72,88,102835,1,8
160,64,103071,2,0,B|160:16,2,40,8|0|6
248,96,103544,5,0
344,72,103780,2,0,B|352:128|344:192,1,120,8|0
296,200,104252,5,0
200,184,104489,1,0
112,216,104725,2,0,B|104:256|112:336,1,120,8|0
160,344,105197,5,0
248,304,105434,1,0
344,288,105670,2,0,B|344:376,1,80,8|0
80,144,106378,5,8
200,168,106615,1,0
320,136,106851,1,0
440,104,107087,2,0,B|448:64|440:16,1,80,6|0
441,24,107441,1,0
441,24,107560,1,8
432,240,108032,5,0
328,280,108268,1,8
224,248,108504,1,8
120,224,108741,1,0
24,264,108977,2,0,B|16:304|24:352,1,80,6|0
22,343,109331,1,0
22,343,109449,1,8
288,328,109922,5,8
296,312,110040,1,8
304,296,110158,1,8
312,280,110276,1,8
320,264,110394,1,8
328,248,110512,1,8
336,232,110630,1,8
344,216,110748,1,8
352,200,110867,6,0,B|408:192|336:144|408:144,2,80,0|0|8
264,168,111575,2,0,B|216:144|152:152|120:192|120:224,1,160
64,280,112284,1,8
64,280,112520,1,0
144,336,112756,2,0,B|208:344|272:320|312:288,1,160,0|8
392,288,113465,1,0
432,200,113701,5,0
344,160,113937,2,0,B|320:128|328:88,1,40
296,88,114174,2,0,B|280:160|296:248,2,160,8|0|0
208,56,115355,2,0,B|184:136|200:216,1,160
199,214,116063,1,8
240,304,116300,2,0,B|224:352,2,40,8|0|6
336,328,116772,5,0
432,320,117008,1,8
416,224,117245,2,0,B|400:144|416:56,1,160
368,64,117835,1,0
320,80,117953,1,8
224,72,118189,1,0
128,88,118426,2,0,B|80:112|64:152|80:208|112:232,2,160,0|8|0
216,128,119607,5,0
256,216,119843,1,8
296,304,120079,1,0
200,328,120315,2,0,B|120:304|72:224,1,160,0|8
112,144,121024,2,0,B|192:152|272:128,1,160
368,120,121733,1,8
352,168,121851,1,8
352,208,121969,1,8
352,256,122087,1,8
336,304,122205,6,0,B|304:344|240:352,2,80,6|0|8
432,288,122914,2,0,B|472:224|464:128,1,160
456,88,123504,1,0
424,48,123622,1,8
344,96,123859,1,0
376,184,124095,6,0,B|280:200,1,80
136,184,124567,2,0,B|232:200,1,80,8|0
448,136,125040,2,0,B|304:96,1,135.999994325638
64,136,125512,2,0,B|208:96,1,135.999994325638,8|0
288,184,125985,6,0,B|304:256|256:344,1,160,0|8
200,264,126693,2,0,B|256:248|320:264,1,120
360,288,127166,1,0
448,248,127402,1,8
448,152,127638,1,0
408,64,127874,5,0
312,80,128111,1,0
216,72,128347,1,8
120,88,128583,1,0
72,200,128819,5,6
80,320,129056,5,0
176,336,129292,1,8
272,328,129528,1,0
368,344,129764,1,0
368,344,130237,1,8
328,192,130709,5,0
240,160,130945,1,8
160,192,131182,1,0
80,176,131418,1,8
32,120,131654,5,6
256,232,132126,1,0
8,40,132599,1,0
336,256,133071,1,8
176,72,133544,5,0
176,72,133780,1,0
96,80,134016,1,8
336,312,134489,5,0
336,312,134607,1,0
336,312,134725,1,0
416,304,134961,1,8
336,72,135434,5,0
336,72,135670,1,0
416,80,135906,1,8
128,320,136378,5,0
88,296,136497,2,0,B|80:248|88:216,1,80,8|8
136,216,136851,2,0,B|144:112,1,80
142,136,137205,1,8
142,136,137323,1,6
142,136,137796,1,8
88,80,151733,5,8
240,104,151969,1,8
376,80,152205,1,8
480,136,152441,6,0,B|504:216|480:304,2,160,0|8|0
384,160,153622,1,0
288,176,153859,2,0,B|264:144|256:56,1,120,8|0
256,61,154331,5,0
160,48,154567,1,0
72,96,154804,2,0,B|56:152|80:232,1,120,8|0
75,214,155276,1,0
168,232,155512,1,0
240,296,155748,2,0,B|296:320|368:312,1,120,8|0
357,312,156221,5,0
432,256,156457,1,0
400,168,156693,2,0,B|384:104|392:40,1,120,8|0
391,48,157166,1,0
296,64,157402,1,0
200,48,157638,2,0,B|144:32|80:40,1,120,8|0
81,39,158111,5,0
56,136,158347,1,0
104,224,158583,1,8
200,208,158819,2,0,B|256:160|288:248|368:192,1,160
416,128,159528,5,8
424,152,159646,1,8
432,176,159764,1,8
440,200,159882,1,8
448,224,160000,2,0,B|464:272|440:328|400:336|352:344,1,160,6|8
288,288,160709,1,0
240,296,160827,1,0
192,280,160945,1,0
120,224,161182,1,0
120,224,161418,2,0,B|176:224|232:192|256:128,2,160,8|0|8
144,128,162599,6,0,B|128:80,2,40
72,184,163071,5,0
144,240,163308,1,8
64,312,163544,1,0
192,352,163780,1,6
192,352,164252,1,8
400,112,164725,5,0
440,184,164961,1,8
368,240,165197,1,8
448,312,165434,1,0
320,352,165670,1,6
320,352,166142,1,8
256,232,166615,6,0,B|256:184,8,40,8|8|8|8|8|8|8|8|4
168,272,167796,1,0
88,216,168032,2,0,B|80:144|96:72,1,120,8|0
112,56,168504,2,0,B|168:72|216:64,1,80
280,32,168977,1,8
368,80,169213,2,0,B|400:168,1,80
395,155,169922,1,8
328,224,170158,1,0
232,240,170394,5,0
232,240,170512,1,0
232,240,170630,1,0
232,240,170748,1,0
232,240,170867,2,0,B|168:248|120:224|88:184,2,160,8|0|8
248,192,171930,1,0
248,144,172048,1,0
160,176,172284,2,0,B|152:240|184:336,1,160,0|8
280,320,172993,1,0
376,336,173229,5,6
432,256,173465,1,0
400,224,173583,1,0
384,176,173701,1,8
328,104,173937,2,0,B|304:144|296:184|280:224|240:240,1,160
160,200,174646,1,8
160,200,174882,1,0
72,240,175119,2,0,B|32:176|40:80,1,160,0|8
39,86,175827,1,0
136,96,176063,6,0,B|264:144,1,120
272,96,176536,2,0,B|256:144|264:200,1,80,8|0
256,272,177008,1,6
256,272,177481,1,8
352,248,177717,2,0,B|328:200|288:160|224:136,1,160
144,152,178426,1,8
48,144,178662,2,0,B|64:88,1,40,8|0
64,56,178898,6,0,B|152:32,1,80,6|0
240,40,179371,2,0,B|344:64,1,80,8|0
368,240,180079,2,0,B|264:264,1,80,0|8
192,264,180552,2,0,B|104:248,1,80
113,249,181260,1,8
32,200,181497,1,0
104,136,181733,6,0,B|88:88|104:40,1,80
192,80,182205,1,8
288,64,182441,1,0
288,64,182560,1,0
288,64,182678,2,0,B|336:104|400:104|456:88,2,160,0|8|0
192,80,183859,5,8
288,160,184095,5,8
152,160,184331,5,8
256,240,184567,5,4
16,240,185748,5,0
256,304,185985,5,0
496,240,186221,5,0
432,168,186457,6,0,B|416:120|416:80,1,80
336,40,186930,2,0,B|344:96|328:136,1,80,8|0
280,200,187402,2,0,B|248:160|248:72,1,120
232,40,187874,2,0,B|208:88|200:128,1,80,8|0
112,152,188347,5,6
112,152,188819,1,8
112,152,189056,1,0
112,152,189528,1,0
112,152,189764,2,0,B|88:224|112:320,1,160,8|0
208,320,190473,6,0,B|208:360,2,40,0|0|8
304,304,190945,2,0,B|320:216|304:144,1,160
320,48,191654,1,8
392,112,191890,1,0
392,112,192008,1,0
392,112,192126,2,0,B|320:144|216:128,1,160,0|8
144,104,192835,5,0
80,176,193071,2,0,B|120:224|112:288,1,120
72,312,193544,2,0,B|88:264|128:240,1,80,8|0
208,280,194016,6,0,B|232:224|280:176,1,120
274,181,194489,1,8
352,240,194725,2,0,B|400:176|400:112,1,120
398,131,195197,1,0
328,64,195434,2,0,B|232:96,1,80,8|0
160,56,195906,6,0,B|128:144,1,80
40,104,196378,2,0,B|16:184|32:264,2,160,8|0|8
128,136,197560,1,0
192,64,197796,1,0
240,80,197914,1,0
288,72,198032,1,0
376,112,198268,2,0,B|352:192,1,80,8|0
272,232,198741,5,0
320,248,198859,1,0
360,272,198977,1,0
456,272,199213,1,0
256,192,199449,12,8,200867
256,192,201103,5,8
256,192,201339,1,8
16,96,202756,5,8
256,88,202993,1,8
496,96,203229,1,8
