osu file format v9

[General]
AudioFilename: The Corrs- Breathless.mp3
AudioLeadIn: 0
PreviewTime: 50072
Countdown: 0
SampleSet: Normal
StackLeniency: 0.7
Mode: 0
LetterboxInBreaks: 1

[Editor]
DistanceSpacing: 0.8
BeatDivisor: 4
GridSize: 8

[Metadata]
Title:Breathless
Artist:The Corrs
Creator:alvisto
Version:Beginner
Source:
Tags:

[Difficulty]
HPDrainRate:1
CircleSize:3
OverallDifficulty:0
ApproachRate:5
SliderMultiplier:1.2
SliderTickRate:1

[Events]
//Background and Video events
0,0,"The_Corrs.jpg"
//Break Periods
2,73271,79430
//Storyboard Layer 0 (Background)
//Storyboard Layer 1 (Fail)
//Storyboard Layer 2 (Pass)
//Storyboard Layer 3 (Foreground)
//Storyboard Sound Samples
//Background Colour Transformations
3,100,163,162,255

[TimingPoints]
5040,472.44094488189,4,1,0,23,1,0
6687,-100,4,1,0,29,0,0
8577,-100,4,1,1,39,0,0
10467,-100,4,1,1,44,0,0
20270,-100,4,1,2,35,0,0
35506,-100,4,1,2,39,0,0
42475,-100,4,1,2,46,0,0
45664,-100,4,1,1,46,0,0
49207,-100,4,1,1,36,0,0
50388,-100,4,1,1,51,0,0
80861,-100,4,1,2,42,0,0
94916,-100,4,1,1,37,0,0
95152,-100,4,1,1,32,0,0
95388,-100,4,1,1,27,0,0
95979,-100,4,1,2,39,0,0
101648,-100,4,1,1,42,0,0
103420,-100,4,1,2,42,0,0
106136,-100,4,1,1,47,0,0
109679,-100,4,1,1,38,0,0
110861,-100,4,1,1,51,0,0

[Colours]
Combo1 : 0,128,0
Combo2 : 105,0,210
Combo3 : 0,164,82
Combo4 : 0,128,192

[HitObjects]
120,112,5039,2,0,B|112:168|120:248,1,120
200,176,5984,2,0,B|240:160|272:192|320:176,1,120
384,104,6929,6,0,B|416:160|400:240,1,120
312,304,7874,2,0,B|288:256|304:176,1,120
256,104,8819,6,0,B|192:96|192:112|136:104,1,120,0|8
72,176,9764,2,0,B|56:216|80:256|104:272|136:272,1,120,0|8
256,192,10709,12,6,12599
64,64,13071,5,8
80,160,13543,1,0
160,104,14016,2,0,B|224:120|288:104,2,120,8|0|8
160,200,15433,2,0,B|160:256|160:280,2,60,0|0|8
248,168,16378,5,0
328,224,16851,1,8
344,128,17323,2,0,B|336:88|352:40|392:16,2,120,0|8|0
280,200,18740,5,8
240,224,18977,2,0,B|200:256|144:256|96:248|64:208,1,180,0|8
40,184,19921,1,0
32,136,20158,1,6
112,80,20630,5,8
208,88,21102,2,0,B|224:128|216:192|232:224|232:232,1,120,0|8
264,296,22047,5,0
352,256,22520,2,0,B|352:168,2,60,8|0|0
264,296,23465,1,8
168,304,23937,6,0,B|128:256|136:176,1,120,0|8
232,208,24882,2,0,B|232:144|216:80,1,120,0|8
120,88,25827,6,0,B|64:40,2,60,0|0|8
120,184,26772,2,0,B|40:184,2,60,0|0|8
136,280,27717,1,0
224,320,28189,6,0,B|296:328|368:304,2,120,8|0|8
128,296,29606,2,0,B|64:336,2,60,0|0|8
192,224,30551,1,0
224,136,31024,2,0,B|240:96|232:64,2,60,8|0|0
288,208,31969,5,8
320,120,32441,1,0
224,112,32914,1,8
192,200,33386,1,0
256,192,33858,12,6,35276
128,72,35748,5,8
128,72,35984,1,0
128,72,36221,1,0
136,168,36693,5,8
136,168,36929,1,0
136,168,37165,1,0
232,160,37638,6,0,B|288:136,2,60,8|0|0
200,248,38583,6,0,B|208:304|216:328,2,60,8|0|0
280,200,39528,5,8
328,184,39764,1,0
376,168,40000,1,0
408,80,40473,5,8
360,64,40709,1,0
312,48,40945,1,0
216,40,41417,5,8
168,48,41654,2,0,B|144:96|144:192,1,120
112,200,42362,2,8,B|48:240,2,60,8|8|14
144,288,43307,5,8
232,320,43780,1,0
280,328,44016,1,0
328,320,44252,1,8
304,224,44725,5,0
224,176,45197,1,8
208,128,45433,1,0
208,80,45669,2,0,B|208:48|224:16,4,60,0|8|8|0|6
304,96,47087,1,8
392,136,47559,5,0
432,160,47795,2,0,B|448:192|448:232,3,60,8|8|0|6
416,304,48977,1,8
320,320,49449,6,8,B|256:336|192:320,1,120
128,256,50394,6,0,B|136:224|96:224|104:192,2,60,0|0|8
256,200,51575,2,0,B|280:176|240:160|256:128,3,60,0|8|0|0
312,72,52756,1,8
400,120,53228,5,0
400,120,53465,2,0,B|432:208|392:312,1,180
304,312,54646,1,8
256,304,54882,2,0,B|216:280|168:320|120:296,2,120
272,256,56063,6,0,B|288:224|264:216|288:184,2,60,6|0|8
144,184,57244,2,0,B|176:152|120:136|144:104,3,60,0|8|0|0
208,64,58425,1,8
112,48,58898,5,0
96,88,59134,2,0,B|80:168|88:280,1,180
184,288,60315,1,8
168,240,60551,2,0,B|152:208|160:168|192:144|224:152,2,120
136,280,61732,6,0,B|104:296|144:320|112:336,3,60,6|0|8|0
208,296,62914,2,0,B|192:328|232:328|192:368,3,60,0|8|0|0
304,352,64095,1,8
304,256,64567,5,0
264,232,64803,2,0,B|224:192|208:144|224:96|248:56,1,180
312,128,65984,1,8
264,120,66221,2,0,B|224:128|192:160|184:208,2,120
288,80,67402,5,6
288,80,67638,1,0
288,80,67874,1,8
144,48,68583,1,0
144,48,68819,1,8
144,48,69055,1,0
144,48,69291,2,0,B|96:40|56:56|40:96,1,120,0|8
32,184,70236,5,0
80,192,70473,1,0
128,176,70709,1,8
176,184,70945,1,0
224,176,71181,5,0
320,192,71654,1,0
416,176,72126,1,0
512,192,72599,2,0,B|520:248|512:320,1,120,8|6
208,112,80630,5,6
112,152,81102,6,0,B|96:96|56:48,2,120,8|0|8
176,224,82520,2,0,B|216:216|256:232|280:272,1,120,0|8
296,312,83228,1,0
344,304,83465,1,0
432,272,83937,1,8
448,176,84410,1,0
384,104,84882,6,0,B|344:136|288:136|248:120,2,120,8|0|8
392,200,86299,2,0,B|360:256|352:328,1,120,0|8
304,320,87008,1,0
256,328,87244,1,0
160,320,87717,1,8
64,320,88189,1,0
72,224,88662,6,0,B|88:160|88:80,1,120,8|0
120,72,89370,1,0
168,48,89606,1,8
256,80,90079,1,0
288,120,90315,1,0
336,128,90551,2,0,B|368:120|392:80|376:24,1,120,8|0
328,40,91260,1,0
296,72,91496,1,8
272,112,91732,1,0
264,160,91969,1,0
288,256,92441,6,0,B|336:288|416:272,1,120,8|0
368,184,93386,2,0,B|344:128|352:64,1,120,8|0
304,64,94095,1,0
256,56,94331,2,0,B|192:48|128:64,1,120,8|0
96,88,95039,5,8
104,136,95276,1,8
80,176,95512,1,8
88,224,95748,2,0,B|80:264|104:304|136:320|160:320,1,120,6|8
240,320,96693,5,0
248,272,96929,2,0,B|248:192,1,60,0|8
336,176,97638,5,0
384,192,97874,1,0
432,184,98110,1,8
416,88,98583,5,0
376,64,98819,2,0,B|296:32,1,60,0|8
224,40,99528,5,0
208,88,99764,1,0
200,136,100000,1,8
104,160,100473,5,0
96,208,100709,2,0,B|104:288,1,60,0|8
184,312,101417,5,0
184,312,101654,1,0
184,312,101890,1,8
184,312,102126,2,0,B|240:328|312:312,2,120,8|0|0
136,296,103307,6,0,B|120:232,1,60,6|0
112,192,103780,2,0,B|112:120,1,60,8|0
120,88,104252,2,0,B|144:16,1,60
184,24,104725,2,0,B|272:16,1,60,8|0
288,24,105197,6,0,B|344:8|416:32,1,120,0|8
440,120,106142,5,0
440,120,106378,1,8
440,120,106614,1,8
440,120,106851,1,0
440,120,107087,2,0,B|392:144|352:136|328:184,1,120,6|8
264,232,108032,5,0
264,232,108268,1,8
264,232,108504,1,8
264,232,108740,1,0
264,232,108977,2,0,B|216:208|168:224|144:184,1,120,6|8
208,112,109921,6,8,B|208:48|208:56,8,30
120,144,111339,5,8
64,280,112047,2,0,B|48:304|88:320|56:344,3,60,0|8|0|0
160,336,113228,2,0,B|216:344|232:352|248:336|280:320,1,120,8|0
264,280,113937,6,0,B|248:224|240:176|240:112|248:80,1,180
336,64,115118,1,8
328,112,115354,2,0,B|280:152|208:168,2,120
376,96,116536,5,6
376,96,116772,1,0
376,96,117008,1,8
376,96,117244,2,0,B|448:200,1,120
444,194,117953,1,8
444,194,118189,1,0
444,194,118425,1,0
408,280,118898,1,8
312,296,119370,5,0
312,296,119606,2,0,B|208:312|128:288,1,180
176,200,120788,1,8
176,200,121024,2,0,B|160:120|168:64,2,120
152,240,122205,6,0,B|136:264|160:272|144:304,3,60,6|0|8|0
240,272,123386,2,0,B|232:304|256:312|240:344,3,60,0|8|0|0
344,320,124567,1,8
352,224,125039,5,0
352,224,125276,2,0,B|288:208|256:152|272:80,1,180
368,104,126457,1,8
368,104,126693,2,0,B|416:88|464:96|496:128,1,120
488,168,127402,1,8
480,216,127638,1,0
456,256,127874,6,0,B|400:304,1,60,6|0
368,312,128347,2,0,B|288:336,1,60,8|0
216,320,129055,2,0,B|144:304,1,60,0|8
112,288,129528,2,0,B|64:216,1,60
48,144,130236,1,8
24,48,130709,5,0
72,56,130945,1,8
112,88,131181,1,8
160,96,131417,1,8
200,128,131654,5,6
280,176,132126,1,0
352,240,132599,1,0
432,288,133071,1,8
496,360,133543,1,0
256,192,134016,12,6,137323
