osu file format v9

[General]
AudioFilename: The Corrs- Breathless.mp3
AudioLeadIn: 0
PreviewTime: 50072
Countdown: 0
SampleSet: Normal
StackLeniency: 0.7
Mode: 0
LetterboxInBreaks: 1

[Editor]
DistanceSpacing: 1.2
BeatDivisor: 4
GridSize: 8

[Metadata]
Title:Breathless
Artist:The Corrs
Creator:alvisto
Version:Advanced
Source:
Tags:

[Difficulty]
HPDrainRate:5
CircleSize:4
OverallDifficulty:5
ApproachRate:6
SliderMultiplier:1.4
SliderTickRate:1

[Events]
//Background and Video events
0,0,"The_Corrs.jpg"
//Break Periods
2,72799,80043
//Storyboard Layer 0 (Background)
//Storyboard Layer 1 (Fail)
//Storyboard Layer 2 (Pass)
//Storyboard Layer 3 (Foreground)
//Storyboard Sound Samples
//Background Colour Transformations
3,100,163,162,255

[TimingPoints]
5040.32098160542,472.44094488189,4,1,0,23,1,0
6687,-100,4,1,0,29,0,0
8577,-100,4,1,1,39,0,0
10467,-100,4,1,1,44,0,0
20270,-100,4,1,2,35,0,0
34443,-100,4,1,1,38,0,0
34679,-100,4,1,1,35,0,0
34916,-100,4,1,1,28,0,0
35506,-100,4,1,2,39,0,0
42475,-100,4,1,2,46,0,0
45664,-100,4,1,1,46,0,0
49207,-100,4,1,1,36,0,0
50388,-100,4,1,1,51,0,0
80861,-100,4,1,2,42,0,0
94916,-100,4,1,1,37,0,0
95152,-100,4,1,1,32,0,0
95388,-100,4,1,1,40,0,0
95979,-100,4,1,2,39,0,0
101648,-100,4,1,1,42,0,0
103420,-100,4,1,2,42,0,0
106136,-100,4,1,1,47,0,0
109679,-100,4,1,1,38,0,0
110861,-100,4,1,1,51,0,0
121609,-100,4,1,1,44,0,0
122199,-100,4,1,1,51,0,0

[Colours]
Combo1 : 0,128,0
Combo2 : 105,0,210
Combo3 : 0,164,82
Combo4 : 0,128,192

[HitObjects]
64,120,5040,1,0
176,232,5512,1,0
328,168,5985,1,0
376,320,6457,1,0
216,336,6930,5,0
104,224,7402,1,0
264,200,7874,1,0
208,48,8347,1,0
368,72,8819,5,0
440,216,9292,1,8
288,160,9764,1,0
272,320,10237,1,8
144,264,10709,6,0,B|112:232|104:176|128:128,1,140,0|8
224,32,11654,2,0,B|272:80,1,35,0|8
320,56,12008,2,0,B|360:16,1,35,8|0
416,32,12363,2,0,B|440:64,2,35,8|0|4
328,144,13071,6,0,B|256:128|160:144,1,140,0|8
120,152,13780,1,0
176,192,14016,2,0,B|224:152|208:96|264:56,1,140,8|0
312,40,14725,5,0
384,56,14961,2,0,B|408:128,1,70,8|0
400,192,15434,1,0
344,240,15670,1,0
272,248,15906,2,0,B|240:312,1,70,8|0
168,320,16378,6,0,B|112:344|64:336|32:296,2,140,0|8|0
152,248,17560,1,0
160,176,17796,2,0,B|176:104|152:32,2,140,8|0|8
232,160,18977,2,0,B|216:224|232:312,1,140,0|8
296,328,19685,2,0,B|384:320,1,70,8|0
400,256,20158,6,0,B|416:208|384:160|400:96,2,140,6|8|0
328,240,21339,1,0
264,272,21575,1,8
192,256,21811,1,0
120,264,22048,5,0
120,264,22520,1,8
136,192,22756,2,0,B|144:112|136:32,1,140
72,72,23465,1,8
96,136,23701,1,0
136,192,23937,6,0,B|200:232|280:208,2,140,0|8|0
160,120,25119,1,0
232,144,25355,2,0,B|216:216|224:288,1,140,8|0
280,336,26063,5,0
344,296,26300,2,0,B|352:216,1,70,8|0
408,184,26772,1,0
440,120,27008,1,0
424,48,27245,2,0,B|344:32,1,70,8|0
288,24,27717,1,0
160,80,28189,6,0,B|232:64|304:96,1,140,8|0
328,160,28898,1,0
296,224,29134,1,8
352,280,29371,1,0
416,248,29607,5,0
512,144,30079,1,8
512,144,30315,2,0,B|448:184|376:192,1,140
320,152,31024,1,8
248,168,31260,1,0
184,136,31497,2,0,B|168:184|160:240|168:296,2,140,0|8|0
152,72,32678,1,0
96,120,32914,2,0,B|72:176|72:272,1,140,8|0
88,328,33622,5,0
144,280,33859,2,0,B|192:280|232:320,1,70,8|0
272,336,34331,1,0
336,304,34567,1,8
384,248,34804,2,0,B|432:272|440:320,1,70,8|8
488,344,35276,5,6
464,208,35748,5,8
480,136,35985,1,0
464,64,36221,2,0,B|392:40|304:56,1,140,0|8
264,88,36930,1,0
200,56,37166,6,0,B|120:32|48:40,1,140,0|8
32,104,37874,1,0
56,176,38111,2,0,B|48:248|80:328,1,140,0|8
144,336,38819,1,0
144,264,39056,6,0,B|136:200|144:112,1,140,0|8
200,72,39764,1,0
248,128,40000,2,0,B|256:208|248:272,1,140,0|8
304,320,40709,1,0
344,256,40945,6,0,B|336:168|344:96,1,140,0|8
368,40,41654,2,0,B|376:104|368:208,1,140
296,200,42363,1,8
216,200,42599,2,0,B|152:192,2,35
208,120,43071,5,0
144,80,43308,2,0,B|88:144,1,70,8|0
104,208,43780,2,0,B|96:248|96:304,1,70
168,240,44252,2,0,B|176:200|168:152,1,70,8|0
232,120,44725,6,0,B|224:160|232:216,1,70
296,152,45197,2,0,B|304:104|296:56,1,70,8|0
368,120,45670,2,0,B|360:160|368:216,1,70,0|8
432,232,46142,2,0,B|440:176|432:144,1,70,8|0
440,88,46615,5,6
440,88,47087,1,8
296,32,47560,6,0,B|280:72|288:120,1,70,0|8
240,160,48032,2,0,B|256:208|248:256,1,70,8|0
256,304,48504,1,6
256,304,48977,1,8
384,224,49449,2,8,B|392:184,8,35,8|8|8|8|8|8|8|8|14
312,264,50630,5,0
240,288,50867,2,0,B|160:296|80:288,2,140,8|0|8
256,216,52048,1,0
248,136,52284,1,0
248,136,52756,1,8
312,96,52993,1,0
352,160,53229,6,0,B|336:232|352:304,2,140,0|8|0
480,72,54646,1,8
448,144,54882,2,0,B|400:96|368:112|320:48,1,140
264,32,55591,2,0,B|224:112,1,70,8|0
176,144,56063,6,0,B|128:192|240:176|144:200,2,70,0|0|8
200,72,56772,2,0,B|272:64|344:88,2,140
128,88,57953,1,0
104,160,58189,1,0
24,176,58426,1,8
80,232,58662,1,0
80,232,58898,6,0,B|64:304|72:384,2,140,0|8|0
208,152,60315,1,8
264,96,60552,1,0
416,120,61024,1,0
440,192,61260,1,8
408,264,61497,2,0,B|384:304,2,35,8|8|6
352,208,61969,5,0
280,184,62205,1,8
200,192,62441,2,0,B|176:256|184:344,1,140
248,296,63150,1,8
176,264,63386,1,0
128,200,63622,2,0,B|112:136|128:56,1,140,0|8
208,56,64331,1,0
280,24,64567,5,0
352,48,64804,2,0,B|336:112|376:160|424:176,1,140
424,96,65512,2,0,B|360:96|328:144|336:192,1,140,0|8
408,168,66221,2,0,B|392:128|328:96|272:136,1,140
216,152,66930,2,0,B|208:232,1,70,8|0
144,264,67402,5,0
80,304,67638,1,0
80,232,67874,2,0,B|64:160|80:72,1,140,8|0
144,56,68583,1,0
216,80,68819,1,8
208,0,69056,2,0,B|176:64|168:160,2,140
272,40,70237,5,0
304,128,70473,5,8
208,152,70709,5,8
272,216,70945,5,8
248,304,71182,5,6
248,312,71654,1,0
248,320,72126,1,0
248,328,72599,1,8
128,240,81103,6,0,B|112:160|128:96,1,140,8|0
208,112,81811,1,0
288,136,82048,1,8
264,56,82284,1,0
344,32,82520,5,0
464,152,82993,1,8
408,216,83229,2,0,B|384:160|392:104|424:72,1,140
344,32,83937,1,8
264,48,84174,1,0
184,40,84410,6,0,B|104:32,1,70
40,72,84882,1,8
40,72,85355,1,0
96,128,85591,1,0
176,104,85827,2,0,B|128:112|88:160|104:224,1,140,8|0
136,280,86536,5,0
216,304,86772,1,8
272,240,87008,1,0
216,176,87245,1,0
280,120,87481,1,0
360,120,87717,1,8
416,64,87953,1,0
456,136,88189,2,0,B|440:208|448:304,1,140,6|8
368,312,88898,5,0
296,272,89134,2,0,B|288:224|296:184|296:192,2,70,0|0|8
296,272,90079,5,0
144,200,90552,1,8
144,200,90788,2,0,B|224:192|304:216,1,140
304,128,91497,1,8
232,168,91733,1,0
216,248,91969,6,0,B|184:272|136:272|96:240|112:192,2,140,0|8|0
232,168,93150,1,0
152,192,93386,2,0,B|128:248|128:344,1,140,8|0
48,312,94095,5,0
80,232,94331,1,8
64,152,94567,1,0
128,104,94804,1,0
208,136,95040,1,8
272,80,95276,1,8
320,152,95512,1,8
352,232,95748,2,0,B|408:232|448:192|456:128,1,140,6|8
336,32,96693,5,0
248,24,96930,1,0
168,48,97166,1,8
168,216,97638,5,0
136,136,97874,1,0
72,80,98111,1,8
80,248,98583,5,0
152,296,98819,1,0
232,272,99056,1,8
280,112,99528,5,0
272,192,99764,1,0
320,264,100000,1,8
488,248,100473,5,0
432,312,100709,1,0
352,344,100945,1,8
184,344,101418,5,0
256,304,101654,1,0
328,264,101890,1,8
408,272,102126,2,0,B|416:208|408:104,1,140,0|0
409,132,102835,1,8
376,56,103071,2,0,B|376:16,2,35,8|8|6
296,64,103544,5,0
216,56,103780,2,0,B|176:48|120:64,1,70,8|0
168,136,104252,1,0
256,128,104489,1,0
336,152,104725,2,0,B|384:168|416:200,1,70,8|0
344,248,105197,5,0
264,224,105434,1,0
184,240,105670,1,8
160,320,105906,2,0,B|112:312|80:264|96:208,1,140,0|8
160,160,106615,1,8
192,80,106851,1,0
248,144,107087,1,6
248,144,107560,1,8
320,296,108032,5,0
320,296,108268,1,8
264,232,108504,1,8
192,192,108741,1,0
192,272,108977,1,6
192,272,109449,1,8
40,192,109922,6,8,B|40:248,8,35,8|8|8|8|8|8|8|8|6
80,120,111103,5,0
160,136,111339,2,0,B|144:208|160:288,1,140,8|0
240,280,112048,1,0
216,200,112284,1,8
296,224,112520,2,0,B|320:152|320:72,1,140
319,86,113229,1,8
400,88,113465,1,0
400,168,113701,6,0,B|328:176|240:168,2,140,0|8|0
400,168,115119,1,8
344,104,115355,2,0,B|328:168|328:256,1,140
256,208,116063,2,0,B|256:128,1,70,8|0
168,136,116536,6,0,B|160:64,1,70
88,104,117008,2,0,B|32:152,1,70,8|0
144,280,117717,2,0,B|176:208,1,70,0|8
240,264,118189,2,0,B|312:312,1,70
448,224,118898,1,8
448,224,119134,1,0
400,152,119371,5,0
320,184,119607,2,0,B|264:200|224:192|192:176|176:144,1,140
256,112,120315,2,0,B|264:168|248:208|224:240|192:248,1,140,0|8
296,216,121024,2,0,B|272:184|248:168|200:160|168:176,1,140
104,224,121733,1,8
40,280,121969,2,0,B|40:336,2,35,8|8|6
48,200,122441,5,0
88,128,122678,1,8
168,136,122914,2,0,B|232:128|264:160|328:144,1,140
256,80,123622,1,8
240,160,123859,1,0
248,240,124095,2,0,B|264:304|296:336|328:368,2,140,0|8|0
328,216,125276,5,0
360,136,125512,1,8
280,120,125748,1,0
192,120,125985,5,0
192,120,126457,1,8
192,120,126693,1,0
192,120,127166,1,0
192,120,127402,2,0,B|176:192|176:272,2,140,8|6|8
256,64,128583,5,0
256,64,129056,1,0
328,112,129292,2,0,B|368:80|368:160|400:88,2,70,8|0|0
160,96,130237,1,8
80,120,130473,1,0
120,192,130709,5,0
200,192,130945,5,8
256,256,131182,5,8
336,232,131418,5,8
360,152,131654,5,4
256,16,132126,1,0
232,184,132599,1,0
256,352,133071,1,8
256,192,133544,12,0,137323
