osu file format v7

[General]
AudioFilename: Happy Material (31 person ver. TV Size).mp3
AudioLeadIn: 0
PreviewTime: 59944
Countdown: 0
SampleSet: Normal
StackLeniency: 0.7
Mode: 0
LetterboxInBreaks: 1

[Editor]
DistanceSpacing: 0.800000011920929
BeatDivisor: 4
GridSize: 8

[Metadata]
Title:Happy Material (31 person ver. TV Size)
Artist:The Class of 2-A
Creator:Astom
Version:Normal
Source:Mahou Sensei Negima
Tags:Negi Ignacio Aizawa Mai Bandou Ai Deguchi Mami Horie Yui Inoue Naomi Ishige Sawa Itou Shizuka Inokuchi Yuka Kadowaki Kanda Akemi Kanou Mari Kimura Madoka Kobayashi Misa Yu Koyama Kimiko Kuwatani Natsuko Matsuoka Yuki Minagawa Junko Nonoka Noto Mamiko Omae Akane Osawa Chiaki Sakuma Miho Sasagawa Ayana Shimura Yumi Shiraishi Ryoko Shiratori Yuri Tanaka Hazuki Watanabe Akeno Yamakawa Kotomi Yamamoto Azumi

[Difficulty]
HPDrainRate:2
CircleSize:3
OverallDifficulty:4
SliderMultiplier:1.4
SliderTickRate:0.5

[Events]
//Background and Video events
0,0,"BG.jpg"
//Break Periods
2,17812,19605
2,84070,85863
//Storyboard Layer 0 (Background)
//Storyboard Layer 1 (Fail)
//Storyboard Layer 2 (Pass)
//Storyboard Layer 3 (Foreground)
//Storyboard Sound Samples
//Background Colour Transformations
3,100,163,162,255

[TimingPoints]
3257,368.098159509202,4,1,0,80,1,0
5741,-100,4,1,0,50,0,0
6293,-100,4,1,0,80,0,0
20833,-100,4,1,0,70,0,0
23042,-100,4,1,0,80,0,0
33901,-100,4,1,0,60,0,0
34269,-100,4,1,0,80,0,0
45312,-100,4,1,0,60,0,0
45680,-100,4,1,0,70,0,0
46048,-100,4,1,0,80,0,0
46784,-100,4,1,0,40,0,0
52945,-100,4,1,0,80,0,0
56626,-100,4,1,0,80,0,0
57275,-100,4,1,0,90,0,0
60680,-100,4,1,0,90,0,1
67766,-100,4,1,0,100,0,1
69054,-100,4,1,0,90,0,1
83865,-100,4,1,0,80,0,0
87091,-100,4,1,0,60,0,0
87643,-100,4,1,0,70,0,0
88195,-100,4,1,0,80,0,0

[Colours]
Combo1 : 255,255,0
Combo2 : 128,255,0

[HitObjects]
176,192,3256,5,4
256,48,3808,1,4
336,192,4361,1,4
256,272,4729,2,4,B|256:352|256:352,3,70
160,288,5649,5,0
160,288,5833,2,0,B|160:240|128:192|56:192|56:192,1,140,0|4
72,80,6569,1,0
184,80,6937,2,0,B|184:128|216:176|288:176|288:176,1,140
328,176,7490,2,0,B|376:176|424:208|424:280|424:280,1,140,4|0
424,320,8042,2,0,B|424:368|360:384,2,70,0|0|4
256,320,8962,6,0,B|216:296|256:248|256:248,1,70
336,192,9514,1,0
256,120,9882,1,4
168,192,10250,1,0
104,192,10434,2,0,B|64:128|64:248|0:192|0:192|-8:176|-8:176,1,140
8,120,10987,1,0
56,96,11171,1,0
256,40,11907,5,4
256,96,12091,2,0,B|176:160|312:192|256:248|256:248,2,140
312,96,13011,2,0,B|376:96|384:48|408:32|456:56|512:80|496:128|432:200|432:200,1,280
256,272,14299,6,0,B|256:224|224:200|160:200|144:264|160:272|160:272,2,140
256,104,15588,1,4
248,328,16324,6,4,B|368:320|416:168|368:72|224:48|112:112|112:112,1,490
160,312,20925,5,4
120,152,21477,1,4
256,48,22030,1,4
392,152,22582,1,4
336,312,23134,1,4
256,112,23870,5,0
144,136,24238,2,0,L|40:248|40:248,2,140
192,32,25342,2,0,L|48:32|48:32,2,140
296,192,26631,5,0
240,192,26815,2,0,B|200:128|200:128|160:208|160:208|128:152|128:152,1,210
96,272,27735,2,0,B|144:320|176:320|224:272|224:272,4,140
160,184,29576,5,0
216,184,29760,1,0
160,88,30128,2,0,B|96:88|80:128|80:128,3,70
72,216,31048,6,0,B|64:264|88:288|112:304|160:288|176:280|176:280,1,140
216,272,31600,2,0,B|256:272|280:240|280:240,2,70
256,112,32520,5,0
208,144,32704,2,0,B|232:304|232:304,1,140
288,280,33256,2,0,B|312:136|312:136,1,140
312,32,33993,1,4
200,32,34361,1,4
256,360,35465,5,0
256,304,35649,1,0
256,192,36017,2,0,B|224:152|288:152|248:120|248:120,3,70
360,88,36937,2,0,B|416:168|360:232|360:232,2,140
256,152,38410,5,0
200,152,38594,2,0,B|160:96|128:72|64:80|64:80,1,140
40,120,39146,2,0,B|96:112|176:152|144:216|144:216,1,140
240,256,39882,1,0
128,256,40250,1,0
120,368,40618,2,0,B|176:328|224:328|280:368|280:368,1,140
256,240,41355,6,0,B|216:160|272:80|272:80,3,140
376,64,42827,2,0,B|312:112|464:112|360:200|360:200,1,140
376,240,43379,1,0
368,296,43563,1,0
152,304,44299,5,0
192,264,44483,1,0
296,312,44852,1,0
328,264,45036,1,0
256,184,45404,2,4,B|352:48|352:48,2,140
88,192,46876,6,0,B|88:112|88:112,2,70
88,248,47428,1,4
200,256,47796,2,0,B|200:336|200:336,2,70
312,256,48533,2,0,B|312:168|312:168|312:176,2,70
400,192,49269,2,0,B|400:344|400:344|408:344,2,140
400,136,50189,1,0
400,80,50373,5,0
296,40,50741,1,0
256,144,51109,1,0
152,192,51477,1,0
128,80,51845,1,0
256,192,52398,1,4
256,192,52582,1,4
256,24,53134,5,0
256,24,53318,2,0,B|288:136|320:168|472:192|472:192|320:216|288:248|256:376|256:376|224:248|192:216|40:192|40:192|168:176|192:144|240:80|240:80,1,1120,0|4
456,32,56999,5,0
456,144,57367,1,0
376,224,57735,2,0,B|256:368|256:368|256:200|256:200|176:352|56:256|24:200|32:80|144:80|176:64|176:64,1,770
256,136,60128,6,0,B|208:104|288:104|256:80|256:80,3,70,0|0|0|4
336,160,61048,1,0
256,240,61416,1,0
160,256,61784,1,0
160,200,61968,1,0
160,88,62336,2,0,B|160:-8|160:-8,3,70,0|0|0|4
256,152,63441,5,0
208,184,63625,1,0
176,288,63993,1,0
256,368,64361,2,0,B|320:392|368:376|392:312|392:312,1,140
376,280,64913,1,0
312,192,65281,2,0,B|272:192|248:224|248:256|248:256,3,70
480,176,66385,6,0,B|480:240|416:240|416:240,1,70
336,240,66937,2,0,B|368:256|400:304|344:360|344:360,2,140
296,208,67858,2,4,B|248:184|232:144|256:96|304:80|304:80,3,140
400,112,69330,5,0
424,160,69514,2,0,B|472:208|472:264|408:304|408:304,1,140,4|0
374,284,70066,2,0,B|328:272|316:183|383:142|383:142,1,140,4|0
400,56,70803,1,4
400,168,71171,2,0,B|400:256|400:256,7,70,0|0|0|0|0|0|0|4
256,216,72827,6,0,B|144:256|352:248|248:336|248:336,2,140
248,152,73747,2,0,B|168:96|352:96|256:48|256:48,1,140
200,40,74299,1,0
104,96,74668,1,4
168,256,75220,5,0
224,256,75404,1,0
336,272,75772,2,0,B|232:336|424:328|320:376|320:376,2,140
384,240,76692,1,4
288,184,77060,2,0,B|248:160|208:192|208:192,2,70,0|4|0
80,264,78164,5,0
80,264,78349,2,0,B|128:304|176:312|240:288|256:224|256:224,1,210,4|0
360,176,79269,2,0,B|272:96|256:40|240:96|144:184|144:184,1,280,0|4
256,192,80557,12,4,83870
256,128,87183,5,4
256,128,87367,1,0
200,224,87735,1,4
200,224,87919,1,0
312,224,88287,1,4
312,224,88471,1,4
