osu file format v7

[General]
AudioFilename: Happy Material (31 person ver. TV Size).mp3
AudioLeadIn: 0
PreviewTime: 59944
Countdown: 0
SampleSet: Normal
StackLeniency: 0.7
Mode: 0
LetterboxInBreaks: 1

[Editor]
DistanceSpacing: 0.800000011920929
BeatDivisor: 4
GridSize: 8

[Metadata]
Title:Happy Material (31 person ver. TV Size)
Artist:The Class of 2-A
Creator:Astom
Version:Insane
Source:Mahou Sensei Negima
Tags:Negi Ignacio Aizawa Mai Bandou Ai Deguchi Mami Horie Yui Inoue Naomi Ishige Sawa Itou Shizuka Inokuchi Yuka Kadowaki Kanda Akemi Kanou Mari Kimura Madoka Kobayashi Misa Yu Koyama Kimiko Kuwatani Natsuko Matsuoka Yuki Minagawa Junko Nonoka Noto Mamiko Omae Akane Osawa Chiaki Sakuma Miho Sasagawa Ayana Shimura Yumi Shiraishi Ryoko Shiratori Yuri Tanaka Hazuki Watanabe Akeno Yamakawa Kotomi Yamamoto Azumi

[Difficulty]
HPDrainRate:7
CircleSize:4
OverallDifficulty:7
SliderMultiplier:1.6
SliderTickRate:2

[Events]
//Background and Video events
0,0,"BG.jpg"
//Break Periods
2,17812,19105
2,84070,85179
//Storyboard Layer 0 (Background)
//Storyboard Layer 1 (Fail)
//Storyboard Layer 2 (Pass)
//Storyboard Layer 3 (Foreground)
//Storyboard Sound Samples
//Background Colour Transformations
3,100,163,162,255

[TimingPoints]
3257,368.098159509202,4,1,0,80,1,0
5557,-100,4,1,0,50,0,0
6109,-100,4,1,0,80,0,0
19913,-100,4,1,0,49,0,0
20649,-100,4,1,0,80,0,0
20833,-100,4,1,0,70,0,0
23042,-100,4,1,0,80,0,0
23226,-100,4,1,0,60,0,0
23594,-100,4,1,0,80,0,0
33901,-100,4,1,0,60,0,0
34269,-100,4,1,0,50,0,0
35557,-100,4,1,0,80,0,0
45312,-100,4,1,0,60,0,0
45680,-100,4,1,0,70,0,0
46048,-100,4,1,0,80,0,0
46784,-100,4,1,0,40,0,0
52858,-100,4,1,0,80,0,0
56626,-100,4,1,0,60,0,0
57275,-100,4,1,0,90,0,0
57643,-100,4,1,0,50,0,0
58011,-100,4,1,0,60,0,0
58379,-100,4,1,0,70,0,0
58747,-100,4,1,0,80,0,0
59115,-100,4,1,0,90,0,0
59483,-100,4,1,0,100,0,0
59939,-100,4,1,0,50,0,0
60680,-100,4,1,0,90,0,1
67766,-100,4,1,0,100,0,1
69054,-100,4,1,0,90,0,1
83865,-100,4,1,0,80,0,0
86171,-100,4,1,0,50,0,0
87091,-50,4,1,0,60,0,0
87643,-50,4,1,0,70,0,0
88195,-50,4,1,0,80,0,0

[Colours]
Combo1 : 255,255,0
Combo2 : 128,255,0

[HitObjects]
256,192,3256,1,0
256,128,3441,1,0
208,88,3625,1,0
144,88,3809,1,0
96,128,3993,1,0
88,192,4177,1,0
112,248,4361,1,0
160,288,4545,1,0
224,304,4729,5,4
352,280,4913,1,4
440,184,5097,1,4
448,56,5281,1,4
256,192,5649,6,0,B|216:176|208:144|256:96|288:64|256:32|256:32,1,160
263,51,6201,1,4
136,48,6569,1,0
40,136,6937,1,0
136,224,7306,6,0,B|200:312|312:24|224:328|352:272|352:272,1,240,4|0
400,280,8042,1,0
464,264,8226,1,0
488,200,8410,1,4
408,24,8962,5,0
352,48,9146,1,0
224,48,9514,1,0
336,112,9882,1,0
464,128,10250,1,0
424,176,10434,5,4
296,192,10803,1,4
232,184,10987,1,4
176,160,11171,1,4
48,288,11907,5,0
16,232,12091,2,0,B|-24:272|-16:320|16:352|72:352|72:352,1,160,4|0
112,312,12643,1,0
216,232,13011,2,0,B|240:168|288:144|336:176|360:224|360:224,1,160,4|0
392,240,13563,1,0
448,200,13747,1,0
352,32,14299,6,0,B|280:16|232:56|224:120|224:120,1,160
224,168,14852,1,0
248,224,15036,1,0
304,256,15220,1,0
368,240,15404,1,0
408,184,15588,1,0
400,120,15772,1,0
344,96,15956,1,0
288,128,16140,1,0
328,176,16324,1,4
256,192,16508,12,4,17612
248,344,20005,5,0
272,320,20097,1,0
280,288,20189,1,0
264,256,20281,1,0
240,232,20373,1,0
240,200,20465,1,0
256,168,20557,1,0
256,24,20925,5,4
192,24,21109,1,4
256,136,21477,1,4
320,136,21661,1,4
256,248,22030,1,4
192,248,22214,1,4
256,360,22582,1,4
320,360,22766,1,4
448,352,23134,1,4
448,288,23318,1,0
448,288,23410,1,0
448,288,23502,1,0
432,160,23870,5,0
368,160,24054,1,0
304,160,24238,1,0
256,120,24422,1,0
208,160,24606,1,0
144,160,24790,1,0
120,96,24974,1,0
144,32,25158,5,0
80,48,25342,1,0
40,104,25526,1,0
32,168,25710,1,0
32,232,25895,1,0
48,256,25987,1,0
80,264,26079,1,0
88,200,26263,1,0
344,192,26631,5,0
256,104,26815,1,0
248,352,27183,1,0
168,256,27367,1,0
256,24,27735,1,0
352,96,27919,1,0
256,184,28103,1,0
16,104,28471,1,0
272,104,28839,1,0
136,320,29207,1,0
328,272,29576,5,0
288,224,29760,2,0,B|312:176|296:144|240:136|256:48|256:48,1,160
200,40,30312,1,0
136,40,30496,1,0
82,75,30680,2,0,B|58:123|74:155|130:163|114:251|114:251,1,160,0|0
128,288,31232,5,0
192,304,31416,1,0
256,288,31600,1,0
304,248,31784,1,4
88,112,32520,5,0
136,152,32704,2,0,B|176:176|216:144|216:144,1,80
264,112,33072,1,0
320,88,33256,1,0
352,88,33349,1,0
376,112,33441,1,0
408,168,33625,1,0
456,288,33993,1,4
456,288,34177,1,0
392,288,34361,5,0
336,264,34545,1,0
288,224,34729,1,0
240,184,34913,1,4
192,224,35097,1,0
144,264,35281,1,0
88,288,35465,5,0
136,328,35649,1,0
240,256,36017,1,0
288,296,36201,1,0
344,328,36385,1,0
344,328,36569,1,0
376,200,36937,5,0
320,168,37122,1,0
320,104,37306,1,0
376,72,37490,1,0
432,104,37674,1,0
432,168,37858,1,0
376,200,38042,1,0
264,232,38410,5,0
208,192,38594,2,0,B|160:168|128:168|64:192|48:224|48:224,1,160
16,168,39146,1,0
128,104,39514,1,0
256,136,39882,5,0
128,360,40250,1,0
384,360,40618,1,0
256,136,40987,1,4
128,160,41355,5,0
168,208,41539,1,0
224,240,41723,1,0
288,240,41907,1,0
344,208,42091,1,0
392,168,42275,1,4
408,104,42459,1,4
288,64,42827,5,0
224,64,43011,1,0
288,64,43195,1,0
224,64,43379,1,0
288,64,43563,1,4
256,120,43747,1,0
256,120,43931,1,0
152,192,44299,5,0
200,232,44483,2,0,B|256:272|328:256|368:208|368:208,1,160,4|0
360,288,45036,2,0,B|336:312|248:336|184:296|184:296,1,160
152,280,45588,1,0
136,344,45772,2,0,B|192:376|248:384|304:376|304:376|312:368,1,160,4|0
352,360,46324,1,0
400,320,46508,5,0
384,288,46600,1,0
360,264,46692,1,0
336,288,46784,1,0
304,304,46876,5,0
264,256,47060,1,0
240,304,47244,1,0
208,256,47428,1,0
88,208,47796,5,0
88,280,47980,1,0
152,240,48164,1,0
88,280,48349,1,0
152,312,48533,1,0
88,280,48717,5,0
88,352,48901,1,0
88,280,49085,1,0
24,312,49269,1,0
88,280,49453,1,0
24,240,49637,1,0
88,280,49821,1,0
88,208,50005,5,0
104,136,50189,1,0
144,72,50373,1,0
216,48,50557,1,0
296,48,50741,1,0
368,72,50925,1,0
368,72,51017,1,0
368,72,51109,5,0
408,136,51293,1,0
432,208,51477,1,0
400,280,51661,1,0
344,328,51845,5,4
88,328,52214,1,4
216,328,52398,1,0
344,328,52582,1,4
256,192,53134,6,0,B|312:128|312:128|304:96|320:80|328:48|328:48|432:0|432:0|416:32|384:56|384:56|408:72|408:72|368:104|368:104|400:104|392:128|368:120|360:128|360:128|328:184|328:184|360:192|384:208|384:232|344:216|344:216|296:224|296:224|256:272|216:224|216:224|168:216|168:216|128:232|128:208|152:192|184:184|184:184|152:128|152:128|144:120|120:128|112:104|144:104|144:104|104:72|104:72|128:56|128:56|96:32|80:0|80:0|184:48|184:48|192:80|208:96|200:128|200:128,1,1360,0|4
256,360,56907,5,0
256,328,56999,1,0
256,264,57183,1,0
256,200,57367,1,0
256,72,57735,5,0
192,72,57919,1,0
224,128,58103,1,0
288,128,58287,1,0
320,72,58471,1,0
288,16,58655,1,0
224,16,58839,1,0
192,72,59023,1,0
224,128,59207,1,0
288,128,59391,1,0
320,72,59576,1,0
256,72,59760,1,4
184,176,60128,6,0,B|232:232|256:240|304:224|336:152|336:152,1,160
392,88,60680,1,4
256,304,61048,1,0
112,88,61416,1,0
128,216,61600,1,0
256,192,61784,5,0
384,184,61968,1,0
256,136,62152,1,0
128,128,62336,1,0
256,80,62520,1,0
384,64,62704,1,0
256,32,62888,1,4
256,224,63441,5,0
192,240,63625,2,0,B|240:328|336:280|320:216|320:216,3,160,0|4|4|0
352,192,64913,1,4
256,112,65281,2,0,B|208:112|184:144|184:144,3,80,0|0|0|4
256,304,66385,5,0
256,368,66569,1,0
256,240,66937,1,0
256,112,67306,1,0
256,240,67674,5,4
256,176,67858,1,4
256,48,68226,1,0
256,176,68594,1,0
256,48,68962,1,0
128,288,69330,5,4
80,168,69514,1,4
336,136,69882,1,0
320,264,70066,1,0
192,48,70434,1,0
256,192,70803,12,4,71539
256,192,71907,5,0
216,240,72091,1,0
160,216,72275,1,0
152,152,72459,1,4
256,72,72827,5,0
368,136,73195,1,0
336,264,73563,1,4
280,296,73747,1,4
152,320,74115,5,0
88,304,74299,1,0
48,256,74483,1,0
40,192,74668,1,4
224,104,75220,5,0
288,104,75404,1,0
256,224,75772,1,0
224,344,76140,1,0
288,344,76324,1,0
256,288,76508,1,0
256,224,76692,5,0
200,112,77060,1,4
256,88,77244,1,4
312,112,77428,1,4
256,360,78164,5,0
224,304,78349,1,0
288,304,78533,1,0
288,240,78717,1,0
224,240,78901,1,0
144,136,79269,5,0
200,104,79453,1,0
256,80,79637,1,0
312,104,79821,1,0
368,136,80005,1,0
256,288,80557,5,0
224,232,80741,1,0
288,232,80925,1,0
256,176,81109,1,0
320,176,81293,1,0
288,120,81477,1,0
224,120,81661,1,0
192,176,81845,1,4
256,64,82214,1,4
256,64,82398,1,4
256,192,82582,12,4,83870
256,40,86079,5,0
256,104,86263,1,0
256,104,86355,1,0
256,104,86447,2,0,L|256:160|256:160,4,40
256,296,87183,5,4
256,192,87367,1,4
144,32,87735,1,4
144,32,87919,1,4
368,32,88287,1,4
368,32,88471,1,4
