osu file format v5

[General]
AudioFilename: Zettai love x love Sengen!!.mp3
AudioLeadIn: 0
PreviewTime: 39758
Countdown: 0
SampleSet: Normal
StackLeniency: 0.7
Mode: 0
LetterboxInBreaks: 1
EditorBookmarks: 17379,39745,62822,74183,96549,119625,130985,170394,193471,213352,220985

[Metadata]
Title:Zettai love x love Sengen!!
Artist:The Children
Creator:DJPop
Version:Hard
Source:Zettai Karen Children
Tags:zettai karen children love sengen hirano aya shiraishi ryouko tomatsu haruka

[Difficulty]
HPDrainRate:5
CircleSize:5
OverallDifficulty:8
SliderMultiplier:1.5
SliderTickRate:2

[Events]
//Background and Video events
0,0,"Zettai love x love Sengen!!.png"
//Break Periods
2,63021,73433
2,119837,130247
//Storyboard Layer 0 (Background)
//Storyboard Layer 1 (Failing)
//Storyboard Layer 2 (Passing)
//Storyboard Layer 3 (Foreground)
//Storyboard Sound Samples
//Background Colour Transformations
3,100,128,128,128

[TimingPoints]
339,355.029585798817,4,1,0,100,1
28741,710.059171597633,4,1,0,100,1
34421,355.029585798817,4,1,0,100,1
85545,710.059171597633,4,1,0,100,1
91225,355.029585798817,4,1,0,100,1
119094,177.514792899408,4,1,0,100,1
119626,355.029585798817,4,1,0,100,1

[Colours]
Combo1 : 255,255,255
Combo2 : 255,69,0
Combo3 : 0,0,128
Combo4 : 178,43,226

[HitObjects]
256,192,17380,1,4
384,192,17735,1,2
464,112,18090,1,0
432,64,18267,1,0
352,128,18623,2,0,B|192:128,1,150
192,80,19155,1,0
112,32,19510,1,0
32,80,19865,1,0
80,144,20043,1,0
80,152,20131,1,0
80,160,20220,1,0
64,256,20575,5,2
64,320,20753,1,2
192,192,21108,1,0
192,256,21285,1,0
192,320,21463,1,0
448,256,21995,1,0
448,320,22173,1,0
320,320,22528,1,2
320,192,22883,1,2
320,184,22972,1,0
320,176,23060,1,0
256,64,23415,5,2
160,128,23770,1,0
112,96,23948,1,0
32,160,24303,2,0,B|32:320,1,150
80,320,24836,1,0
176,272,25191,1,0
272,224,25546,1,0
240,160,25723,1,0
248,152,25812,1,0
256,144,25901,1,0
384,48,26256,5,2
448,48,26433,1,2
320,144,26788,1,0
384,144,26966,1,0
448,144,27143,1,0
384,336,27676,1,0
448,336,27853,1,0
320,240,28208,1,2
384,240,28386,1,0
448,240,28563,1,2
480,192,28741,6,0,B|400:192,1,75,4|0
368,192,29273,2,0,B|240:192,1,112.5
224,192,29983,1,4
128,128,30338,1,0
96,128,30516,1,0
64,144,30693,1,0
48,176,30871,1,2
48,208,31048,1,0
64,240,31226,1,2
96,256,31403,1,0
128,256,31581,6,0,B|208:256,1,75,4|0
240,256,32113,2,0,B|368:256,1,112.5
384,256,32823,1,4
384,112,33178,1,0
384,80,33356,1,0
368,48,33533,1,0
336,32,33711,1,2
304,32,33888,1,0
272,48,34066,1,2
256,80,34243,1,0
256,112,34421,6,0,B|239:192|144:192,1,150,4|0
80,192,34953,2,0,B|92:288|176:288,1,150
240,288,35486,2,0,B|253:192|336:192,1,150
400,192,36018,1,0
464,192,36196,1,2
448,64,36551,6,0,B|368:64,1,75,4|0
352,128,36906,2,0,B|272:128,1,75,4|0
256,64,37261,1,4
48,48,37793,1,0
256,192,38326,1,4
256,192,38503,1,4
104,176,38858,1,0
96,184,38947,1,0
88,192,39036,1,0
56,248,39213,1,0
80,304,39391,1,0
88,312,39480,1,0
96,320,39568,1,0
160,336,39746,5,0
224,336,39923,2,4,C|296:336|352:315|384:274|399:224|399:174|384:123|355:84|300:64|224:64,1,525,4|0
192,144,41521,1,0
272,176,41876,1,0
240,224,42054,1,0
320,256,42409,1,0
288,336,42764,6,0,C|216:336|160:315|128:274|113:224|113:174|128:123|157:84|212:64|288:64,1,525
320,144,44361,1,0
240,176,44716,1,0
272,224,44894,1,0
192,256,45249,1,0
224,336,45604,6,0,C|384:336,1,150
416,336,46136,1,0
464,336,46314,1,0
464,192,46847,1,0
432,128,47024,1,0
400,192,47202,1,0
288,128,47557,1,0
256,192,47734,1,0
224,128,47912,1,0
112,192,48267,1,0
64,64,48622,6,0,C|100:76|112:112,1,75,2|0
176,112,48977,2,0,C|212:100|224:64,1,75,2|0
288,64,49332,2,0,C|324:76|336:112,1,75,2|0
400,112,49687,1,2
448,64,49864,2,4,C|480:96|448:128|480:160|448:192|480:224|448:256|480:288|447:323,1,375,4|0
448,320,50929,1,0
288,336,51284,6,4,C|216:336|160:315|128:274|113:224|113:174|128:123|157:84|212:64|288:64,1,525,4|0
320,144,52882,1,0
240,176,53237,1,0
272,224,53415,1,0
192,256,53770,1,0
224,336,54125,6,0,C|296:336|352:315|384:274|399:224|399:174|384:123|355:84|300:64|224:64,1,525
192,144,55722,1,0
272,176,56077,1,0
240,224,56255,1,0
320,256,56610,1,0
288,336,56965,6,0,C|128:336,1,150
96,336,57497,1,0
48,336,57675,1,0
48,192,58207,1,0
80,128,58385,1,0
112,192,58563,1,0
224,128,58918,1,0
256,192,59095,1,0
288,128,59273,1,0
400,192,59628,1,0
448,64,59983,6,0,C|412:76|400:112,1,75,2|0
336,112,60338,2,0,C|300:100|288:64,1,75,2|0
224,64,60693,2,0,C|188:76|176:112,1,75,2|0
112,112,61048,1,2
64,64,61225,2,4,C|32:96|64:128|32:160|64:192|32:224|64:256|32:288|64:320|32:288|64:256|32:224|64:192|32:160|64:128|32:96,1,675
256,192,74184,5,4
176,272,74539,1,2
96,352,74894,1,0
48,336,75071,1,0
64,224,75426,2,0,C|16:80,1,150
64,32,75959,2,0,B|112:32|144:48|160:80|160:128,2,150
80,96,76847,1,0
88,104,76935,1,0
96,112,77024,1,0
224,192,77379,6,0,B|176:256,2,75,2|2|0
288,192,77912,2,0,B|336:256,2,75,0|0|0
224,352,78799,1,0
288,352,78977,1,0
256,272,79332,1,2
256,176,79687,1,2
256,184,79776,1,0
256,192,79864,1,0
336,272,80219,5,2
416,352,80574,1,0
464,336,80752,1,0
448,224,81107,2,0,C|496:80,1,150
448,32,81639,2,0,B|400:32|368:48|352:80|352:128,2,150
432,96,82527,1,0
424,104,82616,1,0
416,112,82705,1,0
288,192,83060,6,0,B|336:256,2,75,2|2|0
224,192,83592,2,0,B|176:256,2,75
288,352,84480,1,0
224,352,84657,1,0
256,272,85012,1,2
256,208,85190,1,0
256,144,85367,1,2
256,80,85545,6,0,B|176:48,1,75,4|0
144,48,86077,2,0,B|32:112,1,112.5
32,144,86787,1,4
96,192,87142,1,0
128,208,87320,1,0
160,208,87497,1,0
192,192,87675,1,2
208,160,87852,1,0
208,128,88030,1,2
224,96,88207,1,0
256,80,88385,6,0,B|336:48,1,75,4|0
368,48,88917,2,0,B|480:112,1,112.5
480,144,89627,1,4
416,192,89982,1,0
384,208,90160,1,0
352,208,90337,1,0
320,192,90515,1,2
304,160,90692,1,0
304,128,90870,1,2
288,96,91047,1,0
256,80,91225,6,0,B|239:160|144:160,1,150,4|0
144,96,91757,2,0,B|64:112|64:208,1,150
128,208,92290,2,0,B|144:288|240:288,1,150
240,224,92822,1,0
240,160,93000,1,2
352,64,93355,6,4,B|400:64|400:112,1,75,4|0
464,112,93710,2,4,B|464:160|416:160,1,75,4|0
368,160,94065,1,4
464,336,94597,1,0
256,192,95130,1,4
256,192,95307,1,4
192,96,95662,1,0
184,88,95751,1,0
176,80,95840,1,0
120,48,96017,1,0
64,72,96195,1,0
56,80,96284,1,0
48,88,96372,1,0
32,144,96550,5,0
32,208,96727,2,4,C|40:269|101:333|179:332|227:282|221:212|167:157|96:144,1,525,4|0
112,224,98325,2,0,C|272:192,1,150
304,208,98858,1,0
384,240,99213,1,0
480,208,99568,6,0,C|472:269|411:333|333:332|285:282|291:212|345:157|416:144,1,525
400,224,101165,2,0,C|240:192,1,150
208,208,101698,1,0
128,240,102053,1,0
48,208,102408,6,0,B|75:140|139:102|224:80,1,225
289,80,103118,2,0,B|373:102|437:140|464:208,1,150
448,208,103651,1,0
464,272,103828,1,0
464,336,104006,2,0,B|304:336,1,150
256,336,104538,1,0
256,272,104716,2,0,B|256:112,1,150
256,32,105426,6,0,B|336:32,1,75,2|0
256,32,105781,2,0,B|176:32,1,75,2|0
256,32,106136,2,0,B|336:32,1,75,2|0
256,32,106491,1,2
176,32,106668,2,4,C|176:80|144:80|144:128|112:128|112:176|80:176|80:224|48:224|48:272,1,375,4|0
47,267,107733,1,0
32,176,108088,6,4,C|40:115|101:51|179:52|227:102|221:172|167:227|96:240,1,525,4|0
112,160,109686,2,0,C|272:192,1,150
304,176,110219,1,0
384,144,110574,1,0
480,176,110929,6,0,C|472:115|411:51|333:52|285:102|291:172|345:227|416:240,1,525
400,160,112526,2,0,C|240:192,1,150
208,176,113059,1,0
128,144,113414,1,0
48,176,113769,6,0,B|75:244|139:282|224:304,1,225
289,303,114479,2,0,B|373:282|437:244|464:176,1,150
448,176,115011,1,0
464,112,115189,1,0
464,48,115367,2,0,B|304:48,1,150
256,48,115899,1,0
256,112,116077,2,0,B|256:272,1,150
256,352,116787,6,0,B|176:352,1,75,2|0
256,352,117142,2,0,B|336:352,1,75,2|0
256,352,117497,2,0,B|176:352,1,75,2|0
256,352,117852,1,2
336,352,118029,2,4,C|336:304|368:304|368:256|400:256|400:208|432:208|432:160|464:160|464:112,1,375,4|0
480,48,119094,2,6,C|16:48,1,450,6|4
256,192,130986,5,4
192,128,131341,1,8
192,128,131519,1,8
192,128,131874,1,8
320,128,132762,1,8
320,128,132939,1,8
320,128,133294,1,8
320,256,134182,1,8
320,256,134359,1,8
320,256,134714,1,8
192,256,135602,1,8
192,256,135779,1,8
192,256,136134,1,8
256,192,136667,5,4
256,64,137022,1,8
256,64,137199,1,8
256,64,137554,1,8
384,192,138442,1,8
384,192,138620,1,8
384,192,138975,1,8
256,320,139862,1,8
256,320,140040,1,8
256,320,140395,1,8
128,192,141282,1,8
128,192,141460,1,8
128,192,141815,1,8
64,64,142347,5,4
192,64,142880,1,4
320,64,143412,1,4
448,64,143945,1,4
448,240,144300,1,0
448,248,144389,1,0
448,256,144478,1,8
448,264,144566,1,0
448,272,144655,1,0
448,280,144744,1,0
448,288,144833,1,8
448,296,144921,1,0
448,304,145010,1,0
448,312,145099,1,0
448,320,145188,5,4
320,320,145720,1,4
192,320,146253,1,4
64,320,146785,1,4
128,192,147318,1,8
256,192,147673,5,8
256,192,147850,1,4
320,128,148205,1,2
192,128,148560,1,2
192,256,148915,1,2
320,256,149270,1,2
256,192,149448,1,4
192,128,149626,1,2
320,128,149981,1,2
320,256,150336,1,2
192,256,150691,1,2
256,192,150868,5,4
320,128,151046,1,2
192,128,151401,1,2
192,256,151756,1,2
320,256,152111,1,2
256,192,152288,1,4
192,128,152466,1,2
320,128,152821,1,2
256,192,152998,1,0
256,192,153087,1,0
256,192,153176,1,2
192,256,153353,1,8
128,320,153531,6,0,C|112:336|96:320|80:336|49:334|48:304|64:288|48:272|64:256|48:240,1,225,4|0
64,192,154241,2,0,C|46:173|64:160|45:144|64:128|46:112|64:96,1,150
48,48,154773,1,0
112,48,154951,1,0
176,48,155128,2,0,C|208:128,1,75
240,48,155483,1,0
304,48,155661,1,0
368,48,155839,2,0,C|400:128,1,75
452,117,156194,2,0,C|480:32,1,75
424,48,156549,6,0,C|424:128,1,75,2|0
424,123,156904,2,0,C|424:200,1,75,2|0
424,198,157259,2,0,C|424:280,1,75,2|0
424,273,157614,2,0,B|424:352,1,75,0|4
328,336,158146,1,0
320,328,158235,1,0
312,320,158324,1,0
256,336,158501,1,0
200,320,158679,1,0
192,328,158768,1,0
184,336,158856,1,0
128,320,159034,1,0
64,335,159211,6,4,C|64:104|48:104|48:336,1,525,4|0
128,256,160809,1,0
216,192,161164,1,0
280,192,161341,1,0
368,256,161697,1,0
447,335,162052,6,0,C|447:104|464:104|464:336,1,525
384,256,163649,1,0
296,192,164004,1,0
232,192,164182,1,0
144,256,164537,1,0
64,336,164892,6,0,B|205:336|256:240,1,225
255,241,165602,2,0,B|304:336|400:336,1,150
366,332,166134,1,0
416,288,166312,1,0
464,336,166489,2,0,B|504:264|464:192,3,150
464,48,167910,6,0,B|504:120|464:192,1,150,2|2
336,208,168620,2,0,B|304:208|297:192|304:176|336:176,3,75,2|0|2|4
160,224,169507,1,0
112,256,169685,1,0
64,240,169862,1,0
48,192,170040,1,0
64,144,170217,1,0
112,128,170395,1,0
160,160,170572,1,4
112,192,170927,5,0
104,192,171016,1,0
112,192,171105,1,6
224,192,171460,1,0
288,192,171637,1,4
352,192,171815,1,2
480,192,172170,2,0,B|480:272,1,75
416,256,172525,1,0
416,192,172702,1,0
288,192,173057,2,0,B|208:192,1,75
160,192,173412,1,0
152,192,173501,1,0
144,192,173590,1,0
80,192,173768,5,0
80,256,173945,1,2
208,256,174300,1,0
272,256,174478,1,0
336,256,174655,1,2
464,256,175010,2,0,B|464:176,1,75
400,192,175365,1,0
400,256,175543,1,0
272,256,175898,2,0,B|192:256,1,75
144,256,176253,1,0
136,256,176341,1,0
128,256,176430,1,0
64,256,176608,5,0
64,192,176785,1,2
64,128,176963,1,0
192,128,177318,1,0
192,192,177495,1,2
256,192,177673,1,0
256,128,177850,1,0
384,128,178205,1,2
448,160,178383,1,0
384,192,178560,1,0
448,224,178738,1,0
384,256,178915,1,2
256,256,179270,6,0,B|176:256,1,75,2|0
181,192,179626,2,0,B|272:192,1,75,2|0
256,128,179981,2,0,B|176:128,1,75,2|0
181,192,180336,2,0,B|272:192,1,75,2|4
432,320,180868,1,0
440,312,180957,1,0
448,304,181046,1,0
432,248,181223,1,0
448,192,181401,1,0
440,184,181489,1,0
432,176,181578,1,0
448,120,181756,1,0
432,64,181933,6,4,B|272:64,1,150,4|0
240,112,182466,1,6
336,112,182821,1,0
288,160,182998,1,0
240,208,183176,1,2
336,208,183531,2,0,B|272:272,1,75
240,304,183886,1,0
192,256,184063,1,0
288,160,184418,2,0,B|224:96,1,75
176,96,184773,5,0
168,96,184862,1,0
160,96,184951,2,2,B|96:160,1,75,2|0
160,192,185306,1,2
208,144,185483,1,2
208,240,185839,1,2
256,192,186016,1,0
304,144,186194,1,2
352,192,186371,2,2,C|288:256,1,75,2|0
256,288,186726,1,2
208,240,186904,1,2
208,336,187259,1,2
160,288,187436,1,0
112,240,187614,5,2
112,232,187702,1,0
112,224,187791,2,0,C|48:160,1,75
112,128,188146,1,2
64,80,188324,1,0
208,128,188679,1,2
160,80,188856,1,0
208,32,189034,1,2
256,80,189211,2,0,C|320:144,1,75
256,176,189566,1,2
304,224,189744,2,0,C|368:160,1,75
400,224,190099,1,2
448,176,190276,1,0
448,112,190454,5,2
448,104,190543,1,0
448,96,190631,2,0,C|384:32,1,75,2|0
352,96,190986,2,0,C|288:32,1,75,2|0
256,96,191341,1,2
208,144,191519,1,0
160,192,191697,1,2
112,240,191874,1,4
256,336,192229,1,2
256,272,192407,1,0
256,256,192495,1,0
256,240,192584,1,2
256,176,192762,1,0
256,160,192850,1,0
256,144,192939,1,2
256,80,193117,1,0
256,64,193205,1,0
256,48,193294,1,2
352,48,193472,5,4
416,48,193649,1,0
416,112,193827,1,0
416,176,194004,2,0,C|480:240,1,75
480,288,194359,2,0,C|416:352,1,75
384,288,194714,2,0,C|320:224,1,75
320,176,195069,1,0
320,112,195247,2,0,C|256:48,1,75
224,112,195602,2,0,C|160:176,1,75
128,112,195957,1,0
64,160,196134,2,0,B|32:192,2,37.5
112,224,196489,5,0
176,224,196667,1,0
176,288,196844,2,0,C|112:352,1,75
80,288,197199,2,0,C|16:224,1,75
80,192,197554,2,0,C|144:128,1,75
80,96,197910,1,0
80,32,198087,1,0
144,32,198265,1,0
152,40,198353,1,0
160,48,198442,1,0
168,56,198531,1,0
176,64,198620,1,0
184,72,198708,1,0
192,80,198797,1,0
200,88,198886,1,0
208,96,198975,1,0
216,104,199063,1,0
224,112,199152,5,0
224,176,199330,1,0
288,176,199507,1,0
288,112,199685,2,0,C|352:48,1,75
394,58,200040,2,0,C|448:112,1,75
448,176,200395,2,0,C|384:240,1,75
392,288,200750,1,0
328,288,200927,2,0,C|264:224,1,75
221,235,201282,2,0,C|167:288,1,75
104,288,201637,2,0,C|40:224,1,75
44,247,201904,1,0
40,256,201992,5,2
104,224,202170,1,0
40,192,202347,1,0
104,160,202525,1,2
40,128,202702,1,2
104,96,202880,1,0
40,64,203057,1,0
104,32,203235,1,4
240,64,203590,1,0
256,64,203679,1,0
272,64,203768,1,2
256,128,203945,1,4
240,192,204123,1,0
256,192,204211,1,0
272,192,204300,1,2
256,256,204478,1,0
240,320,204655,1,2
256,320,204744,1,0
272,320,204833,1,4
352,320,205010,5,0
416,288,205188,1,0
448,224,205365,1,0
448,160,205543,1,0
416,96,205720,1,0
352,64,205898,1,0
288,64,206075,2,0,C|208:64,1,75,0|0
160,64,206430,1,0
96,96,206608,1,0
64,160,206785,1,0
64,224,206963,1,0
96,288,207140,1,0
160,320,207318,1,0
224,320,207495,2,0,B|208:280,1,37.5
192,256,207673,5,0
160,192,207850,1,0
192,128,208028,1,0
256,96,208205,1,0
320,128,208383,1,0
352,192,208560,1,0
320,256,208738,1,0
256,288,208915,2,0,C|256:208,1,75,0|0
224,160,209270,1,0
288,160,209448,1,0
256,96,209626,1,0
264,88,209714,1,0
272,80,209803,1,0
280,72,209892,1,0
288,64,209981,1,0
296,56,210069,1,0
304,64,210158,1,0
312,72,210247,1,0
320,80,210336,1,0
328,88,210424,1,0
336,96,210513,5,0
400,96,210691,1,0
464,128,210868,1,0
480,192,211046,1,0
464,256,211223,1,0
400,288,211401,1,0
336,288,211578,1,0
336,224,211756,2,0,C|336:144,1,75,0|0
272,128,212111,1,0
208,160,212288,1,0
144,192,212466,1,0
208,224,212643,1,0
272,256,212821,1,0
272,192,212998,1,0
280,192,213087,1,0
288,192,213176,1,0
296,192,213265,1,0
304,192,213353,5,4
384,192,213531,1,0
432,256,213708,1,0
480,192,213886,1,0
432,128,214063,1,0
384,192,214241,1,0
336,128,214418,1,0
304,64,214596,6,6,C|256:120|208:64,1,150
160,128,215128,1,0
112,192,215306,1,0
64,128,215483,1,0
16,192,215661,1,2
64,256,215839,1,2
112,320,216016,1,2
112,320,216105,1,0
112,320,216194,5,2
160,256,216371,1,0
208,192,216549,1,0
256,256,216726,1,0
304,192,216904,1,0
352,256,217081,1,0
400,320,217259,1,0
448,256,217436,6,6,C|487:192|448:128,1,150
400,64,217969,1,0
352,128,218146,1,0
304,192,218324,1,2
256,256,218501,1,2
208,320,218679,1,2
192,336,218768,1,0
176,320,218856,1,2
192,304,218945,1,0
112,160,219211,5,2
160,80,219389,1,2
208,160,219566,1,2
256,80,219744,1,2
304,160,219921,1,2
352,80,220099,1,2
400,160,220276,1,2
352,304,220631,1,2
256,304,220809,1,2
160,304,220986,1,6
