osu file format v5

[General]
AudioFilename: Zettai love x love Sengen!!.mp3
AudioLeadIn: 0
PreviewTime: 39758
Countdown: 0
SampleSet: Normal
StackLeniency: 0.7
Mode: 0
LetterboxInBreaks: 1
EditorBookmarks: 17379,39746,62823,74184,96551,119627,130988,147675,170397,193474,213355,220988

[Metadata]
Title:Zettai love x love Sengen!!
Artist:The Children
Creator:DJPop
Version:Easy
Source:Zettai Karen Children
Tags:zettai karen children love sengen hirano aya shiraishi ryouko tomatsu haruka

[Difficulty]
HPDrainRate:0
CircleSize:5
OverallDifficulty:1
SliderMultiplier:1
SliderTickRate:2

[Events]
//Background and Video events
0,0,"Zettai love x love Sengen!!.png"
//Break Periods
2,63033,73295
2,119845,129326
//Storyboard Layer 0 (Background)
//Storyboard Layer 1 (Failing)
//Storyboard Layer 2 (Passing)
//Storyboard Layer 3 (Foreground)
//Storyboard Sound Samples
//Background Colour Transformations
3,100,128,128,128

[TimingPoints]
339,355.029585798817,4,1,0,100,1

[Colours]
Combo1 : 255,255,255
Combo2 : 255,69,0
Combo3 : 0,0,128
Combo4 : 178,43,226

[HitObjects]
256,192,17380,1,4
192,256,18090,1,0
128,192,18800,1,0
192,128,19510,1,0
128,64,20220,1,0
64,128,20930,1,0
128,192,21640,1,0
64,256,22350,1,0
128,320,23060,5,0
192,256,23770,1,0
256,192,24481,1,0
320,256,25191,1,0
384,320,25901,1,0
448,256,26611,1,0
384,192,27321,1,0
448,128,28031,1,0
384,64,28741,5,4
256,128,29983,1,4
160,192,30871,1,2
224,256,31581,1,4
352,192,32824,1,4
448,128,33711,1,2
384,64,34421,5,4
320,128,35131,1,0
256,64,35841,1,0
192,128,36552,1,4
192,128,36907,1,4
192,128,37262,1,4
160,224,37794,1,0
64,288,38327,1,4
64,288,38504,1,4
320,256,39747,5,0
320,256,39924,1,4
416,224,40457,1,0
480,160,41167,1,0
416,96,41877,1,0
352,160,42587,1,0
416,224,43297,1,0
352,288,44007,1,0
288,224,44717,1,0
224,160,45427,1,0
288,96,46137,5,0
224,32,46847,1,0
160,96,47557,1,0
224,160,48267,1,0
192,192,48623,1,2
160,224,48978,1,2
128,256,49333,1,2
96,288,49688,1,2
96,288,49865,1,4
256,320,50930,5,0
288,288,51285,1,4
384,256,51818,1,4
448,192,52528,1,0
384,128,53238,1,0
320,192,53948,1,0
256,128,54658,1,0
192,64,55368,1,0
128,128,56078,1,0
192,192,56788,1,0
128,256,57498,5,0
192,320,58208,1,0
256,256,58918,1,0
320,192,59628,1,0
288,160,59983,1,2
256,128,60338,1,2
224,96,60694,1,2
224,96,60871,1,0
224,96,61049,1,2
224,96,61226,1,4
256,192,62824,1,4
256,192,74178,5,4
320,128,74895,1,0
384,192,75605,1,0
320,256,76315,1,0
384,320,77025,1,0
448,256,77735,1,0
384,192,78445,1,0
448,128,79155,1,0
384,64,79865,5,0
320,128,80575,1,0
256,64,81285,1,0
192,128,81995,1,0
256,192,82705,1,0
192,256,83415,1,0
128,320,84125,1,0
64,256,84836,1,0
128,192,85546,5,4
256,128,86788,1,4
384,160,87676,1,2
320,224,88386,1,4
192,192,89628,1,4
64,256,90516,1,2
128,320,91226,5,0
192,256,91936,1,0
256,320,92646,1,0
320,256,93356,1,4
320,256,93711,1,4
320,256,94066,1,4
416,224,94599,1,0
448,128,95131,1,4
448,128,95309,1,4
192,96,96551,5,0
192,96,96729,1,4
96,160,97262,1,0
32,224,97972,1,0
96,288,98682,1,0
160,224,99392,1,0
224,160,100102,1,0
288,224,100812,1,0
352,288,101522,1,0
416,224,102232,1,0
352,160,102942,5,0
416,96,103652,1,0
352,32,104362,1,0
288,96,105072,1,0
320,128,105427,1,2
352,160,105782,1,2
384,192,106137,1,2
416,224,106492,1,2
416,224,106670,1,4
288,320,107735,5,0
256,288,108090,1,4
160,320,108623,1,4
96,256,109333,1,0
160,192,110043,1,0
224,256,110753,1,0
288,192,111463,1,0
224,128,112173,1,0
160,64,112883,1,0
96,128,113593,1,0
160,192,114303,5,0
224,128,115013,1,0
288,64,115723,1,0
352,128,116433,1,0
384,160,116788,1,2
416,192,117143,1,2
448,224,117498,1,2
448,224,117676,1,0
448,224,117853,1,2
448,224,118031,1,4
186,192,119096,2,6,B|336:192,1,150,6|4
416,288,130989,5,6
416,288,131522,1,2
416,288,132054,1,2
416,288,132587,1,2
96,288,133830,1,2
96,288,134362,1,2
96,288,134895,1,2
96,288,135427,1,2
64,64,136670,5,4
128,128,137380,1,0
192,192,138090,1,0
256,128,138800,1,0
320,64,139510,1,0
384,128,140220,1,0
448,192,140930,1,0
384,256,141640,1,0
320,320,142350,5,6
320,320,142883,1,6
320,320,143415,1,6
64,256,145191,5,6
64,256,145723,1,6
64,256,146256,1,6
256,192,147667,5,0
256,192,147853,1,4
256,192,149451,1,4
256,192,150871,1,4
256,192,152291,1,4
256,192,153534,1,4
352,224,154066,5,0
416,160,154776,1,0
352,96,155486,1,0
288,160,156196,1,0
256,128,156552,1,2
224,96,156907,1,2
192,64,157262,1,2
160,32,157617,1,2
160,32,157794,1,4
128,192,158859,5,0
96,224,159214,1,4
128,320,159747,1,0
192,256,160457,1,0
256,320,161167,1,0
320,256,161877,1,0
256,192,162587,1,0
320,128,163297,1,0
384,192,164007,1,0
448,256,164717,1,0
384,320,165427,5,0
320,256,166137,1,0
256,192,166847,1,0
192,128,167557,1,0
160,160,167912,1,2
128,192,168267,1,2
96,224,168623,1,2
96,224,168800,1,0
96,224,168978,1,2
96,224,169155,1,4
256,288,170398,5,0
256,288,170575,1,0
256,192,171108,1,4
256,96,171640,1,6
352,32,172528,1,0
416,96,173238,1,0
352,160,173948,1,0
288,96,174658,1,0
224,160,175368,1,0
288,224,176078,1,0
352,160,176788,5,0
288,96,177498,1,0
224,32,178208,1,0
160,96,178918,1,0
128,128,179273,1,2
160,160,179628,1,2
128,192,179983,1,2
160,224,180339,1,2
160,224,180516,1,4
320,256,181581,5,0
352,288,181936,1,4
448,256,182469,1,4
384,192,183179,1,0
320,128,183889,1,0
384,64,184599,1,0
448,128,185309,1,0
384,192,186019,1,0
320,256,186729,1,0
256,192,187439,1,0
320,128,188149,5,0
256,64,188859,1,0
192,128,189569,1,0
128,192,190279,1,0
160,224,190634,1,2
128,256,190989,1,2
160,288,191344,1,2
160,288,191522,1,0
160,288,191699,1,2
160,288,191877,1,4
384,256,193475,5,4
352,224,193830,1,0
352,224,194007,1,0
320,192,194362,1,0
288,160,194717,1,0
192,160,195250,1,0
160,128,195605,1,0
128,96,195960,1,0
96,128,196315,1,0
64,160,196670,1,0
64,160,196847,1,0
96,192,197202,1,0
128,224,197557,1,0
160,192,197912,1,0
160,192,198090,1,0
288,320,199155,5,0
320,288,199510,1,0
320,288,199688,1,0
352,256,200043,1,0
384,224,200398,1,0
384,128,200930,1,0
352,96,201285,1,0
320,64,201640,1,0
288,96,201995,1,2
288,192,202528,1,2
288,192,202705,1,2
192,192,203238,1,4
96,288,203948,1,4
64,64,204836,5,4
96,96,205191,1,0
96,96,205368,1,0
128,128,205723,1,0
128,128,206078,1,0
128,224,206611,1,0
160,256,206966,1,0
192,288,207321,1,0
224,320,207676,1,0
256,288,208031,1,0
256,288,208208,1,0
288,320,208563,1,0
320,288,208918,1,0
352,320,209273,1,0
352,320,209451,1,0
480,160,210516,5,0
448,128,210871,1,0
448,128,211049,1,0
416,96,211404,1,0
384,64,211759,1,0
288,64,212291,1,0
256,96,212646,1,0
224,128,213001,1,0
192,160,213356,1,4
64,224,214599,1,4
128,320,215486,1,2
192,256,216196,1,4
320,320,217439,1,4
384,224,218327,1,2
256,192,219214,5,2
256,192,219747,1,2
256,192,220279,1,2
256,192,220634,1,2
256,192,220982,1,6
