osu file format v7

[General]
AudioFilename: Nagareboshi Romantic.mp3
AudioLeadIn: 0
PreviewTime: 52396
Countdown: 0
SampleSet: Normal
StackLeniency: 0.4
Mode: 0
LetterboxInBreaks: 1

[Editor]
Bookmarks: 17051,28086,39120,52913,63948,74982,86017,97051,108086,121879,132913,143948,154982,166017,174293,185327,196362,201879,215672
DistanceSpacing: 0.75
BeatDivisor: 4
GridSize: 32

[Metadata]
Title:Nagareboshi Romantic
Artist:The Children
Creator:DJPop
Version:Normal
Source:Zettai Karen Children
Tags:hirano aya shiraishi ryouko tomatsu haruka akashi kaoru nogami aoi sannomiya shiho

[Difficulty]
HPDrainRate:4
CircleSize:5
OverallDifficulty:5
SliderMultiplier:1.28
SliderTickRate:2

[Events]
//Background and Video events
0,0,"Nagareboshi Romantic.png"
//Break Periods
2,75182,84817
2,145872,152748
//Storyboard Layer 0 (Background)
//Storyboard Layer 1 (Fail)
//Storyboard Layer 2 (Pass)
//Storyboard Layer 3 (Foreground)
//Storyboard Sound Samples
//Background Colour Transformations
3,100,0,0,0

[TimingPoints]
500,344.827586206897,4,1,0,75,1,0
44637,-100,4,1,2,0,0,0
44810,-100,4,1,0,75,0,0
145327,-100,4,1,2,0,0,0
152913,-100,4,1,0,75,0,0
174120,-200,4,1,1,75,0,0
179551,-100,4,1,2,0,0,0
179724,-100,4,1,1,75,0,0
200500,-100,4,1,2,0,0,0
201620,-100,4,1,1,75,0,0

[Colours]
Combo1 : 255,255,255
Combo2 : 255,70,0
Combo3 : 0,0,191
Combo4 : 176,31,224

[HitObjects]
256,208,17051,5,4
256,304,17396,1,0
320,368,17741,2,0,B|459:392|480:303,2,192
224,368,19120,1,0
128,368,19465,1,0
32,368,19810,6,0,C|32:176,1,192
96,112,20672,2,0,C|96:240,1,128
96,48,21706,1,0
96,48,21879,1,0
192,48,22224,1,0
288,48,22568,6,0,C|480:48,2,192
288,144,23948,2,0,C|96:144,2,192
288,239,25327,6,0,B|466:239|480:368,1,256
384,368,26362,1,0
384,368,26534,1,0
320,304,26879,1,2
320,304,27051,2,0,B|298:380|224:368,2,128,2|2|2
224,272,28086,6,0,C|224:80,3,192,4|0|0|0
128,80,29982,2,0,C|128:272,1,192
32,272,30844,6,0,B|32:391|162:368,1,192
256,336,31706,1,0
352,304,32051,2,0,B|480:257|480:176,1,192
480,80,32913,1,0
384,48,33258,1,0
288,48,33603,6,0,C|96:48,2,192
256,144,34982,2,0,C|448:144,2,192
160,144,36362,6,0,C|32:144,2,128,4|0|0
96,272,37568,1,4
96,368,37913,2,2,C|152:336|208:368|257:333|304:368|360:336|416:368,1,384
480,240,39465,5,0
384,208,39810,1,4
480,176,40155,2,0,B|480:48|344:48|320:144,1,256
288,240,41189,1,0
192,208,41534,1,0
160,304,41879,6,2,B|112:288|88:256|66:208|88:160|112:128|160:112,4,256,6|2|2|2|0
256,336,44982,5,0
352,368,45327,1,4
416,304,45672,2,0,B|448:272|480:240|504:240|513:207|504:176|480:176|448:144|416:112,1,256
352,48,46706,1,0
256,80,47051,1,0
160,48,47396,6,2,B|16:32|9:142|16:224|210:208,1,384,6|2
305,207,48775,2,2,B|496:192|503:274|496:384|352:368,1,384,6|2
352,368,49982,1,4
256,368,50327,5,2
256,368,50500,1,2
160,368,50844,1,2
64,368,51189,1,2
64,368,51362,1,2
448,48,52396,5,0
448,48,52568,1,0
352,48,52913,1,4
256,48,53258,1,0
256,48,53431,2,0,C|128:48,2,128
256,144,54465,2,0,C|384:144,2,128,2|2|2
256,240,55500,5,0
256,240,55672,2,0,C|64:240,1,192
64,336,56534,1,0
160,336,56879,2,0,C|416:336,1,256,4|4
480,208,58086,1,0
416,144,58431,6,0,B|404:69|480:48,2,128,4|0|0
352,208,59465,1,0
352,208,59637,1,0
288,144,59982,2,0,B|300:69|224:48,2,128,2|2|2
128,144,61189,6,0,B|53:156|32:80,2,128,4|0|0
128,240,62224,1,0
128,240,62396,2,2,B|120:368|160:384|224:376|256:370|288:376|352:384|392:368|384:238,1,448,6|2
304,184,63948,5,4
208,184,64293,1,0
256,96,64637,2,0,B|280:48|334:18|384:48|416:80,1,192
480,144,65500,2,0,C|480:272,2,128,2|2|2
384,144,66534,5,0
384,144,66706,2,0,C|384:336,1,192
288,368,67568,1,0
192,336,67913,2,0,C|192:80,1,256,4|4
32,48,69120,1,0
32,144,69465,6,0,C|32:336,1,192,4|0
128,368,70327,1,0
224,368,70672,2,0,C|480:368,1,256,4|4
448,208,71879,1,0
352,208,72224,5,4
256,208,72568,1,0
160,208,72913,1,0
64,208,73258,1,0
64,208,73431,2,2,B|64:58|242:80,1,256,6|6
336,80,74465,2,2,B|445:80|448:208,1,192,2|4
256,208,86017,5,4
256,112,86362,1,0
192,48,86706,1,0
96,48,87051,2,0,B|32:64|14:112|32:160|96:176,2,192
160,112,88431,1,0
160,208,88776,5,0
224,272,89121,1,0
224,272,89293,2,0,B|200:344|128:369|56:344|32:272,2,256
224,272,90845,1,0
320,272,91190,1,0
320,368,91534,6,0,B|416:360|480:271,1,192
479,272,92396,1,2
480,176,92741,1,0
480,176,92913,2,0,B|459:70|352:48,1,192
353,48,93775,1,2
352,208,94293,6,0,C|160:208,2,192
352,208,95500,1,0
352,304,95845,1,2
352,304,96017,1,2
256,304,96362,1,2
160,304,96707,1,2
64,304,97051,6,0,C|64:112,3,192,4|0|0|0
160,112,98948,1,0
160,112,99120,2,0,C|288:112,1,128
384,112,99810,5,0
448,176,100155,1,0
448,176,100328,1,0
384,240,100672,1,0
288,240,101017,2,0,C|96:240,3,192
32,304,102913,5,0
32,304,103086,2,0,B|64:368|96:384|128:384|160:384|192:368|224:302,1,256
222,304,103948,1,0
320,304,104293,1,0
320,304,104465,2,0,B|352:352|399:364|448:352|480:304,1,192
448,208,105328,5,4
352,208,105672,1,0
256,208,106017,2,0,C|64:208,1,192,0|4
32,112,106879,1,2
32,112,107052,1,2
96,48,107397,1,2
160,112,107741,1,2
160,112,107914,1,2
352,112,108431,5,0
416,48,108775,2,0,B|514:88|480:209,1,192,4|0
416,336,109810,1,8
416,336,109983,1,8
320,336,110327,1,8
256,208,110845,5,4
160,208,111189,1,8
160,208,111362,1,8
128,304,111706,1,8
32,288,112051,1,4
32,128,112568,1,8
32,128,112741,1,8
128,112,113086,1,8
384,304,113948,5,0
480,304,114293,2,0,C|480:112,1,192,4|0
352,48,115328,1,8
352,48,115500,1,8
256,48,115844,1,8
160,160,116362,6,0,C|32:160,3,128,4|8|8|8
32,256,117741,2,0,C|160:256,3,128,4|8|8|8
160,256,118948,1,4
256,208,119293,5,0
256,208,119466,1,8
352,208,119810,1,8
448,208,120155,1,8
480,112,120500,1,2
480,304,121017,1,2
304,208,121534,1,8
304,304,121879,6,0,B|242:368|127:368,1,192,4|0
64,304,122741,1,0
32,208,123086,1,0
64,112,123431,1,2
128,48,123776,1,2
224,48,124120,6,0,C|416:48,2,192,2|0|0
224,144,125500,1,0
224,240,125844,2,0,C|480:240,2,256,4|4|0
224,240,127396,6,0,C|32:240,1,192,4|0
32,336,128258,1,0
128,368,128603,1,0
224,336,128948,1,2
320,368,129293,1,2
416,336,129637,2,0,B|464:304|476:257|464:208|416:176,1,192,2|4
352,112,130500,5,0
288,48,130844,2,0,C|96:48,1,192,0|4
64,144,131706,1,2
64,144,131879,1,2
32,240,132224,1,2
64,336,132569,1,2
160,368,132914,5,4
256,368,133259,1,0
256,272,133603,2,0,C|448:272,1,192
480,176,134466,1,2
416,112,134810,1,2
352,176,135155,1,2
288,112,135500,6,0,B|208:32|113:48,2,192
256,208,136879,1,4
32,208,137568,1,4
32,368,138086,2,0,C|160:368,1,128,0|4
256,336,138775,5,0
256,336,138948,1,0
352,368,139293,1,0
448,368,139637,2,0,B|488:336|504:296|506:255|504:216|488:176|447:143,1,256,4|4
352,48,140845,1,0
256,80,141190,5,4
160,48,141534,1,0
64,80,141879,1,0
32,176,142224,1,0
32,176,142396,2,2,B|100:293|258:240,1,256,6|6
320,304,143431,2,2,B|349:381|408:384|480:368,1,192,2|4
256,208,144034,12,0,145672
480,208,153948,6,0,C|160:208,1,320,8|4
32,208,155327,5,8
32,112,155672,2,0,B|49:41|129:48,1,128,0|8
127,47,156189,1,4
224,48,156534,1,0
224,48,156706,1,8
320,48,157051,2,0,B|399:39|416:112,1,128,0|8
415,110,157568,1,4
416,208,157913,5,0
416,208,158086,2,0,C|416:336,2,128,8|0|8
320,208,159120,2,0,C|192:208,3,128,0|8|0|8
192,208,160327,1,4
96,208,160672,5,0
96,208,160844,1,8
32,272,161189,2,0,B|23:351|96:368,1,128,0|8
94,367,161706,1,4
192,368,162051,1,0
192,368,162224,2,0,C|320:368,2,128,8|0|8
176,272,163258,5,4
336,272,163775,1,4
128,144,164465,1,4
384,144,165155,2,0,C|192:144,1,192,4|8
208,240,166017,6,0,C|208:368,3,128,4|8|8|8
304,368,167396,2,0,C|304:240,3,128,4|8|8|8
304,240,168603,1,4
400,240,168948,5,0
400,240,169120,1,8
480,176,169465,1,8
480,80,169810,1,8
480,80,169982,1,4
384,48,170327,1,0
384,48,170500,1,8
320,112,170844,1,8
256,48,171189,1,8
256,48,171362,1,4
192,112,171706,5,0
192,112,171879,1,8
128,48,172224,1,8
32,80,172568,1,8
32,80,172741,1,8
480,336,173775,5,0
480,336,173948,1,0
384,368,174293,2,0,C|224:368,1,160
160,304,175500,2,0,C|352:304,1,192
336,144,177051,6,0,C|176:144,1,160
192,48,178258,2,0,C|320:48,2,128
192,48,179810,5,0
96,80,180155,1,0
160,144,180500,1,0
64,160,180844,1,0
64,256,181189,1,0
160,272,181534,1,0
96,336,181879,1,0
192,368,182224,1,0
288,368,182568,5,0
288,176,183258,2,0,C|288:240,3,64,2|2|2|2
384,272,184120,1,2
384,272,184293,2,0,C|384:144,2,128,2|2|2
480,304,185327,5,4
480,208,185672,1,0
480,112,186017,1,0
480,112,186189,1,0
384,80,186534,1,0
288,48,186879,1,2
256,144,187224,1,2
160,112,187568,1,2
64,80,187913,5,0
64,80,188086,1,0
32,176,188431,1,0
32,176,188603,1,0
32,272,188948,1,0
64,368,189293,1,4
160,368,189637,2,0,C|224:368,2,64,2|2|4
160,208,190500,1,0
256,208,190844,5,4
320,272,191189,1,0
320,272,191362,1,0
384,208,191706,1,0
320,144,192051,1,4
256,208,192396,2,0,C|320:208,2,64,2|2|6
192,80,193258,1,0
288,48,193603,5,4
384,48,193948,1,0
480,80,194293,1,0
480,176,194637,1,0
480,176,194810,2,2,C|480:304,1,128,6|0
416,368,195500,1,6
320,368,195844,1,2
320,368,196017,2,2,C|192:368,1,128,2|4
96,368,196706,5,0
32,304,197051,1,0
32,208,197396,1,0
32,208,197568,2,2,C|32:80,3,128,6|2|6|2
160,176,199120,5,6
256,144,199465,1,2
352,176,199810,1,2
256,208,200155,1,2
256,208,200327,1,4
256,208,200413,12,0,201362
256,208,201879,5,4
256,304,202224,2,0,B|278:378|353:368,1,128
351,368,202741,1,0
448,336,203086,1,0
480,240,203431,1,0
480,144,203775,2,0,L|480:96|448:96|448:48,2,128
384,176,204810,5,0
384,176,204982,1,0
384,80,205327,1,0
384,80,205500,1,0
288,48,205844,2,2,C|32:48,2,256,6|6|2
288,48,207396,5,4
288,144,207741,1,0
192,144,208086,1,0
192,144,208258,1,0
192,240,208603,2,0,C|64:240,1,128
32,336,209293,1,0
128,368,209637,2,0,C|128:304,2,64,0|0|0
224,336,210327,5,0
224,336,210500,1,0
320,320,210844,1,0
320,320,211017,1,0
416,304,211362,2,2,B|480:272|496:240|496:208|496:176|480:144|415:112,3,256,6|6|6|6
320,96,213775,1,2
320,96,213948,1,2
224,80,214293,6,0,B|64:80|25:208|64:336|225:336,1,448,4|0
256,208,215844,5,2
256,208,216017,1,2
256,208,216189,1,2
