osu file format v7

[General]
AudioFilename: Nagareboshi Romantic.mp3
AudioLeadIn: 0
PreviewTime: 52396
Countdown: 0
SampleSet: Normal
StackLeniency: 0.4
Mode: 0
LetterboxInBreaks: 1

[Editor]
Bookmarks: 17051,28086,39120,52913,63948,74982,86017,97051,108086,121879,132913,143948,154982,166017,174293,185327,196362,201879,215672
DistanceSpacing: 1
BeatDivisor: 4
GridSize: 16

[Metadata]
Title:Nagareboshi Romantic
Artist:The Children
Creator:DJPop
Version:Hard
Source:Zettai Karen Children
Tags:hirano aya shiraishi ryouko tomatsu haruka akashi kaoru nogami aoi sannomiya shiho

[Difficulty]
HPDrainRate:5
CircleSize:5
OverallDifficulty:8
SliderMultiplier:1.6
SliderTickRate:2

[Events]
//Background and Video events
0,0,"Nagareboshi Romantic.png"
//Break Periods
2,75182,85267
2,145872,153198
//Storyboard Layer 0 (Background)
//Storyboard Layer 1 (Fail)
//Storyboard Layer 2 (Pass)
//Storyboard Layer 3 (Foreground)
//Storyboard Sound Samples
//Background Colour Transformations
3,100,0,0,0

[TimingPoints]
500,344.827586206897,4,1,0,75,1,0
51275,-200,4,1,1,75,0,0
52137,-200,4,1,2,0,0,0
52310,-100,4,1,0,75,0,0
92224,-200,4,1,1,75,0,0
92741,-100,4,1,0,75,0,0
145327,-100,4,1,2,0,0,0
152913,-100,4,1,0,75,0,0
174206,-200,4,1,1,75,0,0
174896,-200,4,1,2,0,0,0
175068,-200,4,1,1,75,0,0
176103,-200,4,1,2,0,0,0
176275,-200,4,1,1,75,0,0
177655,-200,4,1,2,0,0,0
177827,-200,4,1,1,75,0,0
179551,-100,4,1,2,0,0,0
179724,-100,4,1,1,75,0,0
182396,-200,4,1,1,75,0,0
182827,-200,4,1,2,0,0,0
183086,-100,4,1,1,75,0,0
200500,-100,4,1,2,0,0,0
201793,-100,4,1,1,75,0,0

[Colours]
Combo1 : 255,255,255
Combo2 : 255,70,0
Combo3 : 0,0,191
Combo4 : 176,31,224

[HitObjects]
256,208,17051,5,4
256,368,17396,2,0,C|96:368,1,160
32,272,18086,1,0
32,272,18258,1,0
128,176,18603,1,0
64,144,18775,1,0
128,112,18948,1,0
64,80,19120,2,0,B|80:48|128:11|176:48|192:80,1,160
320,80,19810,6,0,B|336:48|384:11|432:48|448:80,1,160
448,144,20327,1,0
320,144,20672,1,0
384,256,21017,2,0,B|472:248|510:312|472:376|383:368,1,240
320,368,21706,1,0
256,368,21879,1,0
192,368,22051,1,0
128,368,22224,1,0
64,368,22396,1,0
32,304,22568,5,0
160,304,22913,1,0
96,296,23086,2,0,C|96:56,1,240
160,48,23775,1,0
224,48,23948,1,0
352,48,24293,1,0
288,48,24465,2,0,B|294:150|190:143,1,160
192,208,24982,1,0
192,272,25155,1,0
192,336,25327,6,0,C|352:336,1,160
416,368,25844,1,0
480,336,26017,1,0
416,304,26189,1,0
480,272,26362,1,0
416,240,26534,1,0
416,112,26879,1,2
416,48,27051,2,0,C|336:48,1,80,2|2
336,112,27396,2,0,C|256:112,1,80,2|2
256,48,27741,2,0,C|176:48,1,80,2|2
176,112,28086,6,0,B|120:112|88:176|31:176,1,160,4|0
32,240,28603,2,0,B|87:240|119:176|175:176,1,160
176,240,29120,2,0,B|120:240|88:304|31:304,1,160
32,368,29637,1,0
160,368,29982,1,0
224,368,30155,2,0,C|384:368,1,160
480,272,30844,5,0
384,176,31189,1,0
384,240,31362,1,0
480,144,31706,1,0
384,48,32051,2,0,C|224:48,1,160
96,48,32741,1,0
32,80,32913,1,0
96,112,33086,1,0
32,144,33258,1,0
96,176,33431,1,0
160,176,33603,6,0,C|320:176,1,160
320,240,34120,2,0,C|160:240,1,160
128,368,34810,1,0
192,368,34982,2,0,C|352:368,1,160
352,304,35500,2,0,C|192:304,1,160
128,304,36017,1,0
64,336,36189,1,0
32,272,36362,6,0,C|32:112,1,160,4|0
160,48,37051,1,0
160,112,37224,1,0
160,176,37396,1,0
160,240,37568,1,4
288,240,37913,2,2,B|320:336|480:336|511:208|480:80|320:80|288:177,1,480
368,208,39465,5,0
144,208,39810,1,4
256,304,40155,1,0
224,368,40327,2,0,C|64:368,1,160
32,304,40844,1,0
64,240,41017,1,0
96,304,41189,1,0
64,176,41534,1,0
96,48,41879,6,2,C|256:48,1,160,6|2
416,112,42568,2,2,C|256:112,1,160,2|2
96,176,43258,2,2,C|256:176,1,160,2|2
416,240,43948,2,2,C|256:240,1,160,2|2
256,368,44982,5,0
256,208,45327,2,0,C|256:48,1,160,4|0
256,48,45844,1,0
384,48,46189,1,0
416,112,46362,1,0
448,48,46534,1,0
480,112,46706,2,0,C|480:272,1,160
384,368,47396,6,2,C|352:304|320:336|288:272|256:304|224:240|216:248,1,320,6|0
256,112,48431,1,2
256,48,48603,1,0
192,48,48775,2,2,C|160:112|128:80|96:144|64:112|32:176|24:168,1,320,6|0
64,304,49810,1,2
32,368,49982,1,4
160,368,50327,5,0
224,368,50500,1,0
192,304,50672,1,0
256,304,50844,1,0
288,368,51017,1,0
352,368,51189,1,0
320,304,51362,2,0,B|437:310|480:207,1,200
480,144,52396,1,0
480,80,52568,1,0
416,48,52741,1,0
384,112,52913,5,4
320,80,53086,1,0
256,112,53258,1,0
224,48,53431,2,0,C|64:48,2,160
224,176,54465,2,0,C|384:176,2,160,2|2|2
224,304,55500,5,0
224,240,55672,2,0,L|160:240|160:272|96:272,1,160
96,336,56189,2,0,L|160:336|160:368|224:368,1,160
352,304,56879,1,4
480,304,57224,1,2
480,304,57396,1,2
480,304,57568,1,4
480,112,58086,1,0
416,80,58258,1,0
352,48,58431,5,4
288,80,58603,1,0
224,112,58775,2,0,C|185:112|128:48|96:48,1,160
32,176,59465,1,0
32,240,59637,1,0
96,368,59982,2,0,C|128:368|185:304|223:303,2,160,2|2|2
96,368,60844,1,0
96,208,61189,6,0,C|256:208,1,160,4|0
384,208,61879,1,0
320,208,62051,1,0
384,208,62224,1,0
448,208,62396,2,2,B|448:368|352:368|256:368|288:272|157:272,1,400,6|0
96,272,63431,1,2
64,336,63603,1,2
32,272,63775,1,2
32,208,63948,5,4
96,208,64120,1,0
96,144,64293,1,0
32,144,64465,1,0
32,80,64637,1,0
96,80,64810,2,0,L|160:80|160:48|224:48,1,160
352,48,65500,2,0,L|416:48|416:80|480:80,2,160,2|2|2
256,144,66534,5,0
320,144,66706,1,0
288,272,67051,1,0
288,208,67224,2,0,B|214:208|144:272,1,160
32,368,67913,1,4
160,368,68258,1,2
160,368,68431,1,2
160,368,68603,1,4
352,368,69120,1,0
416,368,69293,1,0
480,368,69465,6,0,C|480:208,1,160,4|0
480,208,69982,2,0,C|480:48,1,160
352,48,70672,1,4
352,176,71017,1,2
288,208,71189,1,2
352,240,71362,1,6
192,368,71879,1,0
128,368,72051,1,0
64,368,72224,5,4
32,304,72396,1,0
96,304,72568,1,0
64,240,72741,1,0
128,240,72913,1,0
96,176,73086,1,0
160,176,73258,1,0
128,112,73431,2,2,B|128:56|80:45|32:56|32:112,2,160,6|0|6
288,112,74465,1,2
352,112,74637,1,2
416,112,74810,1,2
480,112,74982,1,4
256,208,86017,5,4
256,48,86362,1,0
256,208,86707,1,0
256,368,87052,1,0
256,368,87224,1,0
256,208,87569,1,0
320,208,87741,1,0
384,176,87913,1,0
448,176,88086,2,0,B|464:184|472:200|470:208|472:216|464:232|448:240,1,80
384,240,88431,1,0
256,208,88776,5,0
96,208,89121,1,0
32,208,89293,1,0
192,208,89637,2,0,C|192:128,1,80
192,64,89982,1,0
320,64,90327,2,0,C|320:144,1,80
320,208,90672,1,0
320,272,90845,1,0
320,336,91017,1,0
256,368,91190,1,0
192,336,91362,1,0
192,272,91534,5,0
64,272,91879,1,0
64,336,92052,1,0
128,224,92396,2,0,C|128:144,1,80,2|0
128,144,92913,1,0
256,144,93259,1,0
256,144,93431,1,0
384,144,93775,2,0,C|384:224,2,80,2|0|0
384,80,94293,6,0,B|368:48|352:40|320:30|288:40|272:48|256:80,1,160
192,80,94810,1,0
128,48,94983,1,0
64,80,95155,1,0
32,144,95328,1,0
64,208,95500,1,0
64,368,95845,1,2
96,304,96017,1,2
160,272,96190,1,2
192,336,96362,1,2
256,304,96534,1,2
288,368,96707,1,2
352,336,96879,1,2
416,368,97051,6,0,L|480:368|480:272,1,160,4|0
416,304,97568,2,0,L|416:208|480:208,1,160
480,144,98086,2,0,L|480:64|416:64|416:80,1,160
416,144,98603,1,0
288,176,98948,1,0
352,144,99120,2,0,C|288:94,1,80
223,95,99465,2,0,C|160:144,1,80
224,176,99810,5,0
256,304,100155,1,0
256,368,100328,1,0
256,240,100672,1,0
256,368,101017,2,0,C|96:368,1,160
32,272,101707,1,0
96,240,101879,1,0
64,176,102052,1,0
128,144,102224,1,0
96,80,102397,1,0
160,48,102569,5,0
288,48,102914,1,0
352,48,103086,2,0,B|408:56|427:97|408:136|352:144,1,160
240,208,103776,1,0
240,208,103948,1,0
352,272,104293,1,0
352,272,104465,2,0,B|408:280|427:321|408:360|352:368,1,160
288,368,104982,1,0
224,368,105155,1,0
160,368,105328,5,4
32,208,105672,1,0
160,48,106017,1,0
224,48,106190,1,0
288,48,106362,1,0
352,48,106534,1,4
480,208,106879,1,2
405,208,107052,1,2
331,208,107224,1,2
256,208,107397,1,2
181,208,107569,1,2
107,208,107741,1,2
32,208,107914,1,2
256,48,108431,5,0
256,208,108776,1,4
256,368,109121,1,0
256,368,109293,1,0
160,272,109638,1,0
208,320,109810,1,8
208,320,109983,1,8
256,272,110155,1,0
304,320,110327,1,8
352,272,110500,1,0
256,176,110845,5,4
128,144,111189,1,8
128,144,111362,1,8
64,112,111534,1,0
128,80,111706,1,8
256,48,112051,1,4
320,80,112224,1,0
384,48,112396,1,0
448,80,112568,1,8
448,80,112741,1,8
480,144,112914,1,0
448,208,113086,1,8
384,240,113258,1,0
320,208,113431,1,0
384,144,113948,5,0
256,144,114293,1,4
128,144,114637,1,0
128,144,114810,1,0
32,240,115155,1,0
64,304,115328,1,8
64,304,115500,1,8
128,336,115672,1,0
192,304,115844,1,8
224,240,116017,1,0
336,176,116362,6,0,B|336:82|416:48,2,160,4|8|8
448,240,117397,1,8
448,176,117569,1,0
448,240,117741,2,0,B|448:334|368:368,2,160,4|8|8
320,176,118776,1,8
320,240,118948,1,4
192,208,119293,5,0
224,144,119466,1,8
192,80,119638,1,0
128,48,119810,1,8
64,80,119983,1,0
32,144,120155,1,8
64,208,120328,1,8
128,240,120500,1,2
128,368,120844,1,0
128,304,121017,1,2
128,144,121362,1,0
128,144,121534,1,8
128,144,121707,1,0
192,144,121879,5,4
240,96,122052,1,0
304,96,122224,1,0
352,48,122397,1,0
480,128,122741,1,0
480,288,123086,1,0
352,368,123431,1,2
256,240,123776,1,2
160,368,124121,1,2
64,240,124466,5,0
32,176,124638,1,0
192,176,124983,1,0
160,240,125155,1,0
112,80,125500,1,0
256,144,125845,1,4
400,80,126189,2,0,C|480:80,2,80,2|2|4
400,336,127052,1,0
336,352,127224,1,0
320,288,127397,5,4
256,304,127569,1,0
112,368,127913,1,0
32,240,128258,1,0
96,208,128431,1,0
32,176,128603,1,0
112,48,128948,1,2
256,112,129293,1,2
400,48,129637,2,0,B|480:82|480:176,1,160,2|0
480,240,130155,5,4
384,368,130500,1,0
288,240,130845,1,0
224,272,131017,1,0
160,304,131190,1,0
96,336,131362,1,4
32,176,131706,1,2
64,112,131879,1,2
128,144,132051,1,2
160,80,132224,1,2
224,112,132397,1,2
256,48,132569,1,2
320,80,132741,1,2
384,112,132914,5,4
448,144,133086,1,0
384,176,133259,1,0
320,208,133431,1,0
384,240,133603,1,0
448,272,133776,1,0
320,144,134121,1,0
448,208,134466,1,2
320,272,134810,1,2
448,336,135155,1,2
320,336,135500,5,0
384,304,135672,1,0
224,368,136017,1,0
224,368,136190,1,0
64,368,136534,1,0
144,224,136879,1,4
144,64,137224,2,0,C|144:144,2,80,2|2|4
368,64,138086,1,0
416,112,138259,1,0
464,160,138431,5,4
464,320,138776,1,0
416,368,138948,1,0
416,208,139293,1,0
256,208,139638,1,4
256,368,139983,1,2
208,320,140155,1,2
160,272,140327,2,0,B|96:208|29:176,1,160,6|0
32,112,140845,1,0
32,48,141017,1,0
96,80,141190,5,4
96,144,141362,1,0
160,176,141534,1,0
160,112,141707,1,0
224,80,141879,1,0
224,144,142052,1,0
288,112,142224,1,0
288,48,142397,1,6
416,144,142741,5,0
448,208,142914,1,0
416,272,143086,1,6
288,368,143431,1,2
288,304,143603,1,2
224,304,143776,1,2
224,368,143948,1,4
256,208,144034,12,0,145672
32,208,153948,5,8
480,208,154465,5,2
416,208,154637,1,2
352,208,154809,1,4
96,208,155327,5,8
224,208,155672,1,0
256,144,155844,1,0
288,208,156017,1,8
256,272,156189,1,4
160,176,156534,1,0
160,240,156706,1,8
256,336,157051,5,0
320,368,157224,1,2
384,336,157396,1,10
448,368,157568,1,6
480,240,157913,5,0
480,176,158086,1,8
448,112,158258,1,0
432,96,158344,1,0
416,80,158431,1,8
400,64,158517,1,0
384,48,158603,1,0
320,48,158775,1,8
304,64,158862,1,0
288,80,158948,1,0
192,80,159206,5,0
192,80,159293,1,0
128,48,159465,1,8
64,80,159637,1,0
32,144,159810,1,8
48,160,159896,1,0
64,176,159982,1,0
80,192,160068,1,0
96,208,160155,1,8
112,224,160241,1,0
128,240,160327,1,4
128,368,160672,5,0
64,368,160844,1,8
192,368,161189,1,0
256,368,161362,1,0
320,368,161534,1,8
320,368,161620,1,0
320,368,161706,1,4
448,368,162051,1,0
384,368,162224,1,8
352,272,162482,5,0
352,272,162568,1,0
288,272,162741,1,0
256,208,162913,1,8
224,272,163086,1,0
160,272,163258,1,4
64,176,163603,5,8
64,240,163775,1,4
160,144,164120,5,0
192,208,164293,1,8
128,208,164465,1,4
224,144,164810,5,0
256,88,164982,1,8
288,144,165155,1,4
384,48,165500,5,0
352,112,165672,1,8
480,208,166017,5,4
352,304,166362,6,0,C|304:368,1,80,8|0
272,304,166706,2,0,C|224:368,1,80,8|0
192,304,167051,2,0,C|144:368,1,80,8|0
112,304,167396,1,4
32,176,167741,6,0,C|72:104,1,80,8|0
112,176,168086,2,0,C|152:104,1,80,8|0
192,176,168431,1,8
192,176,168603,1,4
352,176,168948,5,0
416,144,169120,1,8
480,112,169293,1,0
416,80,169465,1,8
352,48,169637,1,0
352,112,169810,1,8
288,112,169982,1,4
288,304,170327,5,0
352,304,170500,1,8
352,368,170672,1,0
416,336,170844,1,8
480,304,171017,1,0
416,272,171189,1,8
352,240,171362,1,4
224,208,171706,5,0
288,208,171879,1,8
224,208,172051,1,0
160,208,172224,1,8
96,208,172396,1,0
32,208,172568,1,8
96,208,172741,1,8
160,368,173086,5,2
160,368,173172,1,2
160,368,173258,1,2
160,48,173775,5,0
160,48,173948,1,0
160,48,174120,1,0
224,48,174293,6,0,C|384:48,1,160
384,48,175155,1,0
480,144,175500,2,0,C|320:144,1,160,0|0
192,144,176534,1,0
32,272,177051,6,0,C|192:272,1,160
192,272,177913,1,0
320,272,178258,2,0,C|480:272,2,160
256,272,179810,5,0
256,144,180155,1,0
352,48,180500,1,0
448,144,180844,1,0
448,272,181189,1,0
352,368,181534,1,0
256,272,181879,1,0
256,144,182224,1,0
352,248,182568,6,0,C|352:168,1,80,0|0
224,208,183258,1,2
160,208,183431,1,2
96,208,183603,1,2
32,208,183775,1,2
32,368,184120,1,2
96,336,184293,1,2
160,304,184465,1,2
192,368,184637,1,2
256,336,184810,1,2
320,304,184982,1,2
352,368,185155,1,2
416,336,185327,5,4
480,304,185500,1,0
416,272,185672,1,0
352,240,185844,1,0
416,208,186017,1,0
480,176,186189,1,0
416,48,186534,1,0
352,176,186879,1,2
480,240,187224,1,2
480,112,187568,1,2
352,112,187913,5,0
416,144,188086,1,0
288,144,188431,1,0
288,80,188603,1,0
160,48,188948,1,0
32,80,189293,1,4
160,112,189637,1,2
160,176,189810,1,2
160,240,189982,2,0,L|160:272|128:272|128:304|96:304|96:336,1,160,4|0
32,336,190500,1,0
32,272,190672,1,0
32,208,190844,5,4
160,112,191189,1,0
224,112,191362,1,0
224,272,191706,1,0
384,272,192051,1,4
384,112,192396,1,2
432,64,192568,1,2
480,112,192741,2,0,C|480:272,1,160,6|0
432,320,193258,1,0
384,272,193431,1,0
352,208,193603,5,4
320,272,193775,1,0
256,240,193948,1,0
224,304,194120,1,0
160,272,194293,1,0
128,336,194465,1,0
64,304,194637,1,0
32,368,194810,1,6
32,208,195155,1,0
96,208,195327,1,0
160,208,195500,1,6
32,112,195844,1,2
64,48,196017,1,2
96,112,196189,1,2
128,48,196362,5,4
288,48,196706,2,0,C|368:48,1,80
368,112,197051,2,0,C|288:112,1,80
224,112,197396,1,0
224,48,197568,1,6
224,176,197913,2,0,C|304:176,1,80,2|0
368,176,198258,1,6
480,48,198603,1,2
480,112,198775,1,0
480,176,198948,1,0
480,240,199120,5,6
416,208,199293,1,0
416,272,199465,1,2
352,240,199637,1,0
352,304,199810,1,2
288,272,199982,1,0
288,336,200155,1,2
224,304,200327,1,4
256,208,200413,12,0,201706
32,48,201879,5,4
144,160,202224,1,0
256,48,202568,1,0
256,48,202741,1,0
368,160,203086,1,0
480,48,203431,1,0
368,160,203775,2,0,B|255:151|256:241,1,160
256,304,204293,1,0
256,368,204465,1,0
416,336,204810,5,0
448,272,204982,1,0
480,208,205155,1,0
448,144,205327,1,0
416,80,205500,1,0
288,176,205844,2,2,C|128:176,1,160,6|2
64,208,206362,1,2
128,240,206534,2,2,C|288:240,1,160,6|2
352,208,207051,1,2
416,208,207224,1,2
480,208,207396,5,4
368,320,207741,1,0
256,208,208086,1,0
256,208,208258,1,0
144,320,208603,1,0
32,208,208948,1,0
144,96,209293,1,0
256,208,209637,1,0
320,208,209810,1,0
384,208,209982,1,0
480,80,210327,5,0
448,144,210500,1,0
480,208,210672,1,0
448,272,210844,1,0
480,336,211017,1,0
320,368,211362,1,6
192,272,211706,1,2
144,320,211879,1,2
96,368,212051,1,6
32,208,212396,5,2
80,160,212568,1,2
128,112,212741,1,6
288,48,213086,5,2
336,96,213258,1,2
384,144,213431,1,6
224,208,213775,5,2
288,208,213948,1,2
448,240,214293,5,4
416,304,214465,1,0
362,352,214637,1,0
292,368,214810,1,0
220,368,214982,1,0
150,352,215155,1,0
96,304,215327,1,0
64,240,215500,1,0
256,208,215844,5,2
256,208,216017,1,2
256,208,216189,1,2
