osu file format v7

[General]
AudioFilename: Nagareboshi Romantic.mp3
AudioLeadIn: 0
PreviewTime: 52396
Countdown: 0
SampleSet: Normal
StackLeniency: 0.4
Mode: 0
LetterboxInBreaks: 1

[Editor]
Bookmarks: 17051,28086,39120,52913,63948,74982,86017,97051,108086,121879,132913,143948,154982,166017,174293,185327,196362,201879,215672
DistanceSpacing: 0.75
BeatDivisor: 2
GridSize: 32

[Metadata]
Title:Nagareboshi Romantic
Artist:The Children
Creator:DJPop
Version:Easy
Source:Zettai Karen Children
Tags:hirano aya shiraishi ryouko tomatsu haruka akashi kaoru nogami aoi sannomiya shiho

[Difficulty]
HPDrainRate:2
CircleSize:5
OverallDifficulty:3
SliderMultiplier:0.96
SliderTickRate:2

[Events]
//Background and Video events
0,0,"Nagareboshi Romantic.png"
//Break Periods
2,75182,84577
2,145872,153370
//Storyboard Layer 0 (Background)
//Storyboard Layer 1 (Fail)
//Storyboard Layer 2 (Pass)
//Storyboard Layer 3 (Foreground)
//Storyboard Sound Samples
//Background Colour Transformations
3,100,0,0,0

[TimingPoints]
500,344.827586206897,4,1,0,75,1,0
44637,-100,4,1,2,0,0,0
44810,-100,4,1,0,75,0,0
113603,-100,4,1,2,0,0,0
113775,-100,4,1,0,75,0,0
145327,-100,4,1,2,0,0,0
152913,-100,4,1,0,75,0,0

[Colours]
Combo1 : 255,255,255
Combo2 : 255,70,0
Combo3 : 0,0,191
Combo4 : 176,31,224

[HitObjects]
256,208,17051,5,4
256,80,17741,2,0,C|400:80,2,144
128,80,19465,1,0
64,80,19810,5,0
64,176,20327,2,0,B|34:304|129:336,1,192
256,336,21706,2,0,C|400:336,1,144
464,336,22568,6,0,C|464:192,1,144
352,80,23948,2,0,C|352:224,1,144
208,288,25327,6,0,B|64:288|58:208|64:128|210:128,1,336
272,128,26879,2,2,B|384:112|433:177|384:240|384:272,1,240,2|2
384,336,28086,6,0,B|480:342|480:256,4,144,4|0|0|0|0
256,336,30844,5,0
160,336,31362,2,0,B|32:361|32:239,1,192
32,144,32568,2,0,B|47:65|128:48,1,144
224,64,33603,6,0,C|224:208,1,144
288,352,34982,2,0,C|288:208,1,144
384,80,36362,6,0,B|480:128|512:208|480:288|383:336,1,336,4|4
320,368,37913,2,2,C|32:368,1,288
32,48,39810,6,0,C|320:48,1,288,4|0
320,176,41534,1,0
256,176,41879,6,2,C|256:368,4,192,6|2|2|2|0
480,48,45327,6,0,C|192:48,1,288,4|0
192,176,47051,1,0
128,176,47396,6,2,B|48:192|32:224|17:269|32:312|48:344|128:360,1,288,6|2
192,368,48775,2,2,B|344:392|336:312|328:232|482:256,1,336,6|6
480,192,50327,2,2,L|480:144|432:144|432:96|384:96|384:48|336:48,1,288,2|2
56,48,52913,6,0,C|200:48,1,144,4|0
224,112,53775,2,0,C|32:112,2,192,0|2|2
224,208,55672,6,0,B|112:192|128:256|144:320|31:304,1,240
32,368,56879,2,0,C|224:368,1,192,4|4
416,368,58431,6,0,B|448:304|500:208|448:112|416:48,1,336,4|2
352,160,60327,2,0,C|352:256,1,96,2|2
272,304,61189,6,0,B|176:288|144:256|135:208|144:160|176:128|272:112,2,336,4|4|0
272,368,63948,6,0,C|32:368,1,240,4|0
32,304,65155,2,0,C|32:208,3,96,0|2|2|2
32,112,66706,6,0,B|96:38|257:48,1,240
320,48,67913,2,0,B|384:34|400:48|400:112|416:126|481:112,1,192,4|4
480,304,69465,6,0,B|472:368|432:384|400:383|368:384|328:368|320:304,1,240,4|0
256,304,70672,2,0,C|64:304,1,192,4|4
64,144,72224,5,4
192,176,72913,1,0
288,208,73431,2,2,B|394:187|416:80,1,192,6|6
256,48,74982,1,4
256,208,86017,6,0,B|279:336|158:336,1,192,4|0
96,336,87051,2,0,B|40:328|8:271|40:216|96:208,2,192
128,280,88775,6,0,B|176:225|160:144,1,144
64,48,89982,1,0
192,48,90672,2,0,C|336:48,1,144,0|0
400,48,91534,5,0
480,208,92396,1,2
384,208,92913,1,0
320,368,93775,1,2
224,368,94293,6,0,B|32:368|32:142,1,336
32,80,95845,2,2,C|64:47|96:81|128:46|160:81|193:48,1,240,2|2
256,48,97052,6,0,C|400:48,4,144,4|0|0|0|0
256,176,99810,6,0,C|400:176,1,144
480,272,101017,2,0,C|480:128,2,144
448,368,102568,5,0
352,368,103086,2,0,C|256:368,1,96,0|0
224,272,103948,1,0
128,272,104465,2,0,C|32:272,1,96,0|0
32,176,105328,6,0,B|96:144|128:128|192:116|256:128|288:144|352:176,1,336,4|4
416,208,106879,2,2,B|486:245|480:328,2,144
256,48,108775,5,4
256,368,109810,1,8
256,368,109982,1,8
256,304,110327,1,8
256,208,110844,6,2,C|448:208,4,192,6|2|6|2|0
64,208,114293,5,4
448,208,115327,1,8
448,208,115500,1,8
384,208,115844,1,8
320,272,116362,6,2,B|256:312|176:304|118:208|176:112|256:104|320:144,3,384,6|6|0|2
256,208,121017,1,2
256,208,121534,1,8
192,208,121879,6,0,C|48:208,1,144,4|0
72,144,122741,2,0,C|168:144,4,96,0|0|2|2|2
56,48,124638,6,0,C|296:48,1,240
360,48,125844,2,0,C|456:48,3,96,4|0|4|0
480,144,127397,6,0,C|480:336,1,192,4|0
384,336,128603,1,2
384,208,129293,2,0,C|288:208,1,96,2|2
288,112,130155,6,0,C|96:112,1,192,4|0
32,176,131362,2,0,B|32:368|258:368,1,336,4|0
320,368,132914,6,0,B|466:368|480:224,1,240,4|0
480,160,134121,2,0,C|480:64,3,96,0|2|2|2
416,144,135672,6,0,B|320:168|320:96|320:24|223:48,1,240
160,48,136879,2,0,C|64:48,3,96,4|0|4|0
32,144,138431,6,0,B|80:176|143:206|208:176|256:144,1,240,4|0
288,208,139637,2,0,C|384:208,2,96,4|0|4
128,240,141190,5,4
128,368,141879,1,0
200,304,142397,2,2,C|392:304,1,192,6|6
256,208,143775,12,0,145672
256,96,154810,6,0,C|256:240,1,144,4|8
128,240,156017,1,8
128,368,156706,1,8
256,368,157396,1,8
384,368,158086,5,8
448,336,158431,1,8
480,272,158775,1,8
480,144,159465,1,8
448,80,159810,1,8
384,48,160155,1,8
256,48,160844,5,8
128,48,161534,1,8
32,144,162224,1,8
32,272,162913,1,8
32,336,163258,5,4
128,336,163775,2,0,C|128:144,2,192,4|4|4
288,336,166017,6,0,C|480:336,3,192,4|0|4|0
480,240,168603,1,4
416,160,169120,5,8
384,96,169465,1,8
320,64,169810,1,8
192,64,170500,1,8
128,96,170844,1,8
96,160,171189,1,8
224,160,171879,5,8
256,224,172224,1,8
288,160,172568,1,8
64,368,174293,5,0
448,368,175500,1,0
448,208,177051,5,0
64,208,178258,1,0
64,48,179810,5,0
448,48,181017,1,0
256,208,182568,5,0
344,240,184120,2,2,B|328:288|296:312|257:328|216:312|184:288|168:240,1,240,2|2
168,176,185327,6,0,B|184:128|216:104|255:88|296:104|328:128|344:176,1,240,4|0
400,208,186534,1,0
448,160,186879,2,0,B|456:103|408:80,2,96,2|2|2
448,256,188086,6,0,B|463:348|384:368,1,144
320,368,188948,1,0
256,368,189293,2,0,C|64:368,1,192,4|4
64,48,190844,6,0,C|208:48,1,144,4|0
272,48,191706,1,0
336,48,192051,2,0,C|432:48,2,96,4|0|4
448,176,193603,5,4
336,240,194293,1,0
240,208,194810,2,2,C|144:208,1,96,6|0
96,256,195500,1,6
96,320,195844,2,2,B|128:352|160:356|192:352|224:320,1,144,2|4
272,272,196706,5,2
416,336,197568,2,2,B|472:323|480:272,3,96,6|2|6|2
480,176,199120,5,6
384,80,199810,1,2
480,80,200327,1,4
256,208,200500,12,4,201879
32,80,202568,6,0,B|56:56|96:33|136:56|160:80,1,144
96,112,203431,1,0
32,144,203775,2,0,B|40:208|96:218|152:208|160:144,1,192
224,160,204810,6,0,B|272:152|282:112|272:72|224:64,2,144,0|0|6
352,112,206534,1,6
352,272,207396,6,0,C|448:272,2,96,4|0|0
352,368,208603,2,0,L|304:368|304:320|256:320|256:272,1,192
192,272,209637,1,0
128,272,209982,1,0
64,272,210327,6,0,B|16:280|6:321|16:360|64:368,2,144,0|0|6
97,112,212051,1,6
256,80,212741,1,6
416,112,213431,1,6
192,240,214293,6,0,B|144:288|184:352|216:360|256:360|296:360|328:352|368:288|318:239,1,336,4|0
256,208,215844,2,0,C|256:144,2,48,2|2|2
