osu file format v5

[General]
AudioFilename: DATTE Daihonmei.mp3
AudioLeadIn: 0
PreviewTime: 56375
Countdown: 0
SampleSet: Normal
StackLeniency: 0.3
Mode: 0
LetterboxInBreaks: 1
EditorBookmarks: 23238,34163,45435,56359,67458,78556,84105,95377,106302,117573,128498,139596,150695,164741,175666,186764,197862,208961,220059
EditorDistanceSpacing: 1

[Metadata]
Title:DATTE Daihonmei
Artist:The Children
Creator:DJPop
Version:Hard
Source:Zettai Karen Children
Tags:hirano aya shiraishi ryouko tomatsu haruka akashi kaoru nogami aoi sannomiya shiho

[Difficulty]
HPDrainRate:5
CircleSize:5
OverallDifficulty:8
SliderMultiplier:1.6
SliderTickRate:2

[Events]
//Background and Video events
0,0,"DATTE Daihonmei.png"
//Break Periods
2,84317,94639
2,153855,164003
//Storyboard Layer 0 (Background)
//Storyboard Layer 1 (Failing)
//Storyboard Layer 2 (Passing)
//Storyboard Layer 3 (Foreground)
//Storyboard Sound Samples
//Background Colour Transformations
3,100,128,128,128

[TimingPoints]
1042,346.820809248555,4,1,0,100,1,0
174972,-200,4,1,0,100,0,0
175319,-100,4,1,0,100,0,0
203238,-200,4,1,0,100,0,0
208440,-100,4,1,0,100,0,0

[Colours]
Combo1 : 255,255,255
Combo2 : 255,69,0
Combo3 : 0,0,128
Combo4 : 178,43,226

[HitObjects]
256,192,23238,5,4
256,64,23585,1,0
192,96,23758,1,0
256,128,23932,1,0
256,256,24278,1,0
256,320,24452,2,0,B|288:352|369:374|448:352|480:320,1,240
480,256,25146,1,0
416,160,25492,1,0
480,64,25839,6,0,C|448:32|416:64|384:32|352:64|320:32|288:64|256:40|224:64|192:32|160:64|128:32|96:64|64:32|32:64,1,640
96,320,27573,2,0,C|144:352|176:320|208:320|240:352|272:352|304:320|336:320|368:352|416:320,1,400
416,256,28614,1,0
416,224,28700,1,0
416,192,28787,5,0
288,192,29134,1,0
320,128,29307,1,0
352,192,29481,1,0
224,192,29828,1,0
160,192,30001,2,0,C|128:128|64:192|32:128,1,240
32,64,30695,1,0
160,64,31042,1,0
288,64,31388,1,0
304,48,31475,1,0
320,32,31562,6,0,C|480:32,1,160
480,160,32255,1,0
352,160,32602,1,0
416,160,32776,1,2
352,256,33122,1,2
416,352,33469,1,2
480,256,33816,1,2
416,256,33989,1,2
352,256,34163,1,6
96,288,34683,5,0
32,320,34857,1,0
96,352,35030,1,0
96,224,35377,1,0
32,192,35550,2,0,B|13:32|160:32,1,240
224,32,36244,1,0
224,160,36591,1,0
352,160,36937,6,0,B|320:144|283:96|320:48|352:32,1,160
384,96,37458,1,2
416,32,37631,2,0,B|448:48|485:96|448:144|416:160,1,160,2|0
384,96,38151,1,0
384,224,38498,2,0,B|416:224|440:240|452:272|440:304|416:320|384:320,1,160
320,320,39018,2,0,C|240:360|208:312|128:352,1,240
64,320,39712,1,0
32,256,39885,5,4
32,128,40232,1,0
32,192,40406,1,0
160,192,40752,1,2
96,192,40926,1,2
96,128,41099,1,2
160,128,41273,1,0
160,256,41620,1,0
96,256,41793,1,0
224,256,42140,1,0
224,192,42313,1,0
224,128,42487,1,0
224,64,42660,5,6
288,32,42833,1,2
352,64,43007,1,2
288,96,43180,1,2
416,96,43527,1,2
480,64,43700,1,2
416,32,43874,1,2
480,128,44221,1,0
416,160,44394,1,12
288,160,44741,1,0
304,176,44828,1,0
320,192,44914,1,0
352,128,45088,1,2
416,224,45435,5,4
320,288,45781,1,0
384,320,45955,1,0
256,320,46302,1,2
192,288,46475,1,2
256,256,46648,1,2
128,256,46995,1,0
64,288,47169,1,0
128,320,47342,1,0
64,224,47602,1,0
64,224,47689,1,0
64,160,47862,1,0
64,32,48209,5,4
192,32,48556,1,0
160,96,48729,1,0
288,96,49076,1,2
256,160,49250,1,2
224,96,49423,1,2
352,96,49770,1,0
384,32,49943,1,0
416,96,50117,1,0
480,192,50377,1,0
480,192,50463,1,0
480,256,50637,1,0
448,320,50810,1,0
384,352,50984,6,0,C|224:352,1,160,6|2
160,320,51504,1,0
128,256,51677,2,0,C|288:256,1,160,2|2
352,224,52198,1,0
384,160,52371,2,0,C|224:160,1,160,2|2
160,128,52891,1,0
128,64,53065,2,0,C|288:64,1,160,2|2
352,32,53585,1,0
384,32,53672,1,0
416,32,53758,5,6
480,128,54105,1,2
480,192,54278,2,0,C|480:352,2,160,2|2|2
256,192,55319,1,2
256,192,55492,1,2
256,192,55666,1,2
32,192,56013,1,0
32,192,56186,1,8
32,192,56359,1,4
96,96,56706,5,0
96,96,56880,1,8
192,32,57226,1,0
192,32,57400,1,10
192,32,57573,1,10
192,32,57747,1,0
320,32,58094,1,0
320,32,58267,1,8
416,96,58614,1,0
416,96,58787,1,10
416,96,58961,1,10
416,96,59134,1,0
480,192,59481,5,0
480,192,59654,1,8
416,288,60001,1,0
416,288,60174,1,8
416,288,60348,1,8
416,288,60521,1,2
320,352,60868,1,2
320,352,61042,1,8
320,352,61215,1,2
192,352,61562,1,10
192,352,61735,1,8
192,352,61909,1,4
96,288,62255,6,0,C|153:231,3,80,0|8|0|0
192,192,62949,1,0
240,144,63122,1,8
288,96,63296,1,0
288,224,63643,1,0
320,160,63816,2,0,C|480:160,1,160,8|0
480,96,64336,1,0
416,64,64510,1,8
480,32,64683,1,0
352,32,65030,5,0
288,64,65203,1,8
288,64,65377,1,0
224,96,65550,1,0
224,96,65724,1,0
224,96,65897,1,8
160,128,66070,1,0
96,96,66244,1,2
160,128,66417,1,2
96,96,66591,1,10
160,128,66764,1,2
64,224,67111,1,0
64,224,67284,1,8
64,224,67458,1,4
128,320,67805,5,0
128,320,67978,1,8
192,224,68325,1,0
192,224,68498,1,8
192,224,68672,1,8
192,224,68845,1,0
256,320,69192,1,0
256,320,69365,1,8
320,224,69712,1,0
320,224,69885,1,8
320,224,70059,1,8
320,224,70232,1,0
384,320,70579,5,0
384,320,70752,1,8
384,320,70926,1,0
448,224,71273,1,8
448,224,71446,1,8
448,224,71620,1,2
384,96,71966,1,2
320,96,72140,1,8
256,96,72313,1,2
128,96,72660,1,10
192,96,72833,1,8
256,96,73007,1,4
256,224,73354,6,0,C|256:304,3,80,0|8|0|0
320,320,74047,1,0
256,352,74221,1,8
192,320,74394,1,0
64,320,74741,1,0
64,256,74914,2,0,C|64:96,1,160,8|0
64,32,75435,1,0
128,64,75608,1,8
64,96,75781,1,0
192,96,76128,5,0
256,64,76302,1,8
256,64,76475,1,0
320,32,76648,1,0
320,32,76822,1,0
320,32,76995,1,8
384,64,77169,1,0
448,96,77342,1,2
480,32,77515,1,2
448,96,77689,1,10
480,32,77862,1,2
480,160,78209,1,0
480,224,78383,1,8
480,288,78556,6,0,C|384:352|288:280|192:352|96:288,1,480,4|0
32,288,79770,1,0
32,160,80117,2,0,B|18:64|128:64,1,160
96,128,80637,2,0,B|206:128|192:32,1,160
256,32,81157,1,0
256,96,81331,1,0
256,160,81504,5,2
136,256,81851,1,2
256,352,82198,1,2
296,320,82371,1,2
336,288,82544,1,2
376,256,82718,1,2
256,160,83065,1,0
256,160,83238,1,8
352,96,83585,1,0
368,80,83672,1,0
384,96,83758,1,0
416,160,83932,1,2
480,192,84105,1,4
256,192,95377,5,4
256,320,95724,1,0
320,288,95897,1,0
256,256,96070,1,0
256,128,96417,1,2
256,64,96591,1,2
96,224,97111,1,0
96,160,97284,1,0
160,256,97631,1,0
160,192,97805,1,2
160,128,97978,1,2
32,192,98325,6,0,C|32:32,2,160
32,224,99105,1,0
32,256,99192,1,2
32,320,99365,1,6
160,320,99712,1,2
224,352,99885,1,2
288,320,100059,1,6
416,320,100406,1,2
480,352,100579,1,2
480,224,100926,5,6
480,96,101273,1,0
448,32,101446,1,0
416,96,101620,2,0,C|256:96,1,160
256,32,102140,2,0,B|192:32|160:64|159:97|160:128|192:160|256:160,1,240
320,160,102833,2,0,C|480:160,2,160
304,176,103614,1,0
288,192,103700,5,0
224,224,103874,1,0
288,256,104047,1,0
224,288,104221,1,0
288,320,104394,1,0
224,352,104568,1,0
160,320,104741,1,0
160,256,104914,1,2
96,160,105261,1,2
32,256,105608,1,2
96,352,105955,1,2
96,288,106128,1,2
96,224,106302,1,6
32,32,106822,5,0
96,32,106995,1,0
160,32,107169,2,0,C|224:32|226:64|288:64,1,160
352,64,107689,2,0,C|384:96|349:128|387:160|352:192|384:224,1,240
384,288,108383,2,0,B|384:320|384:352|417:384|448:352|448:320|448:288,3,160
448,224,109596,5,2
448,160,109770,2,0,C|448:98|480:95|480:32,1,160,2|0
416,32,110290,1,0
288,96,110637,2,0,C|48:96,2,240
288,160,111851,1,0
288,224,112024,6,0,C|128:224,1,160,4|0
128,160,112544,1,0
128,288,112891,1,2
64,256,113065,1,2
32,320,113238,1,2
96,352,113411,2,0,C|256:352,1,160
224,288,113932,1,0
224,160,114278,1,0
224,96,114452,1,0
224,32,114625,1,0
288,32,114799,5,6
352,64,114972,1,2
288,96,115146,1,2
352,128,115319,1,2
288,224,115666,1,2
352,192,115839,1,2
288,160,116013,1,2
288,288,116359,1,0
352,256,116533,1,12
480,256,116880,1,0
480,288,116966,1,0
480,320,117053,1,0
416,352,117226,1,2
416,224,117573,5,4
416,96,117920,1,0
416,96,118094,1,0
288,96,118440,1,2
288,96,118614,1,2
288,32,118787,2,0,C|128:32,1,160,2|0
128,96,119307,1,0
128,96,119481,1,0
224,96,119741,1,0
224,96,119828,1,0
224,160,120001,1,0
224,288,120348,5,4
96,288,120695,1,0
96,288,120868,1,0
160,192,121215,1,2
160,192,121388,1,2
224,224,121562,2,0,C|384:224,1,160,2|0
448,192,122082,1,0
448,192,122255,1,0
448,288,122515,1,0
448,288,122602,1,0
384,320,122776,1,0
320,352,122949,1,0
256,352,123122,5,6
192,256,123469,1,2
128,256,123643,1,0
192,256,123816,1,2
320,256,124163,1,2
384,256,124336,1,0
320,256,124510,1,2
256,160,124857,1,2
256,96,125030,1,0
256,160,125203,1,2
256,32,125550,1,2
192,32,125724,1,0
160,32,125810,1,0
128,32,125897,5,6
32,96,126244,1,2
128,160,126591,1,2
64,192,126764,1,2
128,224,126937,1,2
64,256,127111,1,2
128,352,127458,1,2
64,320,127631,1,2
128,288,127805,1,2
256,288,128151,1,0
256,288,128325,1,8
256,352,128498,6,0,C|416:352,1,160,4|0
480,352,129018,2,0,C|480:192,1,160,8|0
480,128,129539,1,8
480,192,129712,1,8
480,128,129885,2,0,C|320:128,1,160,0|0
256,128,130406,2,0,C|256:288,1,160,8|0
256,352,130926,1,8
256,288,131099,1,8
256,352,131273,6,0,C|96:352,1,160,0|0
32,352,131793,2,0,C|32:192,1,160,8|0
32,128,132313,1,8
32,192,132487,1,8
96,192,132660,1,2
96,64,133007,2,0,C|126:41|160:64,1,80,2|8
160,64,133354,1,2
160,192,133700,1,10
160,192,133874,1,8
160,128,134047,6,0,C|320:128,1,160,4|0
320,64,134568,2,0,C|480:64,1,160,8|0
480,128,135088,1,0
416,128,135261,1,8
416,192,135435,2,0,C|416:352,1,160,0|0
352,352,135955,2,0,C|192:352,1,160,8|0
128,352,136475,1,0
128,288,136648,1,8
192,288,136822,1,0
320,288,137169,5,0
320,224,137342,1,8
320,224,137515,1,0
256,224,137689,1,0
256,224,137862,1,0
256,224,138036,1,8
192,224,138209,1,0
128,224,138383,1,2
192,224,138556,1,2
192,160,138729,1,10
192,224,138903,1,2
192,96,139250,1,0
192,96,139423,1,8
192,32,139596,6,0,B|96:6|64:96,1,160,4|0
32,160,140117,2,0,B|5:255|96:288,1,160,8|0
160,320,140637,1,8
96,288,140810,1,8
160,320,140984,2,0,C|320:320,1,160,0|0
384,320,141504,2,0,B|474:289|448:192,1,160,8|0
416,128,142024,1,8
448,192,142198,1,8
416,128,142371,6,0,B|383:37|288:64,1,160,0|0
224,96,142891,1,8
288,128,143065,2,0,B|336:160|340:192|336:224|288:256,1,160,0|8
256,192,143585,1,8
224,256,143758,1,2
160,160,144105,2,0,C|125:183|96:160,1,80,2|8
96,160,144452,1,2
96,32,144799,1,10
96,32,144972,1,8
160,32,145146,6,0,C|320:32,1,160,4|0
320,32,145666,2,0,C|480:32,1,160,8|0
480,32,146186,1,0
480,96,146359,1,8
480,96,146533,2,0,C|480:256,1,160,0|0
480,256,147053,2,0,C|320:256,1,160,8|0
320,256,147573,1,0
320,320,147747,1,8
320,320,147920,1,0
192,320,148267,5,0
128,320,148440,1,8
128,320,148614,1,0
192,320,148787,1,0
192,320,148961,1,0
192,320,149134,1,8
192,256,149307,1,0
128,256,149481,1,2
192,256,149654,1,2
128,256,149828,1,10
192,256,150001,1,2
192,128,150348,1,0
192,192,150521,1,8
128,192,150695,1,4
128,64,151042,5,0
128,128,151215,2,0,L|64:128|64:224,1,160
64,288,151735,1,0
64,352,151909,1,0
192,352,152255,6,0,B|256:355|288:320|288:288|256:256,1,160
224,192,152776,2,0,B|192:160|192:96|288:67|307:100|352:160,1,240
416,192,153469,1,0
480,192,153643,1,4
256,192,164741,6,0,C|416:192,2,160,4|0|0
256,192,165608,1,0
256,64,165955,2,0,C|96:64,1,160
96,192,166648,1,0
96,288,166909,1,0
96,320,166995,1,0
96,256,167169,1,0
224,256,167515,6,0,C|384:256,2,160,4|0|0
224,256,168383,1,0
224,128,168729,1,0
352,128,169076,1,0
416,128,169250,1,0
480,128,169423,2,0,C|480:248,1,120
480,256,169770,1,0
416,256,169943,1,0
416,224,170030,1,0
416,192,170117,1,0
352,192,170290,5,4
352,320,170637,2,0,C|192:320,1,160
192,320,171157,1,0
64,256,171504,1,0
192,192,171851,1,0
64,128,172198,1,0
64,64,172371,1,0
128,64,172544,2,0,C|288:64,1,160
320,64,172978,1,0
352,64,173065,5,4
352,192,173411,1,0
416,160,173585,1,0
480,192,173758,1,0
480,256,173932,1,0
416,288,174105,1,0
352,256,174278,1,0
224,224,174625,1,2
160,224,174799,1,2
224,224,174972,2,0,L|304:224,1,80,2|0
280,288,175492,1,8
256,352,175666,1,4
256,32,176186,5,8
256,352,176880,1,8
256,32,177573,1,8
256,352,178267,1,8
96,192,178961,5,8
416,192,179654,1,8
96,192,180348,1,8
416,192,181042,1,8
256,352,181735,5,8
256,32,182429,1,8
256,352,183122,1,8
256,32,183816,1,8
256,32,183989,1,0
256,192,184336,5,0
192,224,184510,1,8
256,192,184683,1,0
192,160,184857,1,0
256,192,185030,1,0
256,128,185203,1,8
256,192,185377,1,0
320,160,185550,1,2
256,192,185724,1,2
320,224,185897,1,2
256,192,186070,1,2
256,192,186417,1,0
256,256,186591,1,8
256,192,186764,1,4
256,64,187111,5,0
256,128,187284,2,0,B|192:146|192:96|192:48|128:64,1,160,8|0
128,128,187805,1,8
128,64,187978,1,8
128,128,188151,1,0
64,224,188498,1,0
128,224,188672,2,0,B|110:288|160:288|208:288|192:352,1,160,8|0
128,352,189192,1,8
192,352,189365,1,8
128,352,189539,1,0
256,352,189885,5,0
320,352,190059,1,8
256,352,190232,2,0,B|238:288|288:288|336:288|320:224,1,160,0|0
384,224,190752,1,8
320,224,190926,1,2
448,224,191273,1,2
448,288,191446,1,8
448,352,191620,1,2
448,224,191966,1,10
448,160,192140,1,8
448,96,192313,1,4
320,96,192660,5,0
320,32,192833,2,0,B|256:14|256:64|256:112|192:96,1,160,8|0
192,32,193354,1,0
192,96,193527,1,8
192,32,193700,1,0
192,160,194047,1,0
192,160,194221,2,0,B|128:178|128:128|128:80|64:96,1,160,8|0
64,160,194741,1,0
64,96,194914,1,8
64,32,195088,1,0
224,32,195435,5,0
288,64,195608,1,8
352,96,195781,1,0
416,128,195955,1,0
480,160,196128,1,0
416,192,196302,1,8
480,224,196475,1,0
416,256,196648,1,2
352,288,196822,1,2
288,320,196995,1,10
224,352,197169,1,2
224,192,197515,1,0
288,192,197689,1,8
352,192,197862,1,4
224,192,198209,5,0
160,192,198383,2,0,C|129:223|96:163|64:192,2,160
320,192,199423,2,0,C|480:192,1,160
480,128,199943,2,0,B|480:32|416:25|352:32|352:128,1,240
288,128,200637,1,0
256,192,200810,5,2
128,336,201157,1,2
32,192,201504,1,2
64,144,201677,1,2
96,96,201851,1,2
128,48,202024,1,4
256,192,202371,1,0
192,192,202544,1,0
128,192,202718,1,2
128,192,203065,1,2
256,192,203411,6,0,B|416:173|448:352,1,280,4|0
304,320,204972,2,0,B|255:387|208:320,2,120
256,272,206186,1,0
208,224,206359,6,0,B|111:160|96:64,1,200,4|0
96,64,207400,1,0
96,64,207573,1,0
32,160,207920,1,0
32,160,208094,1,8
96,256,208440,1,0
96,256,208527,1,0
96,256,208614,1,0
96,320,208787,1,2
32,320,208961,1,4
160,320,209307,5,0
224,320,209481,2,0,C|384:320,1,160,8|0
384,256,210001,1,8
384,320,210174,1,8
384,256,210348,2,0,B|440:256|451:208|440:160|384:160,1,160
384,96,210868,2,0,C|224:96,1,160,8|0
224,32,211388,1,8
224,96,211562,1,8
224,32,211735,6,0,B|128:18|128:128,1,160
128,192,212255,2,0,B|72:192|61:240|72:288|128:288,1,160,8|0
192,288,212776,1,8
128,288,212949,1,8
192,288,213122,1,4
288,224,213469,2,0,B|296:240|320:260|344:240|352:224,1,80,0|8
320,160,213816,1,4
192,160,214163,1,8
128,128,214336,1,8
96,112,214423,1,0
64,96,214510,1,0
48,64,214596,1,0
32,32,214683,5,4
32,192,215030,1,8
32,352,215377,2,0,C|192:352,1,160,0|8
336,352,216070,1,0
480,352,216417,1,8
480,352,216591,1,4
480,192,216937,1,0
416,192,217111,1,8
352,192,217284,1,0
288,192,217458,5,0
224,192,217631,1,0
208,192,217718,1,0
192,192,217805,1,8
32,192,218151,2,0,C|112:192,2,80,0|0|8
32,128,218672,1,2
32,128,218758,1,0
32,128,218845,1,0
32,192,219018,1,2
32,256,219192,1,8
32,256,219278,1,0
32,256,219365,1,2
32,192,219539,1,0
96,192,219712,1,2
96,192,219799,1,0
96,192,219885,1,8
160,192,220059,6,0,B|256:207|256:96,1,160,4|0
256,32,220579,2,0,B|352:18|352:128,1,160,8|0
416,128,221099,1,8
480,128,221273,2,0,C|480:166|448:192,1,80,8|0
384,224,221620,6,0,L|384:288|320:288|320:256,1,160,0|8
320,192,222140,2,0,L|320:160|256:160|256:224,1,160,0|8
256,288,222660,1,8
32,192,223007,5,8
256,96,223354,5,8
480,192,223700,5,8
400,240,223874,1,8
400,144,224047,1,8
160,320,224394,5,8
96,240,224568,1,8
96,144,224741,1,8
160,64,224914,1,8
312,192,225261,5,6
200,192,225435,5,6
