osu file format v6

[General]
AudioFilename: julianishoushin.mp3
AudioLeadIn: 0
PreviewTime: 65460
Countdown: 0
SampleSet: Normal
StackLeniency: 1
Mode: 0
LetterboxInBreaks: 0

[Editor]
DistanceSpacing: 1
BeatDivisor: 2
GridSize: 8

[Metadata]
Title:Julia ni Heartbreak
Artist:The Checkers
Creator:soradg123
Version:Kakan ni Ouen
Source:Moero! Nekketsu Rhythm Damashii Osu! Tatakae! Ouendan 2
Tags:authentic shoshin shoushin ouendan cover

[Difficulty]
HPDrainRate:4
CircleSize:3
OverallDifficulty:4
SliderMultiplier:1.1
SliderTickRate:2

[Events]
//Background and Video events
0,0,"Normal.png"
//Break Periods
2,46059,54979
2,89173,100311
2,127975,133724
//Storyboard Layer 0 (Background)
//Storyboard Layer 1 (Fail)
//Storyboard Layer 2 (Pass)
//Storyboard Layer 3 (Foreground)
Sprite,Foreground,Centre,"spr\cru_ready.png",320,240 S,0,14802,,1.25 M,0,14802,14981,320,720,320,240 F,0,14802,15161,0,1 M,0,14981,16957,320,240
Sprite,Foreground,Centre,"txt\areyouready.png",320,240 S,0,15161,15340,5,1.25 S,0,15340,16957,1.25
Sprite,Foreground,Centre,"spr\cd_1cru.png",320,240 S,0,16598,16957,1.25
Sprite,Foreground,Centre,"spr\cd_2.png",320,240 S,0,16239,16957,1.25
Sprite,Foreground,Centre,"spr\cd_3.png",320,240 S,0,15879,16957,1.25
//Storyboard Sound Samples
Sample,15161,3,"sfx\cd_ready.wav",50
Sample,15819,3,"sfx\cd_3.wav",50
Sample,16219,3,"sfx\cd_2.wav",50
Sample,16618,3,"sfx\cd_1.wav",50
Sample,16917,3,"sfx\cd_go.wav",50
Sample,31328,2,"sfx_eba\1huh.wav",75
Sample,45700,2,"sfx_eba\4tuh.wav",75
Sample,64742,2,"sfx_eba\2osu.wav",75
Sample,67436,2,"sfx_eba\1huh.wav",75
Sample,71029,2,"sfx_eba\5yuh.wav",75
Sample,73185,2,"sfx_eba\1huh.wav",75
Sample,76239,2,"sfx_eba\3hiya.wav",75
Sample,78933,2,"sfx_eba\1huh.wav",75
Sample,82526,2,"sfx_eba\5yuh.wav",75
Sample,89173,2,"sfx_eba\2osu.wav",75
Sample,116119,2,"sfx_eba\3hiya.wav",75
Sample,118634,2,"sfx_eba\1huh.wav",75
Sample,120430,2,"sfx_eba\1huh.wav",75
Sample,124382,2,"sfx_eba\1huh.wav",75
Sample,125819,2,"sfx_eba\1huh.wav",75
Sample,137855,2,"sfx_eba\1huh.wav",75
Sample,141448,2,"sfx_eba\5yuh.wav",75
Sample,143604,2,"sfx_eba\1huh.wav",75
Sample,146658,2,"sfx_eba\3hiya.wav",75
Sample,149352,2,"sfx_eba\1huh.wav",75
Sample,152945,2,"sfx_eba\5yuh.wav",75
Sample,163544,2,"sfx_eba\2osu.wav",75
//Background Colour Transformations
3,100,255,0,0

[TimingPoints]
5820,359.281437125748,4,1,2,100,1,0
66179,-100,4,1,2,100,0,1
89173,-100,4,1,2,100,0,0
136598,-100,4,1,2,100,0,1
163903,-100,4,1,2,100,0,0

[Colours]
Combo1 : 240,0,0
Combo2 : 240,176,8
Combo3 : 48,240,40
Combo4 : 0,88,224

[HitObjects]
136,144,17317,1,6
136,328,17855,1,0
376,144,18754,5,6
376,328,19293,1,0
136,144,20191,5,6
376,144,20909,1,6
152,0,21628,5,2
272,0,21987,1,2
392,0,22346,1,2
512,0,22706,1,2
432,208,23424,5,0
432,208,23604,1,0
256,208,24143,1,0
72,344,24861,5,0
72,344,25041,1,0
256,344,25580,1,0
376,144,26299,5,0
376,144,26478,1,0
376,328,27017,1,0
136,328,27736,5,0
136,328,27915,1,0
136,144,28454,1,0
256,328,29173,5,0
256,328,29352,1,0
256,144,29891,1,0
120,24,30430,2,6,B|400:24,1,275,6|0
376,144,31688,5,6
376,328,32227,1,0
136,144,33125,5,6
136,328,33664,1,0
376,144,34562,5,6
136,144,35281,1,6
352,0,35999,5,2
232,0,36358,1,2
112,0,36718,1,2
0,0,37077,1,2
72,208,37796,5,0
72,208,37975,1,0
256,208,38514,1,0
432,344,39233,5,0
432,344,39412,1,0
256,344,39951,1,0
136,144,40670,5,0
136,144,40849,1,0
136,328,41388,1,0
376,328,42107,5,0
376,328,42287,1,0
376,144,42825,1,0
256,328,43544,5,0
256,328,43724,1,0
256,144,44263,1,0
432,144,44802,5,6
312,264,45340,1,2
192,264,45700,1,4
152,328,57556,5,0
272,328,57915,1,0
336,224,58275,1,0
216,224,58634,1,0
152,120,58993,5,0
272,120,59352,1,0
336,16,59712,1,0
216,16,60071,1,0
256,208,60610,12,14,64742
96,88,66179,6,6,B|136:0|256:-40|368:0|416:96,1,385,6|4
136,208,68334,5,2
40,152,68694,1,2
0,48,69053,1,6
216,48,69772,1,6
456,48,70490,2,2,B|360:72|376:224,1,165,6|0
96,272,71927,6,6,B|136:360|256:400|368:360|416:264,1,385,6|4
136,208,74083,5,2
256,208,74442,1,2
376,208,74802,2,6,B|544:208|536:40,2,220,6|4|4
176,288,76957,5,2
96,208,77317,1,2
96,88,77676,2,6,B|136:0|256:-40|368:0|416:96,1,385,6|4
136,208,79831,5,2
40,152,80191,1,2
0,48,80550,1,6
216,48,81269,1,6
448,48,81987,2,2,B|544:72|528:224,1,165,6|0
344,208,83245,5,0
344,208,83424,1,4
168,208,83963,1,0
168,208,84143,1,4
256,368,84682,5,0
256,368,84861,1,6
256,248,85221,1,2
256,128,85580,1,2
256,8,85939,1,6
256,208,86658,12,14,89173
376,144,102107,5,6
376,328,102646,1,0
136,144,103544,5,6
136,328,104083,1,0
376,144,104981,5,6
136,144,105700,1,6
352,0,106418,5,2
232,0,106778,1,2
112,0,107137,1,2
0,0,107496,1,2
72,208,108215,5,0
72,208,108394,1,0
256,208,108933,1,0
432,344,109652,5,0
432,344,109831,1,0
256,344,110370,1,0
136,144,111089,5,0
136,144,111269,1,0
136,328,111808,1,0
376,328,112526,5,0
376,328,112706,1,0
376,144,113245,1,0
256,328,113963,5,0
256,328,114143,1,0
256,144,114682,1,0
136,0,115221,5,6
0,104,115760,1,2
96,168,116119,1,2
0,224,116478,6,0,B|0:352|160:352|256:416|352:352|512:352|512:200,1,660,6|4
424,64,119173,6,2,B|240:248|48:24,1,385,6|4
256,64,120969,5,0
392,184,121508,1,0
392,184,121688,1,0
512,168,122047,6,2,B|480:320|384:384|256:384|128:384|32:320|0:152,1,715,6|4
128,24,124921,6,2,B|280:120|424:-8,1,275,6|4
504,24,126179,1,4
504,24,126358,1,4
336,288,135879,5,2
416,208,136239,1,2
416,88,136598,2,6,B|376:0|256:-40|144:0|96:96,1,385,6|4
376,208,138754,5,2
472,152,139113,1,2
512,48,139472,1,6
296,48,140191,1,6
56,48,140909,2,2,B|152:72|136:224,1,165,6|0
416,272,142346,6,6,B|376:360|256:400|144:360|96:264,1,385,6|4
376,208,144502,5,2
256,208,144861,1,2
136,208,145221,2,6,B|-32:208|-24:40,2,220,6|4|4
336,288,147376,5,2
416,208,147736,1,2
416,88,148095,2,6,B|376:0|256:-40|144:0|96:96,1,385,6|4
376,208,150251,5,2
472,152,150610,1,2
512,48,150969,1,6
296,48,151688,1,6
64,48,152406,2,2,B|-32:72|-16:224,1,165,6|0
168,208,153664,5,0
168,208,153843,1,4
344,208,154382,1,0
344,208,154562,1,4
256,368,155101,5,0
256,368,155281,1,6
256,248,155640,1,2
256,128,155999,1,2
256,8,156358,1,6
256,208,157077,12,14,163544
