osu file format v6

[General]
AudioFilename: julianishoushin.mp3
AudioLeadIn: 0
PreviewTime: 65460
Countdown: 0
SampleSet: Normal
StackLeniency: 1
Mode: 0
LetterboxInBreaks: 0

[Editor]
DistanceSpacing: 0.899999976158142
BeatDivisor: 2
GridSize: 8

[Metadata]
Title:Julia ni Heartbreak
Artist:The Checkers
Creator:soradg123
Version:Gekiretsu ni Ouen
Source:Moero! Nekketsu Rhythm Damashii Osu! Tatakae! Ouendan 2
Tags:authentic shoshin shoushin ouendan cover

[Difficulty]
HPDrainRate:6
CircleSize:3
OverallDifficulty:6
SliderMultiplier:1.51
SliderTickRate:2

[Events]
//Background and Video events
0,0,"Hard.png"
//Break Periods
2,46059,54951
2,89173,100311
2,127975,133724
//Storyboard Layer 0 (Background)
//Storyboard Layer 1 (Fail)
//Storyboard Layer 2 (Pass)
//Storyboard Layer 3 (Foreground)
Sprite,Foreground,Centre,"spr\swe_ready.png",320,240 S,0,14802,,1.25 M,0,14802,14981,320,720,320,240 F,0,14802,15161,0,1 M,0,14981,16957,320,240
Sprite,Foreground,Centre,"txt\areyouready.png",320,240 S,0,15161,15340,5,1.25 S,0,15340,16957,1.25
Sprite,Foreground,Centre,"spr\cd_1swe.png",320,240 S,0,16598,16957,1.25
Sprite,Foreground,Centre,"spr\cd_2.png",320,240 S,0,16239,16957,1.25
Sprite,Foreground,Centre,"spr\cd_3.png",320,240 S,0,15879,16957,1.25
//Storyboard Sound Samples
Sample,15161,3,"sfx\cd_ready.wav",50
Sample,15819,3,"sfx\cd_3.wav",50
Sample,16219,3,"sfx\cd_2.wav",50
Sample,16618,3,"sfx\cd_1.wav",50
Sample,16917,3,"sfx\cd_go.wav",50
Sample,24143,2,"sfx_eba\1huh.wav",75
Sample,25580,2,"sfx_eba\1huh.wav",75
Sample,27017,2,"sfx_eba\1huh.wav",75
Sample,38514,2,"sfx_eba\1huh.wav",75
Sample,39951,2,"sfx_eba\1huh.wav",75
Sample,41388,2,"sfx_eba\1huh.wav",75
Sample,45700,2,"sfx_eba\4tuh.wav",75
Sample,62945,2,"sfx_eba\3hiya.wav",75
Sample,64742,2,"sfx_eba\2osu.wav",75
Sample,65819,2,"sfx_eba\5yuh.wav",75
Sample,67616,2,"sfx_eba\4tuh.wav",75
Sample,73364,2,"sfx_eba\4tuh.wav",75
Sample,76239,2,"sfx_eba\4tuh.wav",75
Sample,77317,2,"sfx_eba\5yuh.wav",75
Sample,79113,2,"sfx_eba\4tuh.wav",75
Sample,87376,2,"sfx_eba\3hiya.wav",75
Sample,89173,2,"sfx_eba\2osu.wav",75
Sample,108933,2,"sfx_eba\1huh.wav",75
Sample,110370,2,"sfx_eba\1huh.wav",75
Sample,111808,2,"sfx_eba\1huh.wav",75
Sample,116299,2,"sfx_eba\4tuh.wav",75
Sample,122047,2,"sfx_eba\4tuh.wav",75
Sample,126358,2,"sfx_eba\1huh.wav",75
Sample,127616,2,"sfx_eba\4tuh.wav",75
Sample,136239,2,"sfx_eba\5yuh.wav",75
Sample,138035,2,"sfx_eba\4tuh.wav",75
Sample,143784,2,"sfx_eba\4tuh.wav",75
Sample,146658,2,"sfx_eba\4tuh.wav",75
Sample,147736,2,"sfx_eba\5yuh.wav",75
Sample,149532,2,"sfx_eba\4tuh.wav",75
Sample,157796,2,"sfx_eba\3hiya.wav",75
Sample,163544,2,"sfx_eba\2osu.wav",75
//Background Colour Transformations
3,100,255,0,0

[TimingPoints]
5820,359.281437125748,4,1,1,100,1,0
66179,-100,4,1,1,100,0,1
72466,-100,4,2,1,100,0,1
73724,-100,4,1,1,100,0,1
75161,-100,4,2,1,100,0,1
76598,-100,4,1,1,100,0,1
89173,-100,4,1,1,100,0,0
136598,-100,4,1,1,100,0,1
142885,-100,4,2,1,100,0,1
144143,-100,4,1,1,100,0,1
145580,-100,4,2,1,100,0,1
147017,-100,4,1,1,100,0,1
163903,-100,4,1,1,100,0,0

[Colours]
Combo1 : 240,0,0
Combo2 : 240,176,8
Combo3 : 48,240,40
Combo4 : 0,88,224

[HitObjects]
496,184,17317,1,6
496,352,17676,1,0
496,352,17855,1,2
16,184,18754,5,6
16,352,19113,1,0
16,352,19293,1,2
424,152,20191,6,0,B|304:256,1,151
176,152,20909,2,0,B|56:256,1,151
16,48,21628,5,2
176,48,21987,1,2
336,48,22346,1,2
496,48,22706,1,2
496,208,23065,6,0,B|496:280|376:360,1,151
336,368,23604,1,0
336,208,23963,1,0
336,208,24143,1,4
176,208,24502,6,0,B|176:280|56:360,1,151
16,368,25041,1,0
16,208,25400,1,0
16,208,25580,1,4
40,64,25939,6,0,B|104:0|176:0,1,151
256,0,26478,1,0
256,160,26837,1,0
256,160,27017,1,4
416,208,27376,5,0
336,352,27736,1,0
176,352,28095,1,0
96,208,28454,1,0
120,120,28634,2,0,B|256:24|408:128,1,302,0|4
400,8,29712,5,2
480,32,29891,1,0
512,104,30071,1,2
480,256,30430,2,2,B|272:344|240:168|32:264,1,453,6|0
16,184,31688,5,6
16,352,32047,1,0
16,352,32227,1,2
496,184,33125,5,6
496,352,33484,1,0
496,352,33664,1,2
88,152,34562,6,0,B|208:256,1,151
336,152,35281,2,0,B|456:256,1,151
496,48,35999,5,2
336,48,36358,1,2
176,48,36718,1,2
16,48,37077,1,2
16,208,37436,6,0,B|16:280|136:360,1,151
176,368,37975,1,0
176,208,38334,1,0
176,208,38514,1,4
336,208,38873,6,0,B|336:280|456:360,1,151
496,368,39412,1,0
496,208,39772,1,0
496,208,39951,1,4
472,64,40311,6,0,B|408:0|336:0,1,151
256,0,40849,1,0
256,160,41209,1,0
256,160,41388,1,4
96,208,41748,5,0
176,352,42107,1,0
336,352,42466,1,0
416,208,42825,1,0
392,120,43005,2,0,B|256:24|104:128,1,302,0|4
216,248,44083,1,0
216,248,44263,1,6
456,280,44802,6,0,B|344:272|296:168,1,151
256,168,45340,1,6
120,248,45700,1,4
16,168,57556,5,0
16,248,57736,1,0
16,328,57915,1,0
176,328,58275,2,0,B|176:168,1,151,0|4
336,168,58993,5,0
336,248,59173,1,0
336,328,59352,1,0
496,328,59712,2,0,B|496:168,1,151,0|4
496,24,60430,5,0
416,24,60610,1,0
336,24,60790,1,0
176,24,61149,1,0
16,24,61508,1,0
16,104,61688,2,0,B|8:344|256:408|392:320,1,528.5,0|6
336,192,63305,5,6
176,136,63664,1,2
336,96,64023,1,2
176,40,64382,1,2
336,0,64742,1,6
256,336,65460,5,0
168,208,65820,1,0
16,144,66179,2,2,B|48:8|224:0,2,226.5,6|2|0
16,224,67436,1,0
16,224,67616,1,4
256,368,68334,5,0
256,208,68694,1,0
120,128,69053,2,2,B|256:0|400:136,1,302,0|4
136,304,70490,1,0
216,304,70670,1,0
376,344,71029,1,4
416,168,71748,5,0
496,144,71927,2,2,B|464:8|288:0,2,226.5,6|2|0
496,224,73185,1,0
496,224,73364,1,4
256,368,74083,5,0
256,208,74442,1,0
184,48,74802,2,2,B|256:0|328:48,3,151,2|2|2|4
256,104,76059,1,0
256,104,76239,1,4
256,336,76957,5,0
344,208,77317,1,0
496,144,77676,2,2,B|464:8|288:0,2,226.5,6|2|0
496,224,78933,1,0
496,224,79113,1,4
256,368,79831,5,0
256,208,80191,1,0
392,128,80550,2,2,B|256:0|112:136,1,302,0|4
376,304,81987,1,0
296,304,82167,1,0
136,344,82526,1,4
96,48,83245,5,2
96,48,83424,1,2
416,48,83963,1,2
416,48,84143,1,2
376,360,84682,1,2
376,360,84861,1,2
256,264,85221,1,6
136,360,85580,1,2
16,256,85939,2,2,B|16:-24|320:-64|448:72,1,604,2|14
256,208,87736,12,14,89173
256,344,102107,5,6
184,48,103005,1,0
256,80,103185,1,2
328,48,103364,1,2
256,0,103544,5,6
176,248,104442,1,0
256,248,104622,1,2
336,248,104802,1,2
336,160,104981,6,0,B|176:160,3,151,2|2|2|6
16,48,106418,5,2
176,48,106778,1,2
336,48,107137,1,2
496,48,107496,1,2
456,208,107855,6,0,B|456:280|336:360,1,151
296,368,108394,1,0
296,208,108754,1,0
296,208,108933,1,4
56,208,109293,6,0,B|56:280|176:360,1,151
216,368,109831,1,0
216,208,110191,1,0
216,208,110370,1,4
144,24,110730,6,0,B|256:-32|360:16,1,151
376,24,111269,1,0
256,136,111628,1,0
256,136,111808,1,4
96,224,112167,5,0
176,344,112526,1,0
336,344,112885,1,0
416,224,113245,1,0
392,144,113424,2,0,B|256:48|104:152,2,302,0|0|4
456,296,115221,6,0,B|328:296|392:176|208:256,1,226.5
104,304,116119,1,0
104,304,116299,1,4
120,144,116837,5,0
120,144,117017,1,0
448,64,117736,2,0,B|504:104|520:200,1,151
512,288,118275,1,0
376,352,118634,1,0
320,288,118814,1,0
392,144,119173,2,0,B|256:48|104:152,2,302,0|0|4
496,296,120969,6,0,B|368:296|432:176|248:256,1,226.5
216,264,121688,1,0
64,304,122047,1,4
176,144,122586,5,0
440,144,123125,1,0
440,144,123305,1,0
296,40,123664,2,0,B|40:40|80:280,1,377.5,0|4
216,360,124921,2,0,B|472:384|432:136,1,377.5,0|4
296,40,126179,1,0
256,112,126358,1,4
32,168,126897,5,6
32,168,127077,1,6
96,224,127257,1,6
96,224,127436,1,6
152,288,127616,1,4
256,336,135879,5,0
344,208,136239,1,0
496,144,136598,2,2,B|464:8|288:0,2,226.5,6|2|0
496,224,137855,1,0
496,224,138035,1,4
256,368,138754,5,0
256,208,139113,1,0
392,128,139472,2,2,B|256:0|112:136,1,302,0|4
376,304,140909,1,0
296,304,141089,1,0
136,344,141448,1,4
96,168,142167,5,0
16,144,142346,2,2,B|48:8|224:0,2,226.5,6|2|0
16,224,143604,1,0
16,224,143784,1,4
256,368,144502,5,0
256,208,144861,1,0
184,48,145221,2,2,B|256:0|328:48,3,151,2|2|2|4
256,104,146478,1,0
256,104,146658,1,4
256,336,147376,5,0
168,208,147736,1,0
16,144,148095,2,2,B|48:8|224:0,2,226.5,6|2|0
16,224,149352,1,0
16,224,149532,1,4
256,368,150251,5,0
256,208,150610,1,0
120,128,150969,2,2,B|256:0|400:136,1,302,0|4
136,304,152406,1,0
216,304,152586,1,0
376,344,152945,1,4
416,24,153664,5,2
416,104,153843,1,2
96,24,154382,1,2
96,104,154562,1,2
136,360,155101,1,2
136,360,155281,1,2
256,264,155640,1,6
376,360,155999,1,2
496,256,156358,2,2,B|496:-24|192:-64|64:72,1,604,2|14
256,208,158155,12,14,163544
